  0
SECTION
  2
HEADER
  9
$ACADVER
  1
AC1014
  9
$ACADMAINTVER
 70
     9
  9
$DWGCODEPAGE
  3
ANSI_1252
  9
$INSBASE
 10
0.0
 20
0.0
 30
0.0
  9
$EXTMIN
 10
-191.1769366939169
 20
-314.5795198468001
 30
-0.0015258207003583
  9
$EXTMAX
 10
642.4196927492535
 20
397.4638152047814
 30
0.0000000349246037
  9
$LIMMIN
 10
39.50060399999999
 20
26.12726
  9
$LIMMAX
 10
176.3840659999999
 20
253.27274
  9
$ORTHOMODE
 70
     1
  9
$REGENMODE
 70
     1
  9
$FILLMODE
 70
     1
  9
$QTEXTMODE
 70
     0
  9
$MIRRTEXT
 70
     1
  9
$DRAGMODE
 70
     2
  9
$LTSCALE
 40
1.0
  9
$OSMODE
 70
    55
  9
$ATTMODE
 70
     1
  9
$TEXTSIZE
 40
0.2
  9
$TRACEWID
 40
0.05
  9
$TEXTSTYLE
  7
STANDARD
  9
$CLAYER
  8
0
  9
$CELTYPE
  6
CONTINUOUS
  9
$CECOLOR
 62
   256
  9
$CELTSCALE
 40
1.0
  9
$DELOBJ
 70
     1
  9
$DISPSILH
 70
     0
  9
$DIMSCALE
 40
40.0
  9
$DIMASZ
 40
0.18
  9
$DIMEXO
 40
0.0625
  9
$DIMDLI
 40
0.38
  9
$DIMRND
 40
0.0
  9
$DIMDLE
 40
0.0
  9
$DIMEXE
 40
0.18
  9
$DIMTP
 40
0.0
  9
$DIMTM
 40
0.0
  9
$DIMTXT
 40
0.18
  9
$DIMCEN
 40
0.09
  9
$DIMTSZ
 40
0.0
  9
$DIMTOL
 70
     0
  9
$DIMLIM
 70
     0
  9
$DIMTIH
 70
     1
  9
$DIMTOH
 70
     1
  9
$DIMSE1
 70
     0
  9
$DIMSE2
 70
     0
  9
$DIMTAD
 70
     0
  9
$DIMZIN
 70
     0
  9
$DIMBLK
  1

  9
$DIMASO
 70
     1
  9
$DIMSHO
 70
     1
  9
$DIMPOST
  1

  9
$DIMAPOST
  1

  9
$DIMALT
 70
     1
  9
$DIMALTD
 70
     1
  9
$DIMALTF
 40
0.0394
  9
$DIMLFAC
 40
1.0
  9
$DIMTOFL
 70
     0
  9
$DIMTVP
 40
0.0
  9
$DIMTIX
 70
     0
  9
$DIMSOXD
 70
     0
  9
$DIMSAH
 70
     0
  9
$DIMBLK1
  1

  9
$DIMBLK2
  1

  9
$DIMSTYLE
  2
STANDARD
  9
$DIMCLRD
 70
     0
  9
$DIMCLRE
 70
     0
  9
$DIMCLRT
 70
     0
  9
$DIMTFAC
 40
1.0
  9
$DIMGAP
 40
0.09
  9
$DIMJUST
 70
     0
  9
$DIMSD1
 70
     0
  9
$DIMSD2
 70
     0
  9
$DIMTOLJ
 70
     1
  9
$DIMTZIN
 70
     0
  9
$DIMALTZ
 70
     0
  9
$DIMALTTZ
 70
     0
  9
$DIMFIT
 70
     3
  9
$DIMUPT
 70
     0
  9
$DIMUNIT
 70
     2
  9
$DIMDEC
 70
     1
  9
$DIMTDEC
 70
     1
  9
$DIMALTU
 70
     2
  9
$DIMALTTD
 70
     1
  9
$DIMTXSTY
  7
STANDARD
  9
$DIMAUNIT
 70
     0
  9
$LUNITS
 70
     2
  9
$LUPREC
 70
     1
  9
$SKETCHINC
 40
0.1
  9
$FILLETRAD
 40
0.0
  9
$AUNITS
 70
     0
  9
$AUPREC
 70
     0
  9
$MENU
  1
acad
  9
$ELEVATION
 40
0.0
  9
$PELEVATION
 40
0.0
  9
$THICKNESS
 40
0.0
  9
$LIMCHECK
 70
     0
  9
$BLIPMODE
 70
     0
  9
$CHAMFERA
 40
0.0
  9
$CHAMFERB
 40
0.0
  9
$CHAMFERC
 40
0.0
  9
$CHAMFERD
 40
0.0
  9
$SKPOLY
 70
     0
  9
$TDCREATE
 40
2311947.014482881
  9
$TDUPDATE
 40
2452991.567367766
  9
$TDINDWG
 40
0.0202434722
  9
$TDUSRTIMER
 40
0.0202434722
  9
$USRTIMER
 70
     1
  9
$ANGBASE
 50
0.0
  9
$ANGDIR
 70
     0
  9
$PDMODE
 70
     0
  9
$PDSIZE
 40
0.0
  9
$PLINEWID
 40
0.0
  9
$COORDS
 70
     1
  9
$SPLFRAME
 70
     0
  9
$SPLINETYPE
 70
     6
  9
$SPLINESEGS
 70
     8
  9
$ATTDIA
 70
     0
  9
$ATTREQ
 70
     1
  9
$HANDLING
 70
 22529
  9
$HANDSEED
  5
196E
  9
$SURFTAB1
 70
     6
  9
$SURFTAB2
 70
     6
  9
$SURFTYPE
 70
     6
  9
$SURFU
 70
     6
  9
$SURFV
 70
     6
  9
$UCSNAME
  2

  9
$UCSORG
 10
0.0
 20
0.0
 30
0.0
  9
$UCSXDIR
 10
1.0
 20
0.0
 30
0.0
  9
$UCSYDIR
 10
0.0
 20
1.0
 30
0.0
  9
$PUCSNAME
  2

  9
$PUCSORG
 10
0.0
 20
0.0
 30
0.0
  9
$PUCSXDIR
 10
1.0
 20
0.0
 30
0.0
  9
$PUCSYDIR
 10
0.0
 20
1.0
 30
0.0
  9
$USERI1
 70
     0
  9
$USERI2
 70
     0
  9
$USERI3
 70
     0
  9
$USERI4
 70
     0
  9
$USERI5
 70
     0
  9
$USERR1
 40
0.0
  9
$USERR2
 40
0.0
  9
$USERR3
 40
0.0
  9
$USERR4
 40
0.0
  9
$USERR5
 40
0.0
  9
$WORLDVIEW
 70
     1
  9
$SHADEDGE
 70
     3
  9
$SHADEDIF
 70
    70
  9
$TILEMODE
 70
     1
  9
$MAXACTVP
 70
    16
  9
$PINSBASE
 10
0.0
 20
0.0
 30
0.0
  9
$PLIMCHECK
 70
     0
  9
$PEXTMIN
 10
1.000000000000000E+20
 20
1.000000000000000E+20
 30
1.000000000000000E+20
  9
$PEXTMAX
 10
-1.000000000000000E+20
 20
-1.000000000000000E+20
 30
-1.000000000000000E+20
  9
$PLIMMIN
 10
0.0
 20
0.0
  9
$PLIMMAX
 10
12.0
 20
9.0
  9
$UNITMODE
 70
     0
  9
$VISRETAIN
 70
     0
  9
$PLINEGEN
 70
     1
  9
$PSLTSCALE
 70
     0
  9
$TREEDEPTH
 70
  3020
  9
$PICKSTYLE
 70
     1
  9
$CMLSTYLE
  2
STANDARD
  9
$CMLJUST
 70
     0
  9
$CMLSCALE
 40
1.0
  9
$PROXYGRAPHICS
 70
     0
  9
$MEASUREMENT
 70
     0
  0
ENDSEC
  0
SECTION
  2
CLASSES
  0
CLASS
  1
LWPOLYLINE
  2
AcDbPolyline
  3
AutoCAD 2000
 90
        0
280
     0
281
     1
  0
CLASS
  1
IMAGE
  2
AcDbRasterImage
  3
ISM
 90
      127
280
     0
281
     1
  0
CLASS
  1
OLE2FRAME
  2
AcDbOle2Frame
  3
AutoCAD 2000
 90
        0
280
     0
281
     1
  0
CLASS
  1
HATCH
  2
AcDbHatch
  3
AutoCAD 2000
 90
        0
280
     0
281
     1
  0
CLASS
  1
DICTIONARYVAR
  2
AcDbDictionaryVar
  3
AutoCAD 2000
 90
        0
280
     0
281
     0
  0
CLASS
  1
RASTERVARIABLES
  2
AcDbRasterVariables
  3
ISM
 90
        0
280
     0
281
     0
  0
CLASS
  1
IMAGEDEF
  2
AcDbRasterImageDef
  3
ISM
 90
        0
280
     0
281
     0
  0
CLASS
  1
IMAGEDEF_REACTOR
  2
AcDbRasterImageDefReactor
  3
ISM
 90
        1
280
     0
281
     0
  0
CLASS
  1
IDBUFFER
  2
AcDbIdBuffer
  3
AutoCAD 2000
 90
        0
280
     0
281
     0
  0
CLASS
  1
SPATIAL_FILTER
  2
AcDbSpatialFilter
  3
AutoCAD 2000
 90
        0
280
     0
281
     0
  0
CLASS
  1
XRECORD
  2
AcDbXrecord
  3
AutoCAD 2000
 90
        0
280
     0
281
     0
  0
CLASS
  1
SORTENTSTABLE
  2
AcDbSortentsTable
  3
AutoCAD 2000
 90
        0
280
     0
281
     0
  0
CLASS
  1
LAYER_INDEX
  2
AcDbLayerIndex
  3
AutoCAD 2000
 90
        0
280
     0
281
     0
  0
CLASS
  1
SPATIAL_INDEX
  2
AcDbSpatialIndex
  3
AutoCAD 2000
 90
        0
280
     0
281
     0
  0
CLASS
  1
OBJECT_PTR
  2
CAseDLPNTableRecord
  3
"ASE-LPNTableRecord"
 90
        1
280
     0
281
     0
  0
CLASS
  1
LAYOUT
  2
AcDbLayout
  3
AutoCAD 2000
 90
        0
280
     0
281
     0
  0
CLASS
  1
PLOTSETTINGS
  2
AcDbPlotSettings
  3
AutoCAD 2000
 90
        0
280
     0
281
     0
  0
CLASS
  1
ACDBDICTIONARYWDFLT
  2
AcDbDictionaryWithDefault
  3
AutoCAD 2000
 90
        0
280
     0
281
     0
  0
CLASS
  1
ACDBPLACEHOLDER
  2
AcDbPlaceHolder
  3
AutoCAD 2000
 90
        0
280
     0
281
     0
  0
CLASS
  1
VBA_PROJECT
  2
AcDbVbaProject
  3
"acadvba"
 90
        1
280
     0
281
     0
  0
CLASS
  1
WIPEOUT
  2
AcDbWipeout
  3
WipeOut|AutoCAD Express Tool|expresstools@autodesk.com
 90
      127
280
     0
281
     1
  0
CLASS
  1
WIPEOUTVARIABLES
  2
AcDbWipeoutVariables
  3
WipeOut|AutoCAD Express Tool|expresstools@autodesk.com
 90
        0
280
     0
281
     0
  0
CLASS
  1
RTEXT
  2
RText
  3
RText|AutoCAD Express Tool|expresstools@autodesk.com
 90
        0
280
     0
281
     1
  0
CLASS
  1
ARCALIGNEDTEXT
  2
AcDbArcAlignedText
  3
ATEXT|AutoCAD Express Tool|expresstools@autodesk.com
 90
        0
280
     0
281
     1
  0
CLASS
  1
LONG_TRANSACTION
  2
AcDbLongTransaction
  3
AutoCAD 2000
 90
        0
280
     0
281
     0
  0
CLASS
  1
LWPOLYLINE
  2
AcDbPolyline
  3
AutoCAD 2000
 90
        0
280
     0
281
     1
  0
CLASS
  1
HATCH
  2
AcDbHatch
  3
AutoCAD 2000
 90
        0
280
     0
281
     1
  0
CLASS
  1
XRECORD
  2
AcDbXrecord
  3
AutoCAD 2000
 90
        0
280
     0
281
     0
  0
ENDSEC
  0
SECTION
  2
TABLES
  0
TABLE
  2
VPORT
  5
7
330
0
100
AcDbSymbolTable
 70
     3
  0
VPORT
  5
1947
330
7
100
AcDbSymbolTableRecord
100
AcDbViewportTableRecord
  2
*ACTIVE
 70
     0
 10
0.0
 20
0.0
 11
1.0
 21
1.0
 12
49.59656838950241
 22
90.48329773932158
 13
0.0
 23
0.0
 14
1.0
 24
1.0
 15
0.0
 25
0.0
 16
0.0
 26
0.0
 36
1.0
 17
0.0
 27
0.0
 37
0.0
 40
888.036527525484
 41
1.795019157088122
 42
50.0
 43
0.0
 44
0.0
 50
0.0
 51
0.0
 71
     0
 72
   100
 73
     1
 74
     1
 75
     0
 76
     0
 77
     0
 78
     0
  0
ENDTAB
  0
TABLE
  2
LTYPE
  5
4
330
0
100
AcDbSymbolTable
 70
     3
  0
LTYPE
  5
11
330
4
100
AcDbSymbolTableRecord
100
AcDbLinetypeTableRecord
  2
BYBLOCK
 70
     0
  3

 72
    65
 73
     0
 40
0.0
  0
LTYPE
  5
12
330
4
100
AcDbSymbolTableRecord
100
AcDbLinetypeTableRecord
  2
BYLAYER
 70
     0
  3

 72
    65
 73
     0
 40
0.0
  0
LTYPE
  5
13
330
4
100
AcDbSymbolTableRecord
100
AcDbLinetypeTableRecord
  2
CONTINUOUS
 70
     0
  3
Solid line
 72
    65
 73
     0
 40
0.0
  0
LTYPE
  5
1243
330
4
100
AcDbSymbolTableRecord
100
AcDbLinetypeTableRecord
  2
AI9-LTYPE1
 70
     0
  3
Illustrator Dash Style No.1
 72
    65
 73
     4
 40
0.352778
 49
0.088194
 74
     0
 49
-0.088194
 74
     0
 49
0.088194
 74
     0
 49
-0.088194
 74
     0
  0
LTYPE
  5
1289
330
4
100
AcDbSymbolTableRecord
100
AcDbLinetypeTableRecord
  2
AI9-LTYPE2
 70
     0
  3
Illustrator Dash Style No.2
 72
    65
 73
     6
 40
0.5291670000000001
 49
0.088194
 74
     0
 49
-0.088194
 74
     0
 49
0.088194
 74
     0
 49
-0.088194
 74
     0
 49
0.088194
 74
     0
 49
-0.088194
 74
     0
  0
ENDTAB
  0
TABLE
  2
LAYER
  5
2
330
0
100
AcDbSymbolTable
 70
     4
  0
LAYER
  5
14
330
2
100
AcDbSymbolTableRecord
100
AcDbLayerTableRecord
  2
0
 70
     0
 62
     7
  6
CONTINUOUS
  0
LAYER
  5
21
330
2
100
AcDbSymbolTableRecord
100
AcDbLayerTableRecord
  2
LAYER_1
 70
     0
 62
     5
  6
CONTINUOUS
  0
LAYER
  5
23
330
2
100
AcDbSymbolTableRecord
100
AcDbLayerTableRecord
  2
LAYER_1_0
 70
     0
 62
     5
  6
CONTINUOUS
  0
LAYER
  5
1856
330
2
100
AcDbSymbolTableRecord
100
AcDbLayerTableRecord
  2
DEFPOINTS
 70
     0
 62
     7
  6
CONTINUOUS
  0
ENDTAB
  0
TABLE
  2
STYLE
  5
3
330
0
100
AcDbSymbolTable
 70
     5
  0
STYLE
  5
17
330
3
100
AcDbSymbolTableRecord
100
AcDbTextStyleTableRecord
  2
STANDARD
 70
     0
 40
0.0
 41
1.0
 50
0.0
 71
     0
 42
0.2
  3
txt
  4

  0
STYLE
  5
1D
330
3
100
AcDbSymbolTableRecord
100
AcDbTextStyleTableRecord
  2
STD
 70
     0
 40
0.0
 41
1.0
 50
0.0
 71
     0
 42
0.0
  3
txt
  4

  0
STYLE
  5
1E
330
3
100
AcDbSymbolTableRecord
100
AcDbTextStyleTableRecord
  2
TATESTD
 70
     4
 40
0.0
 41
1.0
 50
0.0
 71
     0
 42
0.0
  3
txt
  4

  0
STYLE
  5
1F
330
3
100
AcDbSymbolTableRecord
100
AcDbTextStyleTableRecord
  2
KANJISTD
 70
     0
 40
0.0
 41
1.0
 50
0.0
 71
     0
 42
0.0
  3
txt
  4
extfont
  0
STYLE
  5
20
330
3
100
AcDbSymbolTableRecord
100
AcDbTextStyleTableRecord
  2
KANJITATE
 70
     4
 40
0.0
 41
1.0
 50
0.0
 71
     0
 42
0.0
  3
txt
  4
extfont
  0
ENDTAB
  0
TABLE
  2
VIEW
  5
5
330
0
100
AcDbSymbolTable
 70
     0
  0
ENDTAB
  0
TABLE
  2
UCS
  5
6
330
0
100
AcDbSymbolTable
 70
     0
  0
ENDTAB
  0
TABLE
  2
APPID
  5
8
330
0
100
AcDbSymbolTable
 70
     2
  0
APPID
  5
16
330
8
100
AcDbSymbolTableRecord
100
AcDbRegAppTableRecord
  2
ACAD
 70
     0
  0
APPID
  5
196C
330
8
100
AcDbSymbolTableRecord
100
AcDbRegAppTableRecord
  2
CONTENTBLOCKICON
 70
     0
  0
ENDTAB
  0
TABLE
  2
DIMSTYLE
  5
9
330
0
100
AcDbSymbolTable
 70
     1
  0
DIMSTYLE
105
18
102
{ACAD_REACTORS
330
1864
330
18CA
330
18D8
330
18F4
102
}
330
9
100
AcDbSymbolTableRecord
100
AcDbDimStyleTableRecord
  2
STANDARD
 70
     0
  3

  4

  5

  6

  7

 40
40.0
 41
0.18
 42
0.0625
 43
0.38
 44
0.18
 45
0.0
 46
0.0
 47
0.0
 48
0.0
140
0.18
141
0.09
142
0.0
143
0.0394
144
1.0
145
0.0
146
1.0
147
0.09
 71
     0
 72
     0
 73
     1
 74
     1
 75
     0
 76
     0
 77
     0
 78
     0
170
     1
171
     1
172
     0
173
     0
174
     0
175
     0
176
     0
177
     0
178
     0
270
     2
271
     1
272
     1
273
     2
274
     1
340
17
275
     0
280
     0
281
     0
282
     0
283
     1
284
     0
285
     0
286
     0
287
     3
288
     0
  0
ENDTAB
  0
TABLE
  2
BLOCK_RECORD
  5
1
330
0
100
AcDbSymbolTable
 70
    12
  0
BLOCK_RECORD
  5
A
102
{ACAD_XDICTIONARY
360
1968
102
}
330
1
100
AcDbSymbolTableRecord
100
AcDbBlockTableRecord
  2
*MODEL_SPACE
  0
BLOCK_RECORD
  5
B
102
{ACAD_XDICTIONARY
360
196A
102
}
330
1
100
AcDbSymbolTableRecord
100
AcDbBlockTableRecord
  2
*PAPER_SPACE
  0
BLOCK_RECORD
  5
1530
330
1
100
AcDbSymbolTableRecord
100
AcDbBlockTableRecord
  2
AI9-BLK1
  0
BLOCK_RECORD
  5
1547
330
1
100
AcDbSymbolTableRecord
100
AcDbBlockTableRecord
  2
9418T
1001
ACAD
1000
DesignCenter Data
1002
{
1070
     1
1070
     4
1002
}
1001
CONTENTBLOCKICON
1071
        0
1004
2800000020000000200000000100080000000000000400000000000000000000000000000000000000000000000080000080000000808000800000008000800080800000C0C0C000C0DCC000F0CAA6000020400000206000002080000020A0000020C0000020E00000400000004020000040400000406000004080000040A0
1004
000040C0000040E00000600000006020000060400000606000006080000060A0000060C0000060E00000800000008020000080400000806000008080000080A0000080C0000080E00000A0000000A0200000A0400000A0600000A0800000A0A00000A0C00000A0E00000C0000000C0200000C0400000C0600000C0800000C0
1004
A00000C0C00000C0E00000E0000000E0200000E0400000E0600000E0800000E0A00000E0C00000E0E00040000000400020004000400040006000400080004000A0004000C0004000E00040200000402020004020400040206000402080004020A0004020C0004020E000404000004040200040404000404060004040800040
1004
40A0004040C0004040E00040600000406020004060400040606000406080004060A0004060C0004060E00040800000408020004080400040806000408080004080A0004080C0004080E00040A0000040A0200040A0400040A0600040A0800040A0A00040A0C00040A0E00040C0000040C0200040C0400040C0600040C08000
1004
40C0A00040C0C00040C0E00040E0000040E0200040E0400040E0600040E0800040E0A00040E0C00040E0E00080000000800020008000400080006000800080008000A0008000C0008000E00080200000802020008020400080206000802080008020A0008020C0008020E00080400000804020008040400080406000804080
1004
008040A0008040C0008040E00080600000806020008060400080606000806080008060A0008060C0008060E00080800000808020008080400080806000808080008080A0008080C0008080E00080A0000080A0200080A0400080A0600080A0800080A0A00080A0C00080A0E00080C0000080C0200080C0400080C0600080C0
1004
800080C0A00080C0C00080C0E00080E0000080E0200080E0400080E0600080E0800080E0A00080E0C00080E0E000C0000000C0002000C0004000C0006000C0008000C000A000C000C000C000E000C0200000C0202000C0204000C0206000C0208000C020A000C020C000C020E000C0400000C0402000C0404000C0406000C0
1004
408000C040A000C040C000C040E000C0600000C0602000C0604000C0606000C0608000C060A000C060C000C060E000C0800000C0802000C0804000C0806000C0808000C080A000C080C000C080E000C0A00000C0A02000C0A04000C0A06000C0A08000C0A0A000C0A0C000C0A0E000C0C00000C0C02000C0C04000C0C06000
1004
C0C08000C0C0A000F0FBFF00A4A0A000808080000000FF0000FF000000FFFF00FF000000FF00FF00FFFF0000FFFFFF00FFFFFFFFFFFFFFFFFFFFFFFFFFFFFFFFFFFFFFFFFFFFFFFFFFFFFFFFFFFFFFFFFFFFFFFFFFFFFFFFFFFFFFFFFFFFFFFFFFFFFFFFFFFFFFFFFFFFFFFFFFFFFFFFFFFFFFFFFFFFFFFFFFFFFFFFFFFFFF
1004
FFFFFFFFFFFFFFFFFFFFFFFFFFFFFFFFFFFFFFFFFFFFFFFFFFFFFFFFFFFFFFFFFFFFFFFFFFFFFFFFFFFFFFFFFFFFFFFFFFFFFFFFFFFFFFFF000000000000000000FFFFFFFFFFFFFFFFFFFFFFFFFFFFFFFFFFFF000000000000000000000000000000000000000000000000000000FFFFFFFFFF000000000000FFFFFFFFFFFF
1004
FF000000000000000000000000000000FFFFFFFF00FFFFFF0000FFFFFFFFFFFFFF0000FFFFFFFFFFFFFFFFFFFFFF0000FFFFFFFF00FFFFFF00FFFFFFFFFFFFFFFFFF00FFFFFFFFFFFFFFFFFFFFFF0000FFFFFFFF00FFFFFF00FFFFFFFFFFFFFFFFFF00FFFFFFFFFFFFFFFFFFFFFF0000FFFFFFFF00FFFFFF00FFFFFFFFFFFF
1004
FFFFFF00FFFFFFFFFFFFFFFFFFFFFF0000FFFFFF0000FFFFFF00FFFFFFFFFFFFFFFFFF00FFFFFFFFFFFFFFFFFFFFFFFF00FFFFFF0000FFFFFF00FFFFFFFFFFFFFFFFFF00FFFFFFFFFFFFFFFFFFFFFFFF00FFFFFF0000FFFFFF00FFFFFFFFFFFFFFFFFF00FFFFFFFFFFFFFFFFFFFFFFFF0000FFFF0000FFFFFF00FFFFFFFFFF
1004
FFFFFFFF00FFFFFFFFFFFFFFFFFFFFFFFF0000FFFF0000FFFFFF000000000000FF00000000FFFFFFFFFFFFFFFFFFFFFFFF0000FFFF0000FFFFFF000000000000FF00000000FFFFFFFFFFFFFFFFFFFFFFFF0000FFFF0000FFFFFF00FFFFFFFFFFFFFFFFFF00FFFFFFFFFFFFFFFFFFFFFFFF0000FFFF0000FFFFFF00FFFFFFFF
1004
FFFFFFFFFF00FFFFFFFFFFFFFFFFFFFFFFFF0000FFFF0000FFFFFF00FFFFFFFFFFFFFFFFFF00FFFFFFFFFFFFFFFFFFFFFFFF00FFFFFFFF00FFFFFF00FFFFFFFFFFFFFFFFFF00FFFFFFFFFFFFFFFFFFFFFFFF00FFFFFFFF00FFFFFF00FFFFFFFFFFFFFFFFFF00FFFFFFFFFFFFFFFFFFFFFF0000FFFFFFFF00FFFFFF00FFFFFF
1004
FFFFFFFFFFFF00FFFFFFFFFFFFFFFFFFFFFF0000FFFFFFFF00FFFFFF00FFFFFFFFFFFFFFFFFF00FFFFFFFFFFFFFFFFFFFFFF0000FFFFFFFF00FFFFFF0000FFFFFFFFFFFFFF0000FFFFFFFFFFFFFFFFFFFFFF0000FFFFFFFF000000000000FFFFFFFFFFFFFF000000000000000000000000000000FFFFFFFF00000000000000
1004
0000000000000000000000000000000000000000FFFFFFFFFFFFFFFFFFFF000000000000000000FFFFFFFFFFFFFFFFFFFFFFFFFFFFFFFFFFFFFFFFFFFFFFFFFFFFFFFFFFFFFFFFFFFFFFFFFFFFFFFFFFFFFFFFFFFFFFFFFFFFFFFFFFFFFFFFFFFFFFFFFFFFFFFFFFFFFFFFFFFFFFFFFFFFFFFFFFFFFFFFFFFFFFFFFFFFFFFF
1004
FFFFFFFFFFFFFFFFFFFFFFFFFFFFFFFFFFFFFFFFFFFFFFFFFFFFFFFFFFFFFFFFFFFFFFFFFFFFFFFFFFFFFFFFFFFFFFFFFFFFFFFFFFFFFFFF
  0
BLOCK_RECORD
  5
165A
330
1
100
AcDbSymbolTableRecord
100
AcDbBlockTableRecord
  2
9418S
1001
ACAD
1000
DesignCenter Data
1002
{
1070
     1
1070
     4
1002
}
1001
CONTENTBLOCKICON
1071
        0
1004
2800000020000000200000000100080000000000000400000000000000000000000000000000000000000000000080000080000000808000800000008000800080800000C0C0C000C0DCC000F0CAA6000020400000206000002080000020A0000020C0000020E00000400000004020000040400000406000004080000040A0
1004
000040C0000040E00000600000006020000060400000606000006080000060A0000060C0000060E00000800000008020000080400000806000008080000080A0000080C0000080E00000A0000000A0200000A0400000A0600000A0800000A0A00000A0C00000A0E00000C0000000C0200000C0400000C0600000C0800000C0
1004
A00000C0C00000C0E00000E0000000E0200000E0400000E0600000E0800000E0A00000E0C00000E0E00040000000400020004000400040006000400080004000A0004000C0004000E00040200000402020004020400040206000402080004020A0004020C0004020E000404000004040200040404000404060004040800040
1004
40A0004040C0004040E00040600000406020004060400040606000406080004060A0004060C0004060E00040800000408020004080400040806000408080004080A0004080C0004080E00040A0000040A0200040A0400040A0600040A0800040A0A00040A0C00040A0E00040C0000040C0200040C0400040C0600040C08000
1004
40C0A00040C0C00040C0E00040E0000040E0200040E0400040E0600040E0800040E0A00040E0C00040E0E00080000000800020008000400080006000800080008000A0008000C0008000E00080200000802020008020400080206000802080008020A0008020C0008020E00080400000804020008040400080406000804080
1004
008040A0008040C0008040E00080600000806020008060400080606000806080008060A0008060C0008060E00080800000808020008080400080806000808080008080A0008080C0008080E00080A0000080A0200080A0400080A0600080A0800080A0A00080A0C00080A0E00080C0000080C0200080C0400080C0600080C0
1004
800080C0A00080C0C00080C0E00080E0000080E0200080E0400080E0600080E0800080E0A00080E0C00080E0E000C0000000C0002000C0004000C0006000C0008000C000A000C000C000C000E000C0200000C0202000C0204000C0206000C0208000C020A000C020C000C020E000C0400000C0402000C0404000C0406000C0
1004
408000C040A000C040C000C040E000C0600000C0602000C0604000C0606000C0608000C060A000C060C000C060E000C0800000C0802000C0804000C0806000C0808000C080A000C080C000C080E000C0A00000C0A02000C0A04000C0A06000C0A08000C0A0A000C0A0C000C0A0E000C0C00000C0C02000C0C04000C0C06000
1004
C0C08000C0C0A000F0FBFF00A4A0A000808080000000FF0000FF000000FFFF00FF000000FF00FF00FFFF0000FFFFFF00FFFFFFFFFFFFFFFFFFFFFFFFFFFFFFFFFFFFFFFFFFFFFFFFFFFFFFFFFFFFFFFFFFFFFFFFFFFFFFFFFFFFFFFFFFFFFFFFFFFFFFFFFFFFFFFFFFFFFFFFFFFFFFFFFFFF00000000000000000000000000
1004
000000000000000000FFFFFFFFFFFFFFFFFFFF0000FF00FF00FFFFFFFFFFFFFF00FF00FF0000000000FFFFFFFFFFFFFFFFFFFF0000FF00FF00FFFFFFFFFFFFFF00FF00FF0000000000FFFFFFFFFFFFFFFFFFFF0000FF00FF00FFFFFFFFFFFFFF00FF00000000000000FFFFFFFFFFFFFFFFFFFF0000FF00FF00FFFFFFFFFFFF
1004
FF00FF00000000000000FFFFFFFFFFFFFFFFFFFF00000000000000000000000000000000000000000000FFFFFFFFFFFFFFFFFFFF0000000000000000000000000000000000000000FFFFFFFFFF0000FFFFFFFF000000000000000000000000000000000000000000000000000000000000FFFF000000FFFFFFFFFFFFFFFFFF
1004
FFFFFFFFFFFFFFFFFFFFFFFFFF00FF000000FFFF000000FFFFFFFFFFFFFFFFFFFFFFFFFFFFFFFFFFFFFFFFFFFFFFFF000000FFFF000000FFFFFFFFFFFFFFFFFFFFFFFFFFFFFFFFFFFFFFFFFFFFFFFF000000FFFF000000FFFFFFFFFFFFFFFFFFFFFFFFFFFFFFFFFFFFFFFFFFFFFFFF000000FFFFFF0000FFFFFFFFFF000000
1004
00FFFFFFFFFFFFFFFFFFFFFFFFFFFFFF0000FFFFFFFF0000FFFFFFFF00000000000000FFFFFFFFFFFFFFFFFFFFFFFFFF0000FFFFFFFF0000FFFFFF0000FF0000FFFF0000FFFFFFFFFFFFFFFFFFFFFFFF0000FFFFFFFF0000FFFF0000FF00000000000000FFFFFFFFFFFFFFFFFFFFFFFF0000FFFFFFFF0000FFFF00000000FF
1004
00FF00FF00FFFFFFFFFFFFFFFFFFFFFF000000FFFFFFFF000000FF00000000000000000000FFFFFFFFFFFFFFFF0000000000FFFFFFFFFFFF00FF0000000000FF00FF00FF00FFFFFFFFFFFF0000FF0000FFFFFFFFFFFFFFFFFF0000FF00FF0000000000FF00FFFFFFFF0000FF0000FFFFFFFFFFFFFFFFFFFFFF00FF0000FFFF
1004
FF00FFFFFF00FFFF0000FF0000FFFFFFFFFFFFFFFFFFFFFFFFFFFF000000FFFFFFFFFFFFFF000000FF0000FFFFFFFFFFFFFFFFFFFFFFFFFFFFFFFFFF0000FFFFFFFFFFFFFF00FF0000FFFFFFFFFFFFFFFFFFFFFFFFFFFFFFFFFFFFFFFF00FFFFFFFFFFFFFF0000FFFFFFFFFFFFFFFFFFFFFFFFFFFFFFFFFFFFFFFFFFFF00FF
1004
FFFFFFFFFFFF00FFFFFFFFFFFFFFFFFFFFFFFFFFFFFFFFFFFFFFFFFFFFFF0000FFFFFFFF000000FFFFFFFFFFFFFFFFFFFFFFFFFFFFFFFFFFFFFFFFFFFFFF000000FFFFFF000000FFFFFFFFFFFFFFFFFFFFFFFFFFFFFFFFFFFFFFFFFFFF0000000000000000000000FFFFFFFFFFFFFFFFFFFFFFFFFFFFFFFFFFFFFFFFFFFFFF
1004
FFFFFFFFFFFFFFFFFFFFFFFFFFFFFFFFFFFFFFFFFFFFFFFFFFFFFFFFFFFFFFFFFFFFFFFFFFFFFFFFFFFFFFFFFFFFFFFFFFFFFFFFFFFFFFFF
  0
BLOCK_RECORD
  5
1857
330
1
100
AcDbSymbolTableRecord
100
AcDbBlockTableRecord
  2
*D3
  0
BLOCK_RECORD
  5
1865
330
1
100
AcDbSymbolTableRecord
100
AcDbBlockTableRecord
  2
*D4
  0
BLOCK_RECORD
  5
1873
330
1
100
AcDbSymbolTableRecord
100
AcDbBlockTableRecord
  2
*D5
  0
BLOCK_RECORD
  5
189F
330
1
100
AcDbSymbolTableRecord
100
AcDbBlockTableRecord
  2
*D6
  0
BLOCK_RECORD
  5
18CB
330
1
100
AcDbSymbolTableRecord
100
AcDbBlockTableRecord
  2
*D7
  0
BLOCK_RECORD
  5
18D9
330
1
100
AcDbSymbolTableRecord
100
AcDbBlockTableRecord
  2
*D8
  0
BLOCK_RECORD
  5
18E7
330
1
100
AcDbSymbolTableRecord
100
AcDbBlockTableRecord
  2
*D9
  0
BLOCK_RECORD
  5
18F5
330
1
100
AcDbSymbolTableRecord
100
AcDbBlockTableRecord
  2
*D10
  0
BLOCK_RECORD
  5
1903
330
1
100
AcDbSymbolTableRecord
100
AcDbBlockTableRecord
  2
*D11
  0
ENDTAB
  0
ENDSEC
  0
SECTION
  2
BLOCKS
  0
BLOCK
  5
D
330
A
100
AcDbEntity
  8
0
100
AcDbBlockBegin
  2
*MODEL_SPACE
 70
     0
 10
0.0
 20
0.0
 30
0.0
  3
*MODEL_SPACE
  1

  0
ENDBLK
  5
E
330
A
100
AcDbEntity
  8
0
100
AcDbBlockEnd
  0
BLOCK
  5
F
330
B
100
AcDbEntity
 67
     1
  8
0
100
AcDbBlockBegin
  2
*PAPER_SPACE
 70
     0
 10
0.0
 20
0.0
 30
0.0
  3
*PAPER_SPACE
  1

  0
ENDBLK
  5
10
330
B
100
AcDbEntity
 67
     1
  8
0
100
AcDbBlockEnd
  0
BLOCK
  5
1532
330
1530
100
AcDbEntity
  8
LAYER_1_0
 62
     7
100
AcDbBlockBegin
  2
AI9-BLK1
 70
     0
 10
0.0
 20
0.0
 30
0.0
  3
AI9-BLK1
  1

  0
LWPOLYLINE
  5
1533
330
1530
100
AcDbEntity
  8
LAYER_1_0
 62
     7
100
AcDbPolyline
 90
        6
 70
     1
 43
0.0
 10
-62.230052
 20
113.557237
 10
62.230052
 20
113.557237
 10
62.230052
 20
-113.557237
 10
-62.230052
 20
-113.557237
 10
-62.230052
 20
113.557237
 10
-62.230052
 20
113.557237
  0
ENDBLK
  5
153B
330
1530
100
AcDbEntity
  8
LAYER_1_0
100
AcDbBlockEnd
  0
BLOCK
  5
1548
330
1547
100
AcDbEntity
  8
0
100
AcDbBlockBegin
  2
9418T
 70
     0
 10
0.0
 20
0.0
 30
0.0
  3
9418T
  1

  0
LINE
  5
154A
330
1547
100
AcDbEntity
  8
LAYER_1_0
 62
     7
100
AcDbLine
 10
114.4008606306999
 20
342.3955163979
 30
0.0
 11
90.05005969929994
 21
342.3955163979
 31
0.0
  0
LINE
  5
154B
330
1547
100
AcDbEntity
  8
LAYER_1_0
 62
     7
100
AcDbLine
 10
71.37820024369992
 20
174.731619837
 30
0.0
 11
174.8913187678998
 21
174.731619837
 31
0.0
  0
LWPOLYLINE
  5
154C
330
1547
100
AcDbEntity
  8
LAYER_1_0
 62
     7
100
AcDbPolyline
 90
        5
 70
     0
 43
0.0
 10
173.7450170828998
 20
341.0300266985999
 10
144.6460896992999
 20
341.0300266985999
 10
115.982585
 20
340.5931251926999
 10
93.21646608109995
 20
340.5931251926999
 10
71.15901222939999
 20
340.3754159999999
  0
LWPOLYLINE
  5
154D
330
1547
100
AcDbEntity
  8
LAYER_1_0
 62
     7
100
AcDbPolyline
 90
        5
 70
     0
 43
0.0
 10
176.9677003645999
 20
333.0592169647001
 10
148.3041913664
 20
333.0592169647001
 10
119.1489870828999
 20
332.6223197576999
 10
95.94448783649994
 20
332.6223197576999
 10
72.30531391440002
 20
332.1854225507
  0
LWPOLYLINE
  5
154E
330
1547
100
AcDbEntity
  8
LAYER_1_0
 62
     7
100
AcDbPolyline
 90
        5
 70
     0
 43
0.0
 10
72.30531391440002
 20
184.7773237481999
 10
95.94448783649994
 20
184.5581357339
 10
119.1489870828999
 20
184.5581357339
 10
148.3041913664
 20
184.0664404486
 10
176.9677003645999
 20
183.8487312559
  0
LWPOLYLINE
  5
154F
330
1547
100
AcDbEntity
  8
LAYER_1_0
 62
     7
100
AcDbPolyline
 90
        5
 70
     0
 43
0.0
 10
71.15901222939999
 20
176.8050351927
 10
93.21646608109995
 20
176.8050351927
 10
115.982585
 20
176.5873259999999
 10
144.6460896992999
 20
176.0956307147
 10
173.7450170828998
 20
176.0956307147
  0
LINE
  5
1550
330
1547
100
AcDbEntity
  8
LAYER_1_0
 62
     7
100
AcDbLine
 10
69.57580903849995
 20
169.4903192779
 30
0.0
 11
3.133162743699983
 21
169.4903192779
 31
0.0
  0
LINE
  5
1551
330
1547
100
AcDbEntity
  8
LAYER_1_0
 62
     7
100
AcDbLine
 10
56.63768913699995
 20
166.5416220888
 30
0.0
 11
16.12756384399992
 21
166.5416220888
 31
0.0
  0
LINE
  5
1552
330
1547
100
AcDbEntity
  8
LAYER_1_0
 62
     7
100
AcDbLine
 10
3.133162743699983
 20
347.19991975
 30
0.0
 11
69.57580903849995
 21
347.19991975
 31
0.0
  0
LINE
  5
1553
330
1547
100
AcDbEntity
  8
LAYER_1_0
 62
     7
100
AcDbLine
 10
31.14058222169994
 20
350.3663261317999
 30
0.0
 11
18.42017151289996
 21
350.3663261317999
 31
0.0
  0
LINE
  5
1554
330
1547
100
AcDbEntity
  8
LAYER_1_0
 62
     7
100
AcDbLine
 10
2.041659136999939
 20
175.6587335077
 30
0.0
 11
70.72211502239994
 21
175.6587335077
 31
0.0
  0
LINE
  5
1555
330
1547
100
AcDbEntity
  8
LAYER_1_0
 62
     7
100
AcDbLine
 10
2.041659136999939
 20
341.2492147129
 30
0.0
 11
70.72211502239994
 21
341.2492147129
 31
0.0
  0
LINE
  5
1556
330
1547
100
AcDbEntity
  8
LAYER_1_0
 62
     7
100
AcDbLine
 10
-5.056830705600006
 20
302.1578983758999
 30
0.0
 11
-5.056830705600006
 21
214.8048436241
 31
0.0
  0
LWPOLYLINE
  5
1557
330
1547
100
AcDbEntity
  8
LAYER_1_0
 62
     7
100
AcDbPolyline
 90
        6
 70
     0
 43
0.0
 10
-36.23065656540006
 20
335.1341154408999
 10
-38.03304777060003
 20
318.5364150506999
 10
-39.61625096150004
 20
301.6662030906001
 10
-40.54336463219999
 20
284.8507935077
 10
-40.98026183920007
 20
268.2545719391
 10
-40.98026183920007
 20
258.4813710000001
  0
LWPOLYLINE
  5
1558
330
1547
100
AcDbEntity
  8
LAYER_1_0
 62
     7
100
AcDbPolyline
 90
       49
 70
     0
 43
0.0
 10
-35.08435488040004
 20
333.9878137558999
 10
-35.08435488040004
 20
331.9129152797001
 10
-35.52125208740005
 20
330.1105240745
 10
-35.95814929440001
 20
326.7264084999999
 10
-36.17585848710001
 20
323.5052083388001
 10
-36.66755377240008
 20
320.3388062559
 10
-36.88526296510002
 20
316.8984137815001
 10
-37.32216447100006
 20
313.9511997129001
 10
-37.81385975630001
 20
310.78479763
 10
-37.81385975630001
 20
307.6169124266
 10
-38.03304777060003
 20
304.1780030727
 10
-38.03304777060003
 20
301.0115966909001
 10
-38.46846615600009
 20
297.572687337
 10
-38.68765417030004
 20
294.4048021336001
 10
-38.68765417030004
 20
291.2384000506999
 10
-39.1793494556
 20
287.7994863979001
 10
-39.1793494556
 20
284.6330843149999
 10
-39.61625096150004
 20
281.1926918405999
 10
-39.61625096150004
 20
278.0262897577
 10
-39.61625096150004
 20
274.8598833759
 10
-39.61625096150004
 20
271.4209740220001
 10
-39.8339601542001
 20
268.2545719391
 10
-39.8339601542001
 20
264.8141794647
 10
-39.8339601542001
 20
261.6477773818
 10
-39.8339601542001
 20
258.6990801926999
 10
-39.8339601542001
 20
255.4778800315
 10
-39.8339601542001
 20
252.0937687558999
 10
-39.8339601542001
 20
248.9273623741
 10
-39.61625096150004
 20
245.7061622129001
 10
-39.61625096150004
 20
242.3205678167998
 10
-39.61625096150004
 20
239.0993676556001
 10
-39.61625096150004
 20
235.71525638
 10
-39.1793494556
 20
232.5473711766
 10
-39.1793494556
 20
229.3261667165001
 10
-38.68765417030004
 20
225.9420554409
 10
-38.68765417030004
 20
222.7208552797001
 10
-38.46846615600009
 20
219.3352608836
 10
-38.03304777060003
 20
216.1688588006999
 10
-38.03304777060003
 20
213.1668466538
 10
-37.81385975630001
 20
210.0004402719999
 10
-37.81385975630001
 20
206.6148458759
 10
-37.32216447100006
 20
203.3936457147
 10
-36.88526296510002
 20
200.2272436318
 10
-36.66755377240008
 20
196.7883342779
 10
-36.17585848710001
 20
193.6204490745
 10
-35.95814929440001
 20
190.2363335000001
 10
-35.52125208740005
 20
187.0151333387999
 10
-35.08435488040004
 20
185.2127421336
 10
-35.08435488040004
 20
182.9201344647
  0
LWPOLYLINE
  5
1559
330
1547
100
AcDbEntity
  8
LAYER_1_0
 62
     7
100
AcDbPolyline
 90
       49
 70
     0
 43
0.0
 10
-33.22716559690002
 20
333.0592169647001
 10
-33.71886088220003
 20
331.2583088799999
 10
-34.15575808920005
 20
328.9642180905999
 10
-34.37495040240008
 20
325.7978160077
 10
-34.81184760939999
 20
322.8506019391001
 10
-35.08435488040004
 20
319.4102094647001
 10
-35.08435488040004
 20
316.2438073818
 10
-35.52125208740005
 20
313.2951101926999
 10
-35.95814929440001
 20
310.0739100315
 10
-36.17585848710001
 20
306.6897987559001
 10
-36.17585848710001
 20
303.5233923740999
 10
-36.66755377240008
 20
300.3021922129001
 10
-36.88526296510002
 20
296.9165978168
 10
-36.88526296510002
 20
293.6953976556001
 10
-37.32216447100006
 20
290.7481835870001
 10
-37.32216447100006
 20
287.5802983836
 10
-37.81385975630001
 20
284.1413890297001
 10
-37.81385975630001
 20
280.9749826479001
 10
-38.03304777060003
 20
278.0262897577
 10
-38.03304777060003
 20
274.8598833759
 10
-38.03304777060003
 20
271.4209740220001
 10
-38.03304777060003
 20
268.2545719391
 10
-38.03304777060003
 20
264.8141794647
 10
-38.03304777060003
 20
261.6477773818
 10
-38.03304777060003
 20
258.6990801926999
 10
-38.03304777060003
 20
255.4778800315
 10
-38.03304777060003
 20
252.0937687558999
 10
-38.03304777060003
 20
248.9273623741
 10
-38.03304777060003
 20
245.7061622129001
 10
-38.03304777060003
 20
242.3205678167998
 10
-38.03304777060003
 20
239.3718749265999
 10
-37.81385975630001
 20
236.1506704665
 10
-37.81385975630001
 20
232.9842683836001
 10
-37.32216447100006
 20
229.5453590296999
 10
-37.32216447100006
 20
226.3789526479
 10
-36.88526296510002
 20
222.9933625506999
 10
-36.88526296510002
 20
220.2638533759001
 10
-36.66755377240008
 20
216.824944022
 10
-36.17585848710001
 20
213.6585419391
 10
-36.17585848710001
 20
210.2181494647
 10
-35.95814929440001
 20
207.4886445888
 10
-35.52125208740005
 20
204.1030501927
 10
-35.08435488040004
 20
200.8818500315001
 10
-35.08435488040004
 20
197.4977387559
 10
-34.81184760939999
 20
194.3313323741
 10
-34.37495040240008
 20
191.1101322129
 10
-34.15575808920005
 20
188.1614393226999
 10
-33.71886088220003
 20
185.9236297320999
 10
-33.22716559690002
 20
184.0664404486
  0
LINE
  5
155A
330
1547
100
AcDbEntity
  8
LAYER_1_0
 62
     7
100
AcDbLine
 10
1.330771538499973
 20
174.731619837
 30
0.0
 11
-28.25985113040003
 21
174.731619837
 31
0.0
  0
LWPOLYLINE
  5
155B
330
1547
100
AcDbEntity
  8
LAYER_1_0
 62
     7
100
AcDbPolyline
 90
        7
 70
     0
 43
0.0
 10
-34.37495040240008
 20
183.41182975
 10
-34.15575808920005
 20
183.8487312559
 10
-33.22864441850004
 20
184.0664404486
 10
-26.40414066850008
 20
184.0664404486
 10
-19.14273971150004
 20
184.5033376556
 10
-14.11914404620006
 20
184.5033376556
 10
-8.932641565400047
 20
184.5033376556
  0
LWPOLYLINE
  5
155C
330
1547
100
AcDbEntity
  8
LAYER_1_0
 62
     7
100
AcDbPolyline
 90
        5
 70
     0
 43
0.0
 10
-27.11354514650008
 20
176.0956307147
 10
-19.85214418950005
 20
176.5873259999999
 10
-13.02764043950003
 20
176.5873259999999
 10
-7.567147567200038
 20
176.5873259999999
 10
-2.325847008100026
 20
176.5873259999999
  0
LWPOLYLINE
  5
155D
330
1547
100
AcDbEntity
  8
LAYER_1_0
 62
     7
100
AcDbPolyline
 90
        6
 70
     0
 43
0.0
 10
-40.98026183920007
 20
258.4813710000001
 10
-40.98026183920007
 20
241.6111633388001
 10
-40.32565543950005
 20
224.7957537559
 10
-39.1793494556
 20
208.1980490667999
 10
-37.32216447100006
 20
191.3826394838999
 10
-36.23065656540006
 20
181.5561235869999
  0
LWPOLYLINE
  5
155E
330
1547
100
AcDbEntity
  8
LAYER_1_0
 62
     7
100
AcDbPolyline
 90
       32
 70
     0
 43
0.0
 10
-28.25985113040002
 20
174.731619837
 10
-28.69674833740003
 20
174.731619837
 10
-28.91445753010003
 20
175.004127108
 10
-29.40615281540004
 20
175.004127108
 10
-29.62386200809999
 20
175.004127108
 10
-30.0607592151
 20
175.004127108
 10
-30.49766072100004
 20
175.004127108
 10
-30.7168487353
 20
175.004127108
 10
-31.20854402060001
 20
175.441024315
 10
-31.42625321330001
 20
175.441024315
 10
-31.86315042030008
 20
175.441024315
 10
-31.86315042030008
 20
175.6587335077
 10
-32.35484570560004
 20
175.6587335077
 10
-32.35484570560004
 20
176.0956307147
 10
-32.57255489830004
 20
176.0956307147
 10
-33.00945640420008
 20
176.5873259999999
 10
-33.22716559690002
 20
176.5873259999999
 10
-33.71886088220003
 20
176.8050351927
 10
-34.15575808920005
 20
177.2419366986
 10
-34.37495040240008
 20
177.4611247129
 10
-34.86516256720006
 20
177.9528199981999
 10
-34.86516256720006
 20
178.3882383836
 10
-35.08435488040004
 20
178.6074263979001
 10
-35.08435488040004
 20
179.0991259821
 10
-35.52125208740005
 20
179.3168308759001
 10
-35.95814929440001
 20
179.7537323817999
 10
-35.95814929440001
 20
180.1906295887999
 10
-35.95814929440001
 20
180.4631368598001
 10
-35.95814929440001
 20
180.9000340667999
 10
-35.95814929440001
 20
181.1192263800001
 10
-36.17585848710001
 20
181.1192263800001
 10
-36.17585848710001
 20
181.5561235869999
  0
LWPOLYLINE
  5
155F
330
1547
100
AcDbEntity
  8
LAYER_1_0
 62
     7
100
AcDbPolyline
 90
        5
 70
     0
 43
0.0
 10
-27.11354514650008
 20
176.0956307147
 10
-27.55044665240006
 20
175.6587335077
 10
-27.76815154620004
 20
175.441024315
 10
-27.76815154620004
 20
175.004127108
 10
-28.25985113040002
 20
174.731619837
  0
LWPOLYLINE
  5
1560
330
1547
100
AcDbEntity
  8
LAYER_1_0
 62
     7
100
AcDbPolyline
 90
       20
 70
     0
 43
0.0
 10
-27.11354514650008
 20
176.0956307147
 10
-27.55044665240006
 20
176.0956307147
 10
-27.76815154620004
 20
176.0956307147
 10
-28.25985113040002
 20
176.0956307147
 10
-28.69674833740003
 20
176.0956307147
 10
-28.91445753010003
 20
176.5873259999999
 10
-29.40615281540004
 20
176.5873259999999
 10
-29.62386200809999
 20
176.5873259999999
 10
-30.0607592151
 20
176.8050351927
 10
-30.49766072100004
 20
176.8050351927
 10
-30.77164681360005
 20
176.8050351927
 10
-30.77164681360005
 20
177.2419366986
 10
-31.20854402060001
 20
177.2419366986
 10
-31.42625321330001
 20
177.4611247129
 10
-31.86315042030008
 20
177.4611247129
 10
-31.86315042030008
 20
177.9528199981999
 10
-32.35484570560004
 20
177.9528199981999
 10
-32.35484570560004
 20
178.3882383836
 10
-32.57255489830004
 20
178.3882383836
 10
-32.57255489830004
 20
178.6074263979001
  0
LWPOLYLINE
  5
1561
330
1547
100
AcDbEntity
  8
LAYER_1_0
 62
     7
100
AcDbPolyline
 90
        4
 70
     0
 43
0.0
 10
-31.42625321330001
 20
178.6074263979001
 10
-30.0607592151
 20
177.2419366986
 10
-28.91445753010003
 20
176.5873259999999
 10
-27.11354514650008
 20
176.0956307147
  0
LWPOLYLINE
  5
1562
330
1547
100
AcDbEntity
  8
LAYER_1_0
 62
     7
100
AcDbPolyline
 90
        4
 70
     0
 43
0.0
 10
-33.22716559690002
 20
184.0664404486
 10
-33.22716559690002
 20
182.0463400506999
 10
-32.57255489830004
 20
180.1906295887999
 10
-31.42625321330001
 20
178.6074263979001
  0
LWPOLYLINE
  5
1563
330
1547
100
AcDbEntity
  8
LAYER_1_0
 62
     7
100
AcDbPolyline
 90
        3
 70
     0
 43
0.0
 10
-33.71886088220003
 20
179.7537323817999
 10
-34.86516256720006
 20
181.1192263800001
 10
-35.08435488040004
 20
182.9201344647
  0
LWPOLYLINE
  5
1564
330
1547
100
AcDbEntity
  8
LAYER_1_0
 62
     7
100
AcDbPolyline
 90
        5
 70
     0
 43
0.0
 10
-33.22716559690002
 20
179.7537323817999
 10
-34.15575808920005
 20
180.4631368598001
 10
-34.37495040240008
 20
181.5561235869999
 10
-34.37495040240008
 20
182.702425272
 10
-34.37495040240008
 20
183.41182975
  0
LWPOLYLINE
  5
1565
330
1547
100
AcDbEntity
  8
LAYER_1_0
 62
     7
100
AcDbPolyline
 90
        7
 70
     0
 43
0.0
 10
-32.57255489830004
 20
178.6074263979001
 10
-33.00945640420008
 20
178.6074263979001
 10
-33.22716559690002
 20
179.0991259821
 10
-33.22716559690002
 20
179.3168308759001
 10
-33.71886088220003
 20
179.3168308759001
 10
-33.71886088220003
 20
179.7537323817999
 10
-34.15575808920005
 20
179.7537323817999
  0
LWPOLYLINE
  5
1566
330
1547
100
AcDbEntity
  8
LAYER_1_0
 62
     7
100
AcDbPolyline
 90
        5
 70
     0
 43
0.0
 10
-35.08435488040004
 20
182.9201344647
 10
-35.08435488040004
 20
182.702425272
 10
-35.52125208740005
 20
182.265528065
 10
-35.95814929440001
 20
182.0463400506999
 10
-36.17585848710001
 20
181.5561235869999
  0
LINE
  5
1567
330
1547
100
AcDbEntity
  8
LAYER_1_0
 62
     7
100
AcDbLine
 10
-35.08435488040005
 20
182.9201344647
 30
0.0
 11
-34.86516256720004
 21
183.41182975
 31
0.0
  0
LWPOLYLINE
  5
1568
330
1547
100
AcDbEntity
  8
LAYER_1_0
 62
     7
100
AcDbPolyline
 90
        3
 70
     0
 43
0.0
 10
-32.57255489830004
 20
178.6074263979001
 10
-33.00945640420008
 20
179.0991259821
 10
-33.22716559690002
 20
179.7537323817999
  0
LWPOLYLINE
  5
1569
330
1547
100
AcDbEntity
  8
LAYER_1_0
 62
     7
100
AcDbPolyline
 90
        4
 70
     0
 43
0.0
 10
-31.42625321330001
 20
178.6074263979001
 10
-31.86315042030008
 20
178.6074263979001
 10
-33.00945640420008
 20
179.3168308759001
 10
-33.22864441850004
 20
179.7537323817999
  0
LINE
  5
156A
330
1547
100
AcDbEntity
  8
LAYER_1_0
 62
     7
100
AcDbLine
 10
-5.056830705600006
 20
214.8048436241
 30
0.0
 11
1.986861058699986
 21
175.6587335077
 31
0.0
  0
LINE
  5
156B
330
1547
100
AcDbEntity
  8
LAYER_1_0
 62
     7
100
AcDbLine
 10
-3.910529020600009
 20
210.7098447499999
 30
0.0
 11
-3.910529020600009
 21
184.7773237481999
 31
0.0
  0
LINE
  5
156C
330
1547
100
AcDbEntity
  8
LAYER_1_0
 62
     7
100
AcDbLine
 10
3.133162743699983
 20
169.4903192779
 30
0.0
 11
0.8953531530999612
 21
169.4903192779
 31
0.0
  0
LWPOLYLINE
  5
156D
330
1547
100
AcDbEntity
  8
LAYER_1_0
 62
     7
100
AcDbPolyline
 90
        4
 70
     0
 43
0.0
 10
0.8953531530999612
 20
168.1248252797
 10
1.330771538499959
 20
167.0333173740999
 10
2.259368329699896
 20
166.5416220888
 10
2.696265536699968
 20
166.5416220888
  0
LWPOLYLINE
  5
156E
330
1547
100
AcDbEntity
  8
LAYER_1_0
 62
     7
100
AcDbPolyline
 90
        3
 70
     0
 43
0.0
 10
1.986861058699957
 20
176.8050351927
 10
-0.4701365462000809
 20
176.8050351927
 10
-2.762744215100042
 20
176.8050351927
  0
LWPOLYLINE
  5
156F
330
1547
100
AcDbEntity
  8
LAYER_1_0
 62
     7
100
AcDbPolyline
 90
        8
 70
     0
 43
0.0
 10
1.986861058699957
 20
176.5873259999999
 10
0.1844698534999907
 20
176.5873259999999
 10
-0.9618361304000586
 20
176.5873259999999
 10
-1.616442530100073
 20
176.5873259999999
 10
-1.616442530100073
 20
176.0956307147
 10
-0.9618361304000586
 20
176.0956307147
 10
0.1844698534999907
 20
176.0956307147
 10
1.549963851699999
 20
176.0956307147
  0
LWPOLYLINE
  5
1570
330
1547
100
AcDbEntity
  8
LAYER_1_0
 62
     7
100
AcDbPolyline
 90
        6
 70
     0
 43
0.0
 10
-4.128238213300051
 20
184.7773237481999
 10
-3.910529020599994
 20
182.265528065
 10
-2.762744215100042
 20
180.4631368598001
 10
-1.616442530100073
 20
178.6074263979001
 10
0.1844698534999907
 20
177.2419366986
 10
1.549963851699999
 20
176.8050351927
  0
LINE
  5
1571
330
1547
100
AcDbEntity
  8
LAYER_1_0
 62
     7
100
AcDbLine
 10
0.8953531530999612
 20
168.1248252797
 30
0.0
 11
0.8953531530999612
 21
169.4903192779
 31
0.0
  0
LWPOLYLINE
  5
1572
330
1547
100
AcDbEntity
  8
LAYER_1_0
 62
     7
100
AcDbPolyline
 90
        3
 70
     0
 43
0.0
 10
-3.910529020599994
 20
184.7773237481999
 10
-6.420845882200012
 20
184.5581357339
 10
-8.877843487100051
 20
184.5581357339
  0
LWPOLYLINE
  5
1573
330
1547
100
AcDbEntity
  8
LAYER_1_0
 62
     7
100
AcDbPolyline
 90
        6
 70
     0
 43
0.0
 10
-8.877843487100051
 20
184.5033376556
 10
-8.660134294400052
 20
182.265528065
 10
-7.567147567200038
 20
180.1906295887999
 10
-5.929150596900001
 20
178.3882383836
 10
-4.128238213300051
 20
177.2419366986
 10
-2.325847008100026
 20
176.8050351927
  0
LWPOLYLINE
  5
1574
330
1547
100
AcDbEntity
  8
LAYER_1_0
 62
     7
100
AcDbPolyline
 90
        5
 70
     0
 43
0.0
 10
0.4036578677999501
 20
184.7773237481999
 10
-0.4701365462000809
 20
184.7773237481999
 10
-1.398733337400074
 20
184.7773237481999
 10
-2.762744215100042
 20
184.7773237481999
 10
-4.128238213300051
 20
184.7773237481999
  0
LINE
  5
1575
330
1547
100
AcDbEntity
  8
LAYER_1_0
 62
     7
100
AcDbLine
 10
1.330771538499973
 20
172.9292286317999
 30
0.0
 11
1.549963851699985
 21
176.587326
 31
0.0
  0
LINE
  5
1576
330
1547
100
AcDbEntity
  8
LAYER_1_0
 62
     7
100
AcDbLine
 10
4.061759534899991
 20
169.9805314427
 30
0.0
 11
2.041659136999939
 21
175.6587335077
 31
0.0
  0
LINE
  5
1577
330
1547
100
AcDbEntity
  8
LAYER_1_0
 62
     7
100
AcDbLine
 10
2.696265536699982
 20
166.5416220888
 30
0.0
 11
16.12756384399992
 21
166.5416220888
 31
0.0
  0
LINE
  5
1578
330
1547
100
AcDbEntity
  8
LAYER_1_0
 62
     7
100
AcDbLine
 10
7.71985690309998
 20
165.8870156891
 30
0.0
 11
17.27386552899992
 21
165.8870156891
 31
0.0
  0
LINE
  5
1579
330
1547
100
AcDbEntity
  8
LAYER_1_0
 62
     7
100
AcDbLine
 10
12.25027416259992
 20
162.6658155279
 30
0.0
 11
11.32316049190001
 21
162.6658155279
 31
0.0
  0
LINE
  5
157A
330
1547
100
AcDbEntity
  8
LAYER_1_0
 62
     7
100
AcDbLine
 10
16.56298222939999
 20
164.5215216909
 30
0.0
 11
8.866162886999958
 21
164.5215216909
 31
0.0
  0
LINE
  5
157B
330
1547
100
AcDbEntity
  8
LAYER_1_0
 62
     7
100
AcDbLine
 10
8.866162886999958
 20
164.7392308836
 30
0.0
 11
16.56298222939999
 21
164.7392308836
 31
0.0
  0
LINE
  5
157C
330
1547
100
AcDbEntity
  8
LAYER_1_0
 62
     7
100
AcDbLine
 10
1.330771538499973
 20
172.9292286317999
 30
0.0
 11
1.330771538499973
 21
169.5436342357
 31
0.0
  0
LINE
  5
157D
330
1547
100
AcDbEntity
  8
LAYER_1_0
 62
     7
100
AcDbLine
 10
3.133162743699983
 20
169.4903192779
 30
0.0
 11
3.133162743699983
 21
172.9292286317999
 31
0.0
  0
LINE
  5
157E
330
1547
100
AcDbEntity
  8
LAYER_1_0
 62
     7
100
AcDbLine
 10
1.330771538499973
 20
172.9292286317999
 30
0.0
 11
3.133162743699983
 21
172.9292286317999
 31
0.0
  0
LINE
  5
157F
330
1547
100
AcDbEntity
  8
LAYER_1_0
 62
     7
100
AcDbLine
 10
7.008973603499939
 20
165.8870156891
 30
0.0
 11
7.008973603499939
 21
166.5416220888
 31
0.0
  0
LWPOLYLINE
  5
1580
330
1547
100
AcDbEntity
  8
LAYER_1_0
 62
     7
100
AcDbPolyline
 90
        3
 70
     0
 43
0.0
 10
8.866162886999973
 20
164.5215216909
 10
9.957666493700003
 20
162.9383185
 10
10.66707097169995
 20
162.7191304857
  0
LINE
  5
1581
330
1547
100
AcDbEntity
  8
LAYER_1_0
 62
     7
100
AcDbLine
 10
7.008973603499939
 20
165.8870156891
 30
0.0
 11
7.71985690309998
 21
165.8870156891
 31
0.0
  0
LINE
  5
1582
330
1547
100
AcDbEntity
  8
LAYER_1_0
 62
     7
100
AcDbLine
 10
8.811364808700005
 20
164.7392308836
 30
0.0
 11
7.71985690309998
 21
164.7392308836
 31
0.0
  0
LINE
  5
1583
330
1547
100
AcDbEntity
  8
LAYER_1_0
 62
     7
100
AcDbLine
 10
7.71985690309998
 20
164.7392308836
 30
0.0
 11
7.71985690309998
 21
165.8870156891
 31
0.0
  0
LINE
  5
1584
330
1547
100
AcDbEntity
  8
LAYER_1_0
 62
     7
100
AcDbLine
 10
8.866162886999958
 20
164.7392308836
 30
0.0
 11
8.866162886999958
 21
164.5215216909
 31
0.0
  0
LINE
  5
1585
330
1547
100
AcDbEntity
  8
LAYER_1_0
 62
     7
100
AcDbLine
 10
11.32316049190001
 20
162.6658155279
 30
0.0
 11
11.10397247759992
 21
162.6658155279
 31
0.0
  0
LINE
  5
1586
330
1547
100
AcDbEntity
  8
LAYER_1_0
 62
     7
100
AcDbLine
 10
10.66707097169992
 20
162.6658155279
 30
0.0
 11
11.10397247759992
 21
162.6658155279
 31
0.0
  0
LINE
  5
1587
330
1547
100
AcDbEntity
  8
LAYER_1_0
 62
     7
100
AcDbLine
 10
17.71076703489997
 20
164.7392308836
 30
0.0
 11
16.56298222939999
 21
164.7392308836
 31
0.0
  0
LINE
  5
1588
330
1547
100
AcDbEntity
  8
LAYER_1_0
 62
     7
100
AcDbLine
 10
14.05266536779993
 20
162.6658155279
 30
0.0
 11
14.97977903849995
 21
162.9383185
 31
0.0
  0
LINE
  5
1589
330
1547
100
AcDbEntity
  8
LAYER_1_0
 62
     7
100
AcDbLine
 10
12.25027416259992
 20
162.6658155279
 30
0.0
 11
13.17887095379998
 21
162.6658155279
 31
0.0
  0
LINE
  5
158A
330
1547
100
AcDbEntity
  8
LAYER_1_0
 62
     7
100
AcDbLine
 10
12.25027416259992
 20
162.9383185
 30
0.0
 11
12.25027416259992
 21
162.7191304856999
 31
0.0
  0
LINE
  5
158B
330
1547
100
AcDbEntity
  8
LAYER_1_0
 62
     7
100
AcDbLine
 10
13.17887095379998
 20
162.6658155279
 30
0.0
 11
13.17887095379998
 21
162.9383185
 31
0.0
  0
LINE
  5
158C
330
1547
100
AcDbEntity
  8
LAYER_1_0
 62
     7
100
AcDbLine
 10
13.17887095379998
 20
162.6658155279
 30
0.0
 11
13.61576816079993
 21
162.6658155279
 31
0.0
  0
LINE
  5
158D
330
1547
100
AcDbEntity
  8
LAYER_1_0
 62
     7
100
AcDbLine
 10
13.61576816079993
 20
162.6658155279
 30
0.0
 11
14.05266536779993
 21
162.6658155279
 31
0.0
  0
LWPOLYLINE
  5
158E
330
1547
100
AcDbEntity
  8
LAYER_1_0
 62
     7
100
AcDbPolyline
 90
        3
 70
     0
 43
0.0
 10
14.76206984579994
 20
162.7191304857
 10
16.12756384399995
 20
163.8121172129
 10
16.5629822294
 20
164.5215216909
  0
LWPOLYLINE
  5
158F
330
1547
100
AcDbEntity
  8
LAYER_1_0
 62
     7
100
AcDbPolyline
 90
        3
 70
     0
 43
0.0
 10
16.5629822294
 20
164.5215216909
 10
16.5629822294
 20
164.7392308836001
 10
16.12756384399995
 20
164.7392308836001
  0
LINE
  5
1590
330
1547
100
AcDbEntity
  8
LAYER_1_0
 62
     7
100
AcDbLine
 10
18.42017151289996
 20
165.8870156891
 30
0.0
 11
18.42017151289996
 21
166.5416220888
 31
0.0
  0
LINE
  5
1591
330
1547
100
AcDbEntity
  8
LAYER_1_0
 62
     7
100
AcDbLine
 10
18.42017151289996
 20
165.8870156891
 30
0.0
 11
17.71076703489997
 21
165.8870156891
 31
0.0
  0
LINE
  5
1592
330
1547
100
AcDbEntity
  8
LAYER_1_0
 62
     7
100
AcDbLine
 10
17.71076703489997
 20
164.7392308836
 30
0.0
 11
17.71076703489997
 21
165.8870156891
 31
0.0
  0
LINE
  5
1593
330
1547
100
AcDbEntity
  8
LAYER_1_0
  6
AI9-LTYPE2
 62
     7
100
AcDbLine
 10
3.842567221699965
 20
258.481371
 30
0.0
 11
11.81337695559997
 21
258.481371
 31
0.0
  0
LINE
  5
1594
330
1547
100
AcDbEntity
  8
LAYER_1_0
 62
     7
100
AcDbLine
 10
17.27386552899992
 20
262.0846745888
 30
0.0
 11
7.71985690309998
 21
262.0846745888
 31
0.0
  0
LINE
  5
1595
330
1547
100
AcDbEntity
  8
LAYER_1_0
 62
     7
100
AcDbLine
 10
7.71985690309998
 20
255.0409828245
 30
0.0
 11
17.27386552899992
 21
255.0409828245
 31
0.0
  0
LWPOLYLINE
  5
1596
330
1547
100
AcDbEntity
  8
LAYER_1_0
 62
     7
100
AcDbPolyline
 90
        5
 70
     0
 43
0.0
 10
4.061759534899977
 20
258.4813710000001
 10
4.498656741899992
 20
257.335069315
 10
5.208061219900002
 20
256.18876763
 10
6.354367203799938
 20
255.0409828245
 10
7.718378081499906
 20
255.0409828245
  0
LWPOLYLINE
  5
1597
330
1547
100
AcDbEntity
  8
LAYER_1_0
 62
     7
100
AcDbPolyline
 90
        5
 70
     0
 43
0.0
 10
7.71985690309998
 20
262.0846745888
 10
6.354367203799938
 20
262.0846745888
 10
5.208061219900002
 20
260.9931709820999
 10
4.498656741899992
 20
259.8468649981999
 10
4.061759534899977
 20
258.4813710000001
  0
LINE
  5
1598
330
1547
100
AcDbEntity
  8
LAYER_1_0
  6
AI9-LTYPE2
 62
     7
100
AcDbLine
 10
7.71985690309998
 20
262.3023837815
 30
0.0
 11
7.71985690309998
 21
254.3863721259
 31
0.0
  0
LINE
  5
1599
330
1547
100
AcDbEntity
  8
LAYER_1_0
  6
AI9-LTYPE2
 62
     7
100
AcDbLine
 10
13.17887095379998
 20
258.481371
 30
0.0
 11
21.36886440309997
 21
258.481371
 31
0.0
  0
LINE
  5
159A
330
1547
100
AcDbEntity
  8
LAYER_1_0
  6
AI9-LTYPE2
 62
     7
100
AcDbLine
 10
17.27386552899992
 20
254.3863721259
 30
0.0
 11
17.27386552899992
 21
262.3023837815
 31
0.0
  0
LWPOLYLINE
  5
159B
330
1547
100
AcDbEntity
  8
LAYER_1_0
 62
     7
100
AcDbPolyline
 90
        5
 70
     0
 43
0.0
 10
17.71076703489995
 20
255.0409828245
 10
18.63788070559991
 20
255.0409828245
 10
20.22107959759995
 20
256.18876763
 10
20.87716911779995
 20
257.335069315
 10
21.36738558149989
 20
258.4813710000001
  0
LWPOLYLINE
  5
159C
330
1547
100
AcDbEntity
  8
LAYER_1_0
 62
     7
100
AcDbPolyline
 90
        5
 70
     0
 43
0.0
 10
21.36886440309996
 20
258.4813710000001
 10
20.87716911779995
 20
259.8453861766
 10
20.22107959759995
 20
260.9931709820999
 10
18.63788070559991
 20
262.0846745888
 10
17.71076703489995
 20
262.0846745888
  0
LINE
  5
159D
330
1547
100
AcDbEntity
  8
LAYER_1_0
 62
     7
100
AcDbLine
 10
-28.25985113040003
 20
342.3955163979
 30
0.0
 11
1.330771538499973
 21
342.3955163979
 31
0.0
  0
LWPOLYLINE
  5
159E
330
1547
100
AcDbEntity
  8
LAYER_1_0
 62
     7
100
AcDbPolyline
 90
        8
 70
     0
 43
0.0
 10
1.986861058699957
 20
340.3754159999999
 10
-5.27453989830002
 20
340.5931251926999
 10
-13.02764043950003
 20
340.5931251926999
 10
-19.85214418950005
 20
341.0300266985999
 10
-27.11354514650008
 20
341.0300266985999
 10
-28.91445753010003
 20
340.5931251926999
 10
-30.0607592151
 20
339.8837207147002
 10
-31.42625321330001
 20
338.7922171079999
  0
LWPOLYLINE
  5
159F
330
1547
100
AcDbEntity
  8
LAYER_1_0
 62
     7
100
AcDbPolyline
 90
        5
 70
     0
 43
0.0
 10
-4.128238213300051
 20
332.1854225507
 10
-11.88133445560004
 20
332.6223197576999
 10
-19.14273971150004
 20
332.6223197576999
 10
-26.40414066850008
 20
333.0592169647001
 10
-33.22864441850004
 20
333.0592169647001
  0
LWPOLYLINE
  5
15A0
330
1547
100
AcDbEntity
  8
LAYER_1_0
 62
     7
100
AcDbPolyline
 90
       18
 70
     0
 43
0.0
 10
-31.86315042030008
 20
339.2291143149999
 10
-31.86315042030008
 20
339.4468235077
 10
-31.42625321330001
 20
339.4468235077
 10
-31.42625321330001
 20
339.8837207147002
 10
-31.20854402060001
 20
339.8837207147002
 10
-30.7168487353
 20
339.8837207147002
 10
-30.49766072100004
 20
340.3754159999999
 10
-30.0607592151
 20
340.3754159999999
 10
-30.0607592151
 20
340.5931251926999
 10
-29.62386200809999
 20
340.5931251926999
 10
-29.35135473710005
 20
340.5931251926999
 10
-28.91445753010003
 20
340.5931251926999
 10
-28.91445753010003
 20
341.0300266985999
 10
-28.69674833740003
 20
341.0300266985999
 10
-28.25985113040002
 20
341.0300266985999
 10
-27.76815154620004
 20
341.0300266985999
 10
-27.55044665240006
 20
341.0300266985999
 10
-27.11354514650008
 20
341.0300266985999
  0
LWPOLYLINE
  5
15A1
330
1547
100
AcDbEntity
  8
LAYER_1_0
 62
     7
100
AcDbPolyline
 90
       35
 70
     0
 43
0.0
 10
-28.25985113040002
 20
342.3955163979001
 10
-28.69674833740003
 20
342.3955163979001
 10
-28.91445753010003
 20
342.3955163979001
 10
-29.40615281540004
 20
342.3955163979001
 10
-29.62386200809999
 20
342.3955163979001
 10
-30.49766072100004
 20
342.1763283835999
 10
-30.7168487353
 20
342.1763283835999
 10
-31.20854402060001
 20
342.1763283835999
 10
-31.42625321330001
 20
341.7409099982001
 10
-31.86315042030008
 20
341.7409099982001
 10
-31.86315042030008
 20
341.2492147129
 10
-32.35484570560004
 20
341.2492147129
 10
-32.57255489830004
 20
341.2492147129
 10
-32.57255489830004
 20
341.0300266985999
 10
-33.00945640420008
 20
340.5931251926999
 10
-33.22716559690002
 20
340.5931251926999
 10
-33.22716559690002
 20
340.3754159999999
 10
-33.71886088220003
 20
340.3754159999999
 10
-33.71886088220003
 20
339.8837207147002
 10
-34.15575808920005
 20
339.8837207147002
 10
-34.15575808920005
 20
339.4468235077
 10
-34.37495040240008
 20
339.4468235077
 10
-34.37495040240008
 20
339.2291143149999
 10
-34.86516256720006
 20
339.2291143149999
 10
-34.86516256720006
 20
338.7374190297001
 10
-35.08435488040004
 20
338.5197098370001
 10
-35.08435488040004
 20
338.08281263
 10
-35.52125208740005
 20
337.6459111241001
 10
-35.52125208740005
 20
337.3719250314999
 10
-35.95814929440001
 20
336.9350278245
 10
-35.95814929440001
 20
336.7173186318
 10
-35.95814929440001
 20
336.2804171258999
 10
-35.95814929440001
 20
335.7887218405999
 10
-36.17585848710001
 20
335.7887218405999
 10
-36.17585848710001
 20
335.5710126479
  0
LWPOLYLINE
  5
15A2
330
1547
100
AcDbEntity
  8
LAYER_1_0
 62
     7
100
AcDbPolyline
 90
        4
 70
     0
 43
0.0
 10
-31.42625321330001
 20
338.5197098370001
 10
-32.57255489830004
 20
336.9350278245
 10
-33.22864441850004
 20
334.9164062482001
 10
-33.22864441850004
 20
333.0592169647001
  0
LWPOLYLINE
  5
15A3
330
1547
100
AcDbEntity
  8
LAYER_1_0
 62
     7
100
AcDbPolyline
 90
        5
 70
     0
 43
0.0
 10
-34.37495040240008
 20
333.7686214427
 10
-34.37495040240008
 20
334.4247109629001
 10
-34.15575808920005
 20
335.5710126479
 10
-34.15575808920005
 20
336.7173186318
 10
-33.22864441850004
 20
337.3719250314999
  0
LWPOLYLINE
  5
15A4
330
1547
100
AcDbEntity
  8
LAYER_1_0
 62
     7
100
AcDbPolyline
 90
        3
 70
     0
 43
0.0
 10
-35.08435488040004
 20
333.9878137558999
 10
-34.86516256720006
 20
335.7887218405999
 10
-33.71886088220003
 20
337.3719250314999
  0
LWPOLYLINE
  5
15A5
330
1547
100
AcDbEntity
  8
LAYER_1_0
 62
     7
100
AcDbPolyline
 90
        5
 70
     0
 43
0.0
 10
-35.08435488040004
 20
333.9878137558999
 10
-35.08435488040004
 20
334.4247109629001
 10
-35.52125208740005
 20
334.9164062482001
 10
-35.95814929440001
 20
335.1341154408999
 10
-36.17585848710001
 20
335.5710126479
  0
LWPOLYLINE
  5
15A6
330
1547
100
AcDbEntity
  8
LAYER_1_0
 62
     7
100
AcDbPolyline
 90
        3
 70
     0
 43
0.0
 10
-33.22716559690002
 20
333.0592169647001
 10
-34.15575808920005
 20
333.3317242357001
 10
-34.37495040240008
 20
333.7686214427
  0
LINE
  5
15A7
330
1547
100
AcDbEntity
  8
LAYER_1_0
 62
     7
100
AcDbLine
 10
-34.86516256720004
 20
333.7686214426999
 30
0.0
 11
-35.08435488040005
 21
333.9878137558998
 31
0.0
  0
LWPOLYLINE
  5
15A8
330
1547
100
AcDbEntity
  8
LAYER_1_0
 62
     7
100
AcDbPolyline
 90
        8
 70
     0
 43
0.0
 10
-34.15575808920005
 20
337.4267231098
 10
-33.71886088220003
 20
337.4267231098
 10
-33.71886088220003
 20
337.6459111241001
 10
-33.22864441850004
 20
337.6459111241001
 10
-33.22864441850004
 20
338.08281263
 10
-33.00945640420008
 20
338.08281263
 10
-33.00945640420008
 20
338.5197098370001
 10
-32.57255489830004
 20
338.7374190297001
  0
LWPOLYLINE
  5
15A9
330
1547
100
AcDbEntity
  8
LAYER_1_0
 62
     7
100
AcDbPolyline
 90
        6
 70
     0
 43
0.0
 10
-32.57255489830004
 20
338.7922171079999
 10
-32.35484570560004
 20
338.7922171079999
 10
-32.35484570560004
 20
339.2291143149999
 10
-31.86315042030008
 20
339.2291143149999
 10
-31.86315042030008
 20
339.4468235077
 10
-31.42625321330001
 20
339.4468235077
  0
LWPOLYLINE
  5
15AA
330
1547
100
AcDbEntity
  8
LAYER_1_0
 62
     7
100
AcDbPolyline
 90
        6
 70
     0
 43
0.0
 10
-31.42625321330001
 20
338.5197098370001
 10
-32.35484570560004
 20
338.5197098370001
 10
-33.00945640420008
 20
338.08281263
 10
-33.22864441850004
 20
337.4267231098
 10
-33.00945640420008
 20
338.08281263
 10
-32.57255489830004
 20
338.7374190297001
  0
LWPOLYLINE
  5
15AB
330
1547
100
AcDbEntity
  8
LAYER_1_0
 62
     7
100
AcDbPolyline
 90
        5
 70
     0
 43
0.0
 10
-27.11354514650008
 20
341.0300266985999
 10
-27.55044665240006
 20
341.2492147129
 10
-27.76815154620004
 20
341.7394311766
 10
-27.76815154620004
 20
342.1763283835999
 10
-28.25985113040002
 20
342.3955163979001
  0
LINE
  5
15AC
330
1547
100
AcDbEntity
  8
LAYER_1_0
 62
     7
100
AcDbLine
 10
16.56298222939999
 20
352.1687173369999
 30
0.0
 11
16.56298222939999
 21
352.6589338007001
 31
0.0
  0
LWPOLYLINE
  5
15AD
330
1547
100
AcDbEntity
  8
LAYER_1_0
 62
     7
100
AcDbPolyline
 90
        3
 70
     0
 43
0.0
 10
8.866162886999973
 20
352.6589338007001
 10
8.866162886999973
 20
352.1687173370001
 10
9.303060093999988
 20
352.1687173370001
  0
LINE
  5
15AE
330
1547
100
AcDbEntity
  8
LAYER_1_0
 62
     7
100
AcDbLine
 10
3.133162743699983
 20
347.19991975
 30
0.0
 11
0.8953531530999612
 21
347.19991975
 31
0.0
  0
LINE
  5
15AF
330
1547
100
AcDbEntity
  8
LAYER_1_0
 62
     7
100
AcDbLine
 10
-5.056830705600006
 20
302.1578983758999
 30
0.0
 11
1.986861058699986
 21
341.2492147129
 31
0.0
  0
LWPOLYLINE
  5
15B0
330
1547
100
AcDbEntity
  8
LAYER_1_0
 62
     7
100
AcDbPolyline
 90
        4
 70
     0
 43
0.0
 10
2.696265536699968
 20
350.3663261317999
 10
1.986861058699957
 20
350.3663261317999
 10
1.330771538499959
 20
349.4377293406
 10
0.8938743314999442
 20
349.0008321336
  0
LWPOLYLINE
  5
15B1
330
1547
100
AcDbEntity
  8
LAYER_1_0
 62
     7
100
AcDbPolyline
 90
        4
 70
     0
 43
0.0
 10
1.549963851699999
 20
341.2492147129
 10
0.1844698534999907
 20
341.2492147129
 10
-0.9618361304000586
 20
341.0300266985999
 10
-1.616442530100073
 20
341.0300266985999
  0
LWPOLYLINE
  5
15B2
330
1547
100
AcDbEntity
  8
LAYER_1_0
 62
     7
100
AcDbPolyline
 90
        4
 70
     0
 43
0.0
 10
-1.616442530100073
 20
341.0300266985999
 10
-0.9618361304000586
 20
341.0300266985999
 10
0.1844698534999907
 20
340.5931251926999
 10
1.986861058699957
 20
340.5931251926999
  0
LWPOLYLINE
  5
15B3
330
1547
100
AcDbEntity
  8
LAYER_1_0
 62
     7
100
AcDbPolyline
 90
        6
 70
     0
 43
0.0
 10
-4.128238213300051
 20
332.1854225507
 10
-3.910529020599994
 20
334.9164062482001
 10
-2.762744215100042
 20
336.7173186318
 10
-1.616442530100073
 20
338.5197098370001
 10
0.1844698534999907
 20
339.8837207147002
 10
1.549963851699999
 20
340.3754159999999
  0
LINE
  5
15B4
330
1547
100
AcDbEntity
  8
LAYER_1_0
 62
     7
100
AcDbLine
 10
-3.910529020600009
 20
306.4706064426999
 30
0.0
 11
-3.910529020600009
 21
332.1854225507
 31
0.0
  0
LWPOLYLINE
  5
15B5
330
1547
100
AcDbEntity
  8
LAYER_1_0
 62
     7
100
AcDbPolyline
 90
        7
 70
     0
 43
0.0
 10
-17.34034850630001
 20
342.1763283835999
 10
-16.84865322100006
 20
342.1763283835999
 10
-16.63094402830006
 20
342.1763283835999
 10
-16.19404252240002
 20
342.1763283835999
 10
-15.9748545081
 20
342.1763283835999
 10
-15.48463804440007
 20
342.1763283835999
 10
-15.04774083740005
 20
342.1763283835999
  0
LWPOLYLINE
  5
15B6
330
1547
100
AcDbEntity
  8
LAYER_1_0
 62
     7
100
AcDbPolyline
 90
        7
 70
     0
 43
0.0
 10
-15.04774083740005
 20
342.1763283835999
 10
-15.48463804440007
 20
342.1763283835999
 10
-15.9748545081
 20
342.1763283835999
 10
-16.19404252240002
 20
342.1763283835999
 10
-16.63094402830006
 20
342.1763283835999
 10
-16.84865322100006
 20
342.1763283835999
 10
-17.34034850630001
 20
342.1763283835999
  0
LWPOLYLINE
  5
15B7
330
1547
100
AcDbEntity
  8
LAYER_1_0
 62
     7
100
AcDbPolyline
 90
       13
 70
     0
 43
0.0
 10
-4.128238213300051
 20
332.1854225507
 10
-3.910529020599994
 20
332.1854225507
 10
-3.473631813600093
 20
332.1854225507
 10
-3.199645721000081
 20
332.1854225507
 10
-2.762744215100042
 20
332.1854225507
 10
-2.325847008100026
 20
332.1854225507
 10
-2.108137815400084
 20
332.1854225507
 10
-1.616442530100073
 20
332.1854225507
 10
-0.9618361304000586
 20
332.1854225507
 10
-0.4701365462000809
 20
332.1854225507
 10
-0.2524316524001051
 20
332.1854225507
 10
0.1844698534999907
 20
332.1854225507
 10
0.4036578677999501
 20
332.1854225507
  0
LINE
  5
15B8
330
1547
100
AcDbEntity
  8
LAYER_1_0
 62
     7
100
AcDbLine
 10
0.8953531530999612
 20
347.19991975
 30
0.0
 11
0.8953531530999612
 21
349.0008321336
 31
0.0
  0
LINE
  5
15B9
330
1547
100
AcDbEntity
  8
LAYER_1_0
 62
     7
100
AcDbLine
 10
16.12756384399992
 20
350.3663261317999
 30
0.0
 11
2.696265536699982
 21
350.3663261317999
 31
0.0
  0
LINE
  5
15BA
330
1547
100
AcDbEntity
  8
LAYER_1_0
 62
     7
100
AcDbLine
 10
17.27386552899992
 20
351.2949186241001
 30
0.0
 11
7.71985690309998
 21
351.2949186241001
 31
0.0
  0
LINE
  5
15BB
330
1547
100
AcDbEntity
  8
LAYER_1_0
 62
     7
100
AcDbLine
 10
16.56298222939999
 20
352.1687173369999
 30
0.0
 11
8.866162886999958
 21
352.1687173369999
 31
0.0
  0
LINE
  5
15BC
330
1547
100
AcDbEntity
  8
LAYER_1_0
 62
     7
100
AcDbLine
 10
1.549963851699985
 20
340.5931251926999
 30
0.0
 11
1.330771538499973
 21
344.1964287814999
 31
0.0
  0
LINE
  5
15BD
330
1547
100
AcDbEntity
  8
LAYER_1_0
 62
     7
100
AcDbLine
 10
2.041659136999939
 20
341.2492147129
 30
0.0
 11
4.061759534899991
 21
347.19991975
 31
0.0
  0
LINE
  5
15BE
330
1547
100
AcDbEntity
  8
LAYER_1_0
 62
     7
100
AcDbLine
 10
3.133162743699983
 20
344.1964287814999
 30
0.0
 11
1.330771538499973
 21
344.1964287814999
 31
0.0
  0
LINE
  5
15BF
330
1547
100
AcDbEntity
  8
LAYER_1_0
 62
     7
100
AcDbLine
 10
1.330771538499973
 20
347.19991975
 30
0.0
 11
1.330771538499973
 21
344.2512268598
 31
0.0
  0
LINE
  5
15C0
330
1547
100
AcDbEntity
  8
LAYER_1_0
 62
     7
100
AcDbLine
 10
3.133162743699983
 20
347.19991975
 30
0.0
 11
3.133162743699983
 21
344.2512268598
 31
0.0
  0
LINE
  5
15C1
330
1547
100
AcDbEntity
  8
LAYER_1_0
 62
     7
100
AcDbLine
 10
7.71985690309998
 20
351.2949186241001
 30
0.0
 11
7.008973603499939
 21
351.2949186241001
 31
0.0
  0
LINE
  5
15C2
330
1547
100
AcDbEntity
  8
LAYER_1_0
 62
     7
100
AcDbLine
 10
7.008973603499939
 20
351.2949186241001
 30
0.0
 11
7.008973603499939
 21
350.3663261317999
 31
0.0
  0
LINE
  5
15C3
330
1547
100
AcDbEntity
  8
LAYER_1_0
 62
     7
100
AcDbLine
 10
8.811364808700005
 20
352.1687173369999
 30
0.0
 11
7.71985690309998
 21
352.1687173369999
 31
0.0
  0
LINE
  5
15C4
330
1547
100
AcDbEntity
  8
LAYER_1_0
 62
     7
100
AcDbLine
 10
7.71985690309998
 20
352.1687173369999
 30
0.0
 11
7.71985690309998
 21
351.2949186241001
 31
0.0
  0
LINE
  5
15C5
330
1547
100
AcDbEntity
  8
LAYER_1_0
 62
     7
100
AcDbLine
 10
18.42017151289996
 20
350.3663261317999
 30
0.0
 11
16.12756384399992
 21
350.3663261317999
 31
0.0
  0
LINE
  5
15C6
330
1547
100
AcDbEntity
  8
LAYER_1_0
 62
     7
100
AcDbLine
 10
16.56298222939999
 20
352.1687173369999
 30
0.0
 11
17.71076703489997
 21
352.1687173369999
 31
0.0
  0
LINE
  5
15C7
330
1547
100
AcDbEntity
  8
LAYER_1_0
 62
     7
100
AcDbLine
 10
18.42017151289996
 20
351.2949186241001
 30
0.0
 11
17.71076703489997
 21
351.2949186241001
 31
0.0
  0
LINE
  5
15C8
330
1547
100
AcDbEntity
  8
LAYER_1_0
 62
     7
100
AcDbLine
 10
17.71076703489997
 20
351.2949186241001
 30
0.0
 11
17.71076703489997
 21
352.1687173369999
 31
0.0
  0
LINE
  5
15C9
330
1547
100
AcDbEntity
  8
LAYER_1_0
 62
     7
100
AcDbLine
 10
18.42017151289996
 20
350.3663261317999
 30
0.0
 11
18.42017151289996
 21
351.2949186241001
 31
0.0
  0
LINE
  5
15CA
330
1547
100
AcDbEntity
  8
LAYER_1_0
 62
     7
100
AcDbLine
 10
8.866162886999958
 20
352.6589338007001
 30
0.0
 11
16.56298222939999
 21
352.6589338007001
 31
0.0
  0
LINE
  5
15CB
330
1547
100
AcDbEntity
  8
LAYER_1_0
 62
     7
100
AcDbLine
 10
12.25027416259992
 20
354.4613250059
 30
0.0
 11
11.32316049190001
 21
354.4613250059
 31
0.0
  0
LWPOLYLINE
  5
15CC
330
1547
100
AcDbEntity
  8
LAYER_1_0
 62
     7
100
AcDbPolyline
 90
        3
 70
     0
 43
0.0
 10
10.66707097169995
 20
354.4613250059
 10
9.303060093999988
 20
353.315019022
 10
8.866162886999973
 20
352.6589338007001
  0
LINE
  5
15CD
330
1547
100
AcDbEntity
  8
LAYER_1_0
 62
     7
100
AcDbLine
 10
11.32316049190001
 20
354.4613250059
 30
0.0
 11
11.10397247759992
 21
354.4613250059
 31
0.0
  0
LINE
  5
15CE
330
1547
100
AcDbEntity
  8
LAYER_1_0
 62
     7
100
AcDbLine
 10
11.10397247759992
 20
354.4613250059
 30
0.0
 11
10.66707097169992
 21
354.0244234999998
 31
0.0
  0
LINE
  5
15CF
330
1547
100
AcDbEntity
  8
LAYER_1_0
 62
     7
100
AcDbLine
 10
14.97977903849995
 20
354.4613250059
 30
0.0
 11
14.05266536779993
 21
354.4613250059
 31
0.0
  0
LINE
  5
15D0
330
1547
100
AcDbEntity
  8
LAYER_1_0
 62
     7
100
AcDbLine
 10
13.17887095379998
 20
354.4613250059
 30
0.0
 11
12.25027416259992
 21
354.4613250059
 31
0.0
  0
LINE
  5
15D1
330
1547
100
AcDbEntity
  8
LAYER_1_0
 62
     7
100
AcDbLine
 10
12.25027416259992
 20
354.0244234999998
 30
0.0
 11
12.25027416259992
 21
354.4613250059
 31
0.0
  0
LINE
  5
15D2
330
1547
100
AcDbEntity
  8
LAYER_1_0
 62
     7
100
AcDbLine
 10
13.17887095379998
 20
354.4613250059
 30
0.0
 11
13.17887095379998
 21
354.0244234999998
 31
0.0
  0
LINE
  5
15D3
330
1547
100
AcDbEntity
  8
LAYER_1_0
 62
     7
100
AcDbLine
 10
13.17887095379998
 20
354.4613250059
 30
0.0
 11
13.61576816079993
 21
354.4613250059
 31
0.0
  0
LINE
  5
15D4
330
1547
100
AcDbEntity
  8
LAYER_1_0
 62
     7
100
AcDbLine
 10
13.61576816079993
 20
354.4613250059
 30
0.0
 11
14.05266536779993
 21
354.4613250059
 31
0.0
  0
LWPOLYLINE
  5
15D5
330
1547
100
AcDbEntity
  8
LAYER_1_0
 62
     7
100
AcDbPolyline
 90
        3
 70
     0
 43
0.0
 10
16.5629822294
 20
352.6589338007001
 10
15.41668054439998
 20
354.0244234999998
 10
14.76206984579994
 20
354.4613250059
  0
LINE
  5
15D6
330
1547
100
AcDbEntity
  8
LAYER_1_0
 62
     7
100
AcDbLine
 10
77.76580678669993
 20
214.8048436241
 30
0.0
 11
77.76580678669993
 21
302.1578983758999
 31
0.0
  0
LINE
  5
15D7
330
1547
100
AcDbEntity
  8
LAYER_1_0
  6
AI9-LTYPE2
 62
     7
100
AcDbLine
 10
68.86640456049997
 20
258.481371
 30
0.0
 11
60.95039720379997
 21
258.481371
 31
0.0
  0
LINE
  5
15D8
330
1547
100
AcDbEntity
  8
LAYER_1_0
 62
     7
100
AcDbLine
 10
65.04391295739998
 20
165.8870156891
 30
0.0
 11
65.91771167029996
 21
165.8870156891
 31
0.0
  0
LINE
  5
15D9
330
1547
100
AcDbEntity
  8
LAYER_1_0
 62
     7
100
AcDbLine
 10
56.63768913699995
 20
166.5416220888
 30
0.0
 11
70.50440582969997
 21
166.5416220888
 31
0.0
  0
LWPOLYLINE
  5
15DA
330
1547
100
AcDbEntity
  8
LAYER_1_0
 62
     7
100
AcDbPolyline
 90
        9
 70
     0
 43
0.0
 10
65.04391295739998
 20
255.0409828245
 10
66.40940695559999
 20
255.0409828245
 10
67.50091056229996
 20
256.18876763
 10
68.21179816080001
 20
257.335069315
 10
68.64721654619995
 20
258.4813710000001
 10
68.21179816080001
 20
259.8453861766
 10
67.50091056229996
 20
260.9931709820999
 10
66.40940695559999
 20
262.0846745888
 10
65.04391295739998
 20
262.0846745888
  0
LINE
  5
15DB
330
1547
100
AcDbEntity
  8
LAYER_1_0
 62
     7
100
AcDbLine
 10
55.49138315309996
 20
165.8870156891
 30
0.0
 11
65.04391295739998
 21
165.8870156891
 31
0.0
  0
LINE
  5
15DC
330
1547
100
AcDbEntity
  8
LAYER_1_0
 62
     7
100
AcDbLine
 10
64.11679928669994
 20
164.5215216909
 30
0.0
 11
56.63768913699995
 21
164.5215216909
 31
0.0
  0
LINE
  5
15DD
330
1547
100
AcDbEntity
  8
LAYER_1_0
 62
     7
100
AcDbLine
 10
56.63768913699995
 20
164.7392308836
 30
0.0
 11
63.89761127239999
 21
164.7392308836
 31
0.0
  0
LINE
  5
15DE
330
1547
100
AcDbEntity
  8
LAYER_1_0
 62
     7
100
AcDbLine
 10
59.80409121989999
 20
162.6658155279
 30
0.0
 11
60.95039720379997
 21
162.6658155279
 31
0.0
  0
LINE
  5
15DF
330
1547
100
AcDbEntity
  8
LAYER_1_0
 62
     7
100
AcDbLine
 10
54.78049985349998
 20
166.5416220888
 30
0.0
 11
54.78049985349998
 21
165.8870156891
 31
0.0
  0
LWPOLYLINE
  5
15E0
330
1547
100
AcDbEntity
  8
LAYER_1_0
 62
     7
100
AcDbPolyline
 90
        4
 70
     0
 43
0.0
 10
56.63768913699994
 20
164.7392308836001
 10
56.63768913699994
 20
164.5215216909
 10
57.72919274369996
 20
162.9383185
 10
58.43859722169998
 20
162.7191304857
  0
LINE
  5
15E1
330
1547
100
AcDbEntity
  8
LAYER_1_0
 62
     7
100
AcDbLine
 10
56.58140793819995
 20
164.7392308836
 30
0.0
 11
55.49138315309996
 21
164.7392308836
 31
0.0
  0
LINE
  5
15E2
330
1547
100
AcDbEntity
  8
LAYER_1_0
 62
     7
100
AcDbLine
 10
54.78049985349998
 20
165.8870156891
 30
0.0
 11
55.48990433149992
 21
165.8870156891
 31
0.0
  0
LINE
  5
15E3
330
1547
100
AcDbEntity
  8
LAYER_1_0
 62
     7
100
AcDbLine
 10
55.49138315309996
 20
164.7392308836
 30
0.0
 11
55.49138315309996
 21
165.8870156891
 31
0.0
  0
LINE
  5
15E4
330
1547
100
AcDbEntity
  8
LAYER_1_0
 62
     7
100
AcDbLine
 10
58.43859722169998
 20
162.6658155279
 30
0.0
 11
58.65630641439995
 21
162.6658155279
 31
0.0
  0
LINE
  5
15E5
330
1547
100
AcDbEntity
  8
LAYER_1_0
 62
     7
100
AcDbLine
 10
59.80409121989999
 20
162.6658155279
 30
0.0
 11
59.80409121989999
 21
162.9383185
 31
0.0
  0
LINE
  5
15E6
330
1547
100
AcDbEntity
  8
LAYER_1_0
 62
     7
100
AcDbLine
 10
59.80409121989999
 20
162.6658155279
 30
0.0
 11
59.09320792029994
 21
162.6658155279
 31
0.0
  0
LINE
  5
15E7
330
1547
100
AcDbEntity
  8
LAYER_1_0
 62
     7
100
AcDbLine
 10
59.09320792029994
 20
162.6658155279
 30
0.0
 11
58.65630641439995
 21
162.6658155279
 31
0.0
  0
LWPOLYLINE
  5
15E8
330
1547
100
AcDbEntity
  8
LAYER_1_0
 62
     7
100
AcDbPolyline
 90
        5
 70
     0
 43
0.0
 10
62.31440808149995
 20
162.7191304857
 10
63.89761127239996
 20
163.8121172129
 10
64.11679928669997
 20
164.5215216909
 10
64.11679928669997
 20
164.7392308836001
 10
63.89761127239996
 20
164.7392308836001
  0
LINE
  5
15E9
330
1547
100
AcDbEntity
  8
LAYER_1_0
 62
     7
100
AcDbLine
 10
61.38729441079991
 20
162.6658155279
 30
0.0
 11
60.45869761959996
 21
162.6658155279
 31
0.0
  0
LINE
  5
15EA
330
1547
100
AcDbEntity
  8
LAYER_1_0
 62
     7
100
AcDbLine
 10
60.45869761959996
 20
162.9383185
 30
0.0
 11
60.45869761959996
 21
162.7191304856999
 31
0.0
  0
LINE
  5
15EB
330
1547
100
AcDbEntity
  8
LAYER_1_0
 62
     7
100
AcDbLine
 10
61.38729441079991
 20
162.6658155279
 30
0.0
 11
61.60500360349995
 21
162.6658155279
 31
0.0
  0
LINE
  5
15EC
330
1547
100
AcDbEntity
  8
LAYER_1_0
 62
     7
100
AcDbLine
 10
61.60500360349995
 20
162.6658155279
 30
0.0
 11
62.31440808149994
 21
162.9383185
 31
0.0
  0
LINE
  5
15ED
330
1547
100
AcDbEntity
  8
LAYER_1_0
 62
     7
100
AcDbLine
 10
65.04391295739998
 20
165.8870156891
 30
0.0
 11
65.04391295739998
 21
164.7392308836
 31
0.0
  0
LINE
  5
15EE
330
1547
100
AcDbEntity
  8
LAYER_1_0
 62
     7
100
AcDbLine
 10
65.04391295739998
 20
164.7392308836
 30
0.0
 11
63.89761127239999
 21
164.7392308836
 31
0.0
  0
LINE
  5
15EF
330
1547
100
AcDbEntity
  8
LAYER_1_0
  6
AI9-LTYPE2
 62
     7
100
AcDbLine
 10
32.50607621989995
 20
258.481371
 30
0.0
 11
40.47688595379996
 21
258.481371
 31
0.0
  0
LWPOLYLINE
  5
15F0
330
1547
100
AcDbEntity
  8
LAYER_1_0
 62
     7
100
AcDbPolyline
 90
       17
 70
     0
 43
0.0
 10
40.20437868279998
 20
258.4813710000001
 10
39.7674771769
 20
259.8453861766
 10
39.11139195559997
 20
260.9931709820999
 10
37.74737677899992
 20
262.0846745888
 10
36.60107509399995
 20
262.0846745888
 10
35.01787190309994
 20
262.0846745888
 10
34.08927941079991
 20
260.9931709820999
 10
33.16068261959992
 20
259.8453861766
 10
32.94297342689992
 20
258.4813710000001
 10
33.16068261959992
 20
257.335069315
 10
34.08927941079991
 20
256.18876763
 10
35.01787190309994
 20
255.0409828245
 10
36.60107509399995
 20
255.0409828245
 10
37.74737677899992
 20
255.0409828245
 10
39.11139195559997
 20
256.18876763
 10
39.7674771769
 20
257.335069315
 10
40.20437868279998
 20
258.4813710000001
  0
LINE
  5
15F1
330
1547
100
AcDbEntity
  8
LAYER_1_0
  6
AI9-LTYPE2
 62
     7
100
AcDbLine
 10
36.60107509399994
 20
262.3023837815
 30
0.0
 11
36.60107509399994
 21
254.3863721259
 31
0.0
  0
LINE
  5
15F2
330
1547
100
AcDbEntity
  8
LAYER_1_0
  6
AI9-LTYPE2
 62
     7
100
AcDbLine
 10
59.58490320559996
 20
258.481371
 30
0.0
 11
51.39638427899992
 21
258.481371
 31
0.0
  0
LWPOLYLINE
  5
15F3
330
1547
100
AcDbEntity
  8
LAYER_1_0
 62
     7
100
AcDbPolyline
 90
        9
 70
     0
 43
0.0
 10
55.49138315309995
 20
262.0846745888
 10
54.12589345379996
 20
262.0846745888
 10
52.97958746989997
 20
260.9931709820999
 10
52.27018299189996
 20
259.8468649981999
 10
51.83328578489994
 20
258.4813710000001
 10
52.27018299189996
 20
257.335069315
 10
52.97958746989997
 20
256.18876763
 10
54.12589345379996
 20
255.0409828245
 10
55.49138315309995
 20
255.0409828245
  0
LINE
  5
15F4
330
1547
100
AcDbEntity
  8
LAYER_1_0
 62
     7
100
AcDbLine
 10
65.04391295739998
 20
255.0409828245
 30
0.0
 11
55.49138315309996
 21
255.0409828245
 31
0.0
  0
LINE
  5
15F5
330
1547
100
AcDbEntity
  8
LAYER_1_0
 62
     7
100
AcDbLine
 10
55.49138315309996
 20
262.0846745888
 30
0.0
 11
65.04391295739998
 21
262.0846745888
 31
0.0
  0
LINE
  5
15F6
330
1547
100
AcDbEntity
  8
LAYER_1_0
  6
AI9-LTYPE2
 62
     7
100
AcDbLine
 10
55.49138315309996
 20
262.3023837815
 30
0.0
 11
55.49138315309996
 21
254.3863721259
 31
0.0
  0
LINE
  5
15F7
330
1547
100
AcDbEntity
  8
LAYER_1_0
 62
     7
100
AcDbLine
 10
58.00170001469991
 20
262.0846745888
 30
0.0
 11
58.00170001469991
 21
255.0409828245
 31
0.0
  0
LINE
  5
15F8
330
1547
100
AcDbEntity
  8
LAYER_1_0
  6
AI9-LTYPE2
 62
     7
100
AcDbLine
 10
65.04391295739998
 20
254.3863721259
 30
0.0
 11
65.04391295739998
 21
262.3023837815
 31
0.0
  0
LINE
  5
15F9
330
1547
100
AcDbEntity
  8
LAYER_1_0
 62
     7
100
AcDbLine
 10
77.76580678669993
 20
214.8048436241
 30
0.0
 11
70.72211502239994
 21
175.6587335077
 31
0.0
  0
LINE
  5
15FA
330
1547
100
AcDbEntity
  8
LAYER_1_0
 62
     7
100
AcDbLine
 10
71.37820024369992
 20
172.9292286317999
 30
0.0
 11
71.37820024369992
 21
176.587326
 31
0.0
  0
LINE
  5
15FB
330
1547
100
AcDbEntity
  8
LAYER_1_0
 62
     7
100
AcDbLine
 10
70.72211502239994
 20
175.6587335077
 30
0.0
 11
68.64721654619994
 21
169.9805314427
 31
0.0
  0
LINE
  5
15FC
330
1547
100
AcDbEntity
  8
LAYER_1_0
 62
     7
100
AcDbLine
 10
69.57580903849995
 20
169.4903192779
 30
0.0
 11
71.86841670739994
 21
169.4903192779
 31
0.0
  0
LINE
  5
15FD
330
1547
100
AcDbEntity
  8
LAYER_1_0
 62
     7
100
AcDbLine
 10
71.37820024369992
 20
172.9292286317999
 30
0.0
 11
69.57580903849995
 21
172.9292286317999
 31
0.0
  0
LWPOLYLINE
  5
15FE
330
1547
100
AcDbEntity
  8
LAYER_1_0
 62
     7
100
AcDbPolyline
 90
        4
 70
     0
 43
0.0
 10
70.50440582969997
 20
166.5416220888
 10
71.15901222939999
 20
166.5416220888
 10
71.86841670739994
 20
167.6879280727
 10
71.86841670739994
 20
168.1248252797
  0
LINE
  5
15FF
330
1547
100
AcDbEntity
  8
LAYER_1_0
 62
     7
100
AcDbLine
 10
65.70000247759992
 20
166.5416220888
 30
0.0
 11
65.70000247759992
 21
165.8870156891
 31
0.0
  0
LINE
  5
1600
330
1547
100
AcDbEntity
  8
LAYER_1_0
 62
     7
100
AcDbLine
 10
69.57580903849995
 20
169.4903192779
 30
0.0
 11
69.57580903849995
 21
172.9292286317999
 31
0.0
  0
LINE
  5
1601
330
1547
100
AcDbEntity
  8
LAYER_1_0
 62
     7
100
AcDbLine
 10
71.37820024369992
 20
172.9292286317999
 30
0.0
 11
71.37820024369992
 21
169.5436342357
 31
0.0
  0
LINE
  5
1602
330
1547
100
AcDbEntity
  8
LAYER_1_0
 62
     7
100
AcDbLine
 10
71.86841670739994
 20
168.1248252797
 30
0.0
 11
71.86841670739994
 21
169.4903192779
 31
0.0
  0
LWPOLYLINE
  5
1603
330
1547
100
AcDbEntity
  8
LAYER_1_0
 62
     7
100
AcDbPolyline
 90
        8
 70
     0
 43
0.0
 10
71.3782002436999
 20
176.0956307147
 10
72.52450622759994
 20
176.0956307147
 10
73.67080791259997
 20
176.0956307147
 10
74.32541431229992
 20
176.0956307147
 10
74.10770511959992
 20
176.5873259999999
 10
73.67080791259997
 20
176.5873259999999
 10
72.52450622759994
 20
176.5873259999999
 10
70.72211502239992
 20
176.5873259999999
  0
LINE
  5
1604
330
1547
100
AcDbEntity
  8
LAYER_1_0
 62
     7
100
AcDbLine
 10
56.63768913699995
 20
350.3663261317999
 30
0.0
 11
70.50440582969997
 21
350.3663261317999
 31
0.0
  0
LINE
  5
1605
330
1547
100
AcDbEntity
  8
LAYER_1_0
 62
     7
100
AcDbLine
 10
65.04391295739998
 20
351.2949186241001
 30
0.0
 11
65.91771167029996
 21
351.2949186241001
 31
0.0
  0
LWPOLYLINE
  5
1606
330
1547
100
AcDbEntity
  8
LAYER_1_0
 62
     7
100
AcDbPolyline
 90
        3
 70
     0
 43
0.0
 10
63.89761127239996
 20
352.1687173370001
 10
64.11679928669997
 20
352.1687173370001
 10
64.11679928669997
 20
352.6589338007001
  0
LWPOLYLINE
  5
1607
330
1547
100
AcDbEntity
  8
LAYER_1_0
 62
     7
100
AcDbPolyline
 90
        3
 70
     0
 43
0.0
 10
56.63768913699994
 20
352.6589338007001
 10
56.63768913699994
 20
352.1687173370001
 10
56.85539832969993
 20
352.1687173370001
  0
LINE
  5
1608
330
1547
100
AcDbEntity
  8
LAYER_1_0
 62
     7
100
AcDbLine
 10
56.63768913699995
 20
350.3663261317999
 30
0.0
 11
42.06008484579995
 21
350.3663261317999
 31
0.0
  0
LINE
  5
1609
330
1547
100
AcDbEntity
  8
LAYER_1_0
 62
     7
100
AcDbLine
 10
36.16417788699993
 20
350.3663261317999
 30
0.0
 11
31.14058222169994
 21
350.3663261317999
 31
0.0
  0
LINE
  5
160A
330
1547
100
AcDbEntity
  8
LAYER_1_0
 62
     7
100
AcDbLine
 10
35.45329028849997
 20
351.2949186241001
 30
0.0
 11
29.99428053669994
 21
351.2949186241001
 31
0.0
  0
LINE
  5
160B
330
1547
100
AcDbEntity
  8
LAYER_1_0
 62
     7
100
AcDbLine
 10
29.99428053669994
 20
351.2949186241001
 30
0.0
 11
29.99428053669994
 21
350.3663261317999
 31
0.0
  0
LINE
  5
160C
330
1547
100
AcDbEntity
  8
LAYER_1_0
 62
     7
100
AcDbLine
 10
42.06008484579995
 20
350.3663261317999
 30
0.0
 11
36.60107509399994
 21
350.3663261317999
 31
0.0
  0
LINE
  5
160D
330
1547
100
AcDbEntity
  8
LAYER_1_0
 62
     7
100
AcDbLine
 10
37.96508597169996
 20
351.2949186241001
 30
0.0
 11
43.20639082969994
 21
351.2949186241001
 31
0.0
  0
LINE
  5
160E
330
1547
100
AcDbEntity
  8
LAYER_1_0
 62
     7
100
AcDbLine
 10
36.81878428669998
 20
351.2949186241001
 30
0.0
 11
37.96508597169996
 21
351.2949186241001
 31
0.0
  0
LINE
  5
160F
330
1547
100
AcDbEntity
  8
LAYER_1_0
 62
     7
100
AcDbLine
 10
36.16417788699993
 20
350.3663261317999
 30
0.0
 11
36.60107509399994
 21
350.3663261317999
 31
0.0
  0
LINE
  5
1610
330
1547
100
AcDbEntity
  8
LAYER_1_0
 62
     7
100
AcDbLine
 10
36.60107509399994
 20
350.3663261317999
 30
0.0
 11
36.60107509399994
 21
351.2949186241001
 31
0.0
  0
LINE
  5
1611
330
1547
100
AcDbEntity
  8
LAYER_1_0
 62
     7
100
AcDbLine
 10
35.89019179439995
 20
351.2949186241001
 30
0.0
 11
36.10937980869998
 21
351.2949186241001
 31
0.0
  0
LINE
  5
1612
330
1547
100
AcDbEntity
  8
LAYER_1_0
 62
     7
100
AcDbLine
 10
36.16417788699993
 20
351.2949186241001
 30
0.0
 11
36.60107509399994
 21
351.2949186241001
 31
0.0
  0
LINE
  5
1613
330
1547
100
AcDbEntity
  8
LAYER_1_0
 62
     7
100
AcDbLine
 10
36.81878428669998
 20
351.2949186241001
 30
0.0
 11
36.60107509399994
 21
351.2949186241001
 31
0.0
  0
LINE
  5
1614
330
1547
100
AcDbEntity
  8
LAYER_1_0
 62
     7
100
AcDbLine
 10
43.20639082969994
 20
350.3663261317999
 30
0.0
 11
43.20639082969994
 21
351.2949186241001
 31
0.0
  0
LINE
  5
1615
330
1547
100
AcDbEntity
  8
LAYER_1_0
 62
     7
100
AcDbLine
 10
65.04391295739998
 20
351.2949186241001
 30
0.0
 11
55.49138315309996
 21
351.2949186241001
 31
0.0
  0
LINE
  5
1616
330
1547
100
AcDbEntity
  8
LAYER_1_0
 62
     7
100
AcDbLine
 10
63.89761127239999
 20
352.1687173369999
 30
0.0
 11
56.63768913699995
 21
352.1687173369999
 31
0.0
  0
LINE
  5
1617
330
1547
100
AcDbEntity
  8
LAYER_1_0
 62
     7
100
AcDbLine
 10
55.49138315309996
 20
352.1687173369999
 30
0.0
 11
56.58140793819995
 21
352.1687173369999
 31
0.0
  0
LINE
  5
1618
330
1547
100
AcDbEntity
  8
LAYER_1_0
 62
     7
100
AcDbLine
 10
54.78049985349998
 20
350.3663261317999
 30
0.0
 11
54.78049985349998
 21
351.2949186241001
 31
0.0
  0
LINE
  5
1619
330
1547
100
AcDbEntity
  8
LAYER_1_0
 62
     7
100
AcDbLine
 10
55.49138315309996
 20
351.2949186241001
 30
0.0
 11
54.78049985349998
 21
351.2949186241001
 31
0.0
  0
LINE
  5
161A
330
1547
100
AcDbEntity
  8
LAYER_1_0
 62
     7
100
AcDbLine
 10
55.49138315309996
 20
351.2949186241001
 30
0.0
 11
55.49138315309996
 21
352.1687173369999
 31
0.0
  0
LINE
  5
161B
330
1547
100
AcDbEntity
  8
LAYER_1_0
 62
     7
100
AcDbLine
 10
63.89761127239999
 20
352.1687173369999
 30
0.0
 11
65.04391295739998
 21
352.1687173369999
 31
0.0
  0
LINE
  5
161C
330
1547
100
AcDbEntity
  8
LAYER_1_0
 62
     7
100
AcDbLine
 10
65.04391295739998
 20
352.1687173369999
 30
0.0
 11
65.04391295739998
 21
351.2949186241001
 31
0.0
  0
LINE
  5
161D
330
1547
100
AcDbEntity
  8
LAYER_1_0
 62
     7
100
AcDbLine
 10
56.63768913699995
 20
352.6589338007001
 30
0.0
 11
64.11679928669994
 21
352.6589338007001
 31
0.0
  0
LINE
  5
161E
330
1547
100
AcDbEntity
  8
LAYER_1_0
 62
     7
100
AcDbLine
 10
60.95039720379997
 20
354.4613250059
 30
0.0
 11
59.80409121989999
 21
354.4613250059
 31
0.0
  0
LWPOLYLINE
  5
161F
330
1547
100
AcDbEntity
  8
LAYER_1_0
 62
     7
100
AcDbPolyline
 90
        3
 70
     0
 43
0.0
 10
58.43859722169998
 20
354.4613250059
 10
56.85539832969993
 20
353.315019022
 10
56.63768913699994
 20
352.6589338007001
  0
LINE
  5
1620
330
1547
100
AcDbEntity
  8
LAYER_1_0
 62
     7
100
AcDbLine
 10
58.65630641439995
 20
354.4613250059
 30
0.0
 11
58.43859722169998
 21
354.0244234999998
 31
0.0
  0
LINE
  5
1621
330
1547
100
AcDbEntity
  8
LAYER_1_0
 62
     7
100
AcDbLine
 10
59.80409121989999
 20
354.0244234999998
 30
0.0
 11
59.80409121989999
 21
354.4613250059
 31
0.0
  0
LINE
  5
1622
330
1547
100
AcDbEntity
  8
LAYER_1_0
 62
     7
100
AcDbLine
 10
59.80409121989999
 20
354.4613250059
 30
0.0
 11
59.09320792029994
 21
354.4613250059
 31
0.0
  0
LINE
  5
1623
330
1547
100
AcDbEntity
  8
LAYER_1_0
 62
     7
100
AcDbLine
 10
59.09320792029994
 20
354.4613250059
 30
0.0
 11
58.65630641439995
 21
354.4613250059
 31
0.0
  0
LWPOLYLINE
  5
1624
330
1547
100
AcDbEntity
  8
LAYER_1_0
 62
     7
100
AcDbPolyline
 90
        3
 70
     0
 43
0.0
 10
64.11679928669997
 20
352.6589338007001
 10
62.75130528849996
 20
354.0244234999998
 10
62.31440808149995
 20
354.4613250059
  0
LINE
  5
1625
330
1547
100
AcDbEntity
  8
LAYER_1_0
 62
     7
100
AcDbLine
 10
60.45869761959996
 20
354.4613250059
 30
0.0
 11
61.38729441079991
 21
354.4613250059
 31
0.0
  0
LINE
  5
1626
330
1547
100
AcDbEntity
  8
LAYER_1_0
 62
     7
100
AcDbLine
 10
60.45869761959996
 20
354.4613250059
 30
0.0
 11
60.45869761959996
 21
354.0244234999998
 31
0.0
  0
LINE
  5
1627
330
1547
100
AcDbEntity
  8
LAYER_1_0
 62
     7
100
AcDbLine
 10
61.38729441079991
 20
354.4613250059
 30
0.0
 11
61.60500360349995
 21
354.4613250059
 31
0.0
  0
LINE
  5
1628
330
1547
100
AcDbEntity
  8
LAYER_1_0
 62
     7
100
AcDbLine
 10
62.31440808149994
 20
354.4613250059
 30
0.0
 11
61.60500360349995
 21
354.4613250059
 31
0.0
  0
LINE
  5
1629
330
1547
100
AcDbEntity
  8
LAYER_1_0
 62
     7
100
AcDbLine
 10
90.05005969929994
 20
342.3955163979
 30
0.0
 11
71.37820024369992
 21
342.3955163979
 31
0.0
  0
LINE
  5
162A
330
1547
100
AcDbEntity
  8
LAYER_1_0
 62
     7
100
AcDbLine
 10
70.72211502239994
 20
341.2492147129
 30
0.0
 11
77.76580678669993
 21
302.1578983758999
 31
0.0
  0
LINE
  5
162B
330
1547
100
AcDbEntity
  8
LAYER_1_0
 62
     7
100
AcDbLine
 10
71.86841670739994
 20
347.19991975
 30
0.0
 11
69.57580903849995
 21
347.19991975
 31
0.0
  0
LINE
  5
162C
330
1547
100
AcDbEntity
  8
LAYER_1_0
 62
     7
100
AcDbLine
 10
69.57580903849995
 20
344.1964287814999
 30
0.0
 11
71.37820024369992
 21
344.1964287814999
 31
0.0
  0
LINE
  5
162D
330
1547
100
AcDbEntity
  8
LAYER_1_0
 62
     7
100
AcDbLine
 10
70.72211502239994
 20
341.2492147129
 30
0.0
 11
68.64721654619994
 21
347.19991975
 31
0.0
  0
LWPOLYLINE
  5
162E
330
1547
100
AcDbEntity
  8
LAYER_1_0
 62
     7
100
AcDbPolyline
 90
        9
 70
     0
 43
0.0
 10
70.50440582969997
 20
350.3663261317999
 10
70.72211502239992
 20
350.3663261317999
 10
71.15901222939999
 20
350.3663261317999
 10
71.15901222939999
 20
350.1486169391001
 10
71.3782002436999
 20
350.1486169391001
 10
71.3782002436999
 20
349.6569216538
 10
71.3782002436999
 20
349.4377293406
 10
71.86841670739994
 20
349.4377293406
 10
71.86841670739994
 20
349.0008321336
  0
LINE
  5
162F
330
1547
100
AcDbEntity
  8
LAYER_1_0
 62
     7
100
AcDbLine
 10
65.70000247759992
 20
351.2949186241001
 30
0.0
 11
65.70000247759992
 21
350.3663261317999
 31
0.0
  0
LINE
  5
1630
330
1547
100
AcDbEntity
  8
LAYER_1_0
 62
     7
100
AcDbLine
 10
69.57580903849995
 20
347.19991975
 30
0.0
 11
69.57580903849995
 21
344.2512268598
 31
0.0
  0
LINE
  5
1631
330
1547
100
AcDbEntity
  8
LAYER_1_0
 62
     7
100
AcDbLine
 10
71.37820024369992
 20
344.1964287814999
 30
0.0
 11
71.37820024369992
 21
340.5931251926999
 31
0.0
  0
LWPOLYLINE
  5
1632
330
1547
100
AcDbEntity
  8
LAYER_1_0
 62
     7
100
AcDbPolyline
 90
        4
 70
     0
 43
0.0
 10
74.32541431229992
 20
341.0300266985999
 10
73.67080791259997
 20
341.0300266985999
 10
72.52450622759994
 20
341.2492147129
 10
71.3782002436999
 20
341.2492147129
  0
LWPOLYLINE
  5
1633
330
1547
100
AcDbEntity
  8
LAYER_1_0
 62
     7
100
AcDbPolyline
 90
        5
 70
     0
 43
0.0
 10
70.72211502239992
 20
340.5931251926999
 10
72.52450622759994
 20
340.5931251926999
 10
73.67080791259997
 20
341.0300266985999
 10
74.10770511959992
 20
341.0300266985999
 10
74.32541431229992
 20
341.0300266985999
  0
LINE
  5
1634
330
1547
100
AcDbEntity
  8
LAYER_1_0
 62
     7
100
AcDbLine
 10
71.86841670739994
 20
349.0008321336
 30
0.0
 11
71.86841670739994
 21
347.19991975
 31
0.0
  0
LINE
  5
1635
330
1547
100
AcDbEntity
  8
LAYER_1_0
 62
     7
100
AcDbLine
 10
71.37820024369992
 20
347.19991975
 30
0.0
 11
71.37820024369992
 21
344.2512268598
 31
0.0
  0
LWPOLYLINE
  5
1636
330
1547
100
AcDbEntity
  8
LAYER_1_0
 62
     7
100
AcDbPolyline
 90
        7
 70
     0
 43
0.0
 10
190.6167078645998
 20
258.4813710000001
 10
190.1250125792999
 20
271.9111904856999
 10
189.4704018806999
 20
284.8507935077
 10
188.3211382536
 20
298.0629038007
 10
186.9586061975
 20
311.2216948369999
 10
184.6630365864998
 20
324.6515143227
 10
182.4267101163999
 20
335.7887218405999
  0
LWPOLYLINE
  5
1637
330
1547
100
AcDbEntity
  8
LAYER_1_0
 62
     7
100
AcDbPolyline
 90
       53
 70
     0
 43
0.0
 10
181.4966345035999
 20
182.265528065
 10
181.7158225178999
 20
183.41182975
 10
181.7158225178999
 20
184.5581357339
 10
182.4267101163999
 20
187.7245378167999
 10
183.3005088292999
 20
190.6732350059001
 10
183.5167349014999
 20
193.8396370888
 10
184.0084301867999
 20
196.8416492356999
 10
184.6630365864998
 20
199.7903421259001
 10
185.1547361706999
 20
202.9567485077
 10
185.3739241849999
 20
206.3971409821
 10
186.0285305847
 20
209.3443550507
 10
186.5202258699999
 20
212.0738599266
 10
186.9586061975
 20
215.4594543227001
 10
187.1748365685999
 20
218.4081472129002
 10
187.1748365685999
 20
221.6293473741001
 10
187.6132125972
 20
224.5765614426999
 10
187.8857198681998
 20
227.5252586318
 10
188.3211382536
 20
230.6916607146999
 10
188.3211382536
 20
233.9128608759
 10
188.7595185810999
 20
236.8615580650001
 10
188.7595185810999
 20
239.8087721335999
 10
188.9787065954
 20
242.976657337
 10
188.9787065954
 20
246.4155666909001
 10
188.9787065954
 20
249.36426388
 10
188.9787065954
 20
252.0937687558999
 10
188.9787065954
 20
255.5326781098001
 10
188.9787065954
 20
258.4813710000001
 10
188.9787065954
 20
261.6477773818
 10
188.9787065954
 20
264.8141794647
 10
188.9787065954
 20
267.8176747321
 10
188.9787065954
 20
270.7648888007
 10
188.9787065954
 20
273.9312908836
 10
188.7595185810999
 20
277.371683358
 10
188.7595185810999
 20
280.3203762481999
 10
188.3211382536
 20
283.48678263
 10
188.3211382536
 20
286.4339966986
 10
187.8857198681998
 20
289.6551968598
 10
187.6132125972
 20
292.60388975
 10
187.1748365685999
 20
295.7702961318
 10
187.1748365685999
 20
298.718989022
 10
186.9586061975
 20
301.6662030906001
 10
186.5202258699999
 20
304.8874075507
 10
186.0285305847
 20
308.2729976479
 10
185.3739241849999
 20
311.2216948369999
 10
185.1547361706999
 20
313.9511997129001
 10
184.6630365864998
 20
317.3901090667999
 10
184.0084301867999
 20
320.3388062559
 10
183.5167349014999
 20
323.5052083388001
 10
183.3005088292999
 20
326.5072204857001
 10
182.4267101163999
 20
329.4559133759
 10
181.7158225178999
 20
332.6223197576999
 10
181.7158225178999
 20
333.7686214427
 10
181.4966345035999
 20
334.9164062482001
  0
LWPOLYLINE
  5
1638
330
1547
100
AcDbEntity
  8
LAYER_1_0
 62
     7
100
AcDbPolyline
 90
       53
 70
     0
 43
0.0
 10
176.9677003645999
 20
183.8487312559
 10
177.4031187500001
 20
185.2127421336
 10
177.4031187500001
 20
185.9236297320999
 10
178.0577251497
 20
189.3077410076999
 10
178.7686084492999
 20
192.0372458836001
 10
179.2040268346999
 20
194.9859430727
 10
179.9149144332
 20
197.9346359629
 10
180.3503328185998
 20
201.1558361241
 10
180.5695208328999
 20
204.1030501927
 10
181.0612161182
 20
207.0517473817999
 10
181.4966345035999
 20
210.2181494647
 10
182.1542028453999
 20
213.2216447321001
 10
182.1542028453999
 20
216.1688588006999
 10
182.4267101163999
 20
219.1175516909
 10
182.8621285017999
 20
222.0662488800001
 10
183.3005088292999
 20
225.2326509629
 10
183.5167349014999
 20
228.2346631098001
 10
183.5167349014999
 20
231.4010651927
 10
184.0084301867999
 20
234.3497623818
 10
184.0084301867999
 20
237.298455272
 10
184.2276224999999
 20
240.5196597321
 10
184.2276224999999
 20
243.4668738007
 10
184.2276224999999
 20
246.4155666909001
 10
184.6630365864998
 20
249.36426388
 10
184.6630365864998
 20
252.5306659629001
 10
184.6630365864998
 20
255.5326781098001
 10
184.6630365864998
 20
258.4813710000001
 10
184.6630365864998
 20
261.6477773818
 10
184.6630365864998
 20
264.5964702720001
 10
184.6630365864998
 20
267.5436843406
 10
184.2276224999999
 20
270.7648888007
 10
184.2276224999999
 20
273.7135816909001
 10
184.2276224999999
 20
276.8799880727
 10
184.0084301867999
 20
279.8286809629
 10
184.0084301867999
 20
282.8306931098001
 10
183.5167349014999
 20
285.9970951927
 10
183.5167349014999
 20
288.9457923817999
 10
183.3005088292999
 20
291.8944852720001
 10
182.8621285017999
 20
294.8416993406
 10
182.4267101163999
 20
298.0629038007
 10
182.1542028453999
 20
301.0115966909001
 10
182.1542028453999
 20
303.9602938799999
 10
181.4966345035999
 20
307.1266959629
 10
181.0612161182
 20
310.1287081098
 10
180.5695208328999
 20
313.077401
 10
180.3503328185998
 20
316.2438073818
 10
179.9149144332
 20
318.755603065
 10
179.2040268346999
 20
322.1397143405998
 10
178.7686084492999
 20
324.8707023370001
 10
178.0577251497
 20
327.8727144839
 10
177.4031187500001
 20
330.8214073741
 10
177.4031187500001
 20
331.967713358
 10
176.9677003645999
 20
333.0592169647001
  0
LWPOLYLINE
  5
1639
330
1547
100
AcDbEntity
  8
LAYER_1_0
 62
     7
100
AcDbPolyline
 90
        7
 70
     0
 43
0.0
 10
182.4267101163999
 20
180.9000340667999
 10
185.1547361706999
 20
194.3313323741
 10
186.9586061975
 20
207.4886445888
 10
188.3211382536
 20
220.4830456891
 10
189.6866322517998
 20
233.6951559821
 10
190.1250125792999
 20
247.0701730906
 10
190.6167078645998
 20
258.4813710000001
  0
LWPOLYLINE
  5
163A
330
1547
100
AcDbEntity
  8
LAYER_1_0
 62
     7
100
AcDbPolyline
 90
        4
 70
     0
 43
0.0
 10
163.5349189367999
 20
174.9493290297
 10
163.3186928645999
 20
174.9493290297
 10
162.8269975792999
 20
174.9493290297
 10
162.3886172517999
 20
174.9493290297
  0
LWPOLYLINE
  5
163B
330
1547
100
AcDbEntity
  8
LAYER_1_0
 62
     7
100
AcDbPolyline
 90
        7
 70
     0
 43
0.0
 10
161.4615035810999
 20
174.731619837
 10
161.6806915953999
 20
174.731619837
 10
162.1723868806999
 20
174.731619837
 10
162.3886172517999
 20
174.731619837
 10
162.8269975792999
 20
174.731619837
 10
163.3186928645999
 20
174.731619837
 10
163.5349189367999
 20
174.731619837
  0
LWPOLYLINE
  5
163C
330
1547
100
AcDbEntity
  8
LAYER_1_0
 62
     7
100
AcDbPolyline
 90
        4
 70
     0
 43
0.0
 10
162.3886172517999
 20
174.9493290297
 10
162.1694249385999
 20
174.9493290297
 10
161.6806915953999
 20
174.9493290297
 10
161.4615035810999
 20
174.9493290297
  0
LWPOLYLINE
  5
163D
330
1547
100
AcDbEntity
  8
LAYER_1_0
 62
     7
100
AcDbPolyline
 90
       37
 70
     0
 43
0.0
 10
182.4267101163999
 20
181.1192263800001
 10
182.4267101163999
 20
180.9000340667999
 10
182.4267101163999
 20
180.4083387815001
 10
182.1542028453999
 20
180.1906295887999
 10
182.1542028453999
 20
179.7537323817999
 10
182.1542028453999
 20
179.3168308759001
 10
181.7158225178999
 20
179.3168308759001
 10
181.7158225178999
 20
179.0443279037999
 10
181.4966345035999
 20
178.6074263979001
 10
181.4966345035999
 20
178.3882383836
 10
181.0612161182
 20
178.3882383836
 10
181.0612161182
 20
177.9528199981999
 10
181.0612161182
 20
177.4611247129
 10
180.5695208328999
 20
177.4611247129
 10
180.5695208328999
 20
177.2419366986
 10
180.3503328185998
 20
177.2419366986
 10
180.3503328185998
 20
176.8050351927
 10
179.9149144332
 20
176.8050351927
 10
179.9149144332
 20
176.5873259999999
 10
179.69572212
 20
176.5873259999999
 10
179.2040268346999
 20
176.5873259999999
 10
179.2040268346999
 20
176.0956307147
 10
178.7686084492999
 20
176.0956307147
 10
178.7686084492999
 20
175.6587335077
 10
178.5494204349999
 20
175.6587335077
 10
178.0577251497
 20
175.6587335077
 10
178.0577251497
 20
175.441024315
 10
177.8414947786
 20
175.441024315
 10
177.4031187500001
 20
175.441024315
 10
176.9677003645999
 20
175.004127108
 10
176.6922311514998
 20
175.004127108
 10
176.2568127660999
 20
175.004127108
 10
176.0376247517999
 20
175.004127108
 10
175.6022063664
 20
175.004127108
 10
175.1105110810999
 20
175.004127108
 10
175.1105110810999
 20
174.731619837
 10
174.8913187678998
 20
174.731619837
  0
LWPOLYLINE
  5
163E
330
1547
100
AcDbEntity
  8
LAYER_1_0
 62
     7
100
AcDbPolyline
 90
        5
 70
     0
 43
0.0
 10
173.7450170828998
 20
176.0956307147
 10
174.2367123681999
 20
175.6587335077
 10
174.2367123681999
 20
175.441024315
 10
174.4559046814
 20
175.004127108
 10
174.8913187678998
 20
174.731619837
  0
LWPOLYLINE
  5
163F
330
1547
100
AcDbEntity
  8
LAYER_1_0
 62
     7
100
AcDbPolyline
 90
        7
 70
     0
 43
0.0
 10
178.7686084492999
 20
177.9528199981999
 10
178.7686084492999
 20
178.3882383836
 10
178.7686084492999
 20
179.3168308759001
 10
178.0577251497
 20
179.0991259821
 10
177.4031187500001
 20
178.6074263979001
 10
176.6922311514998
 20
178.6074263979001
 10
176.0376247517999
 20
178.6074263979001
  0
LWPOLYLINE
  5
1640
330
1547
100
AcDbEntity
  8
LAYER_1_0
 62
     7
100
AcDbPolyline
 90
        5
 70
     0
 43
0.0
 10
176.9677003645999
 20
183.8487312559
 10
178.7686084492999
 20
183.41182975
 10
180.3503328185998
 20
182.9201344647
 10
181.4966345035999
 20
182.702425272
 10
181.4966345035999
 20
182.265528065
  0
LWPOLYLINE
  5
1641
330
1547
100
AcDbEntity
  8
LAYER_1_0
 62
     7
100
AcDbPolyline
 90
        6
 70
     0
 43
0.0
 10
178.0577251497
 20
177.4611247129
 10
178.0577251497
 20
177.2419366986
 10
177.8385328364999
 20
177.2419366986
 10
177.4031187500001
 20
177.2419366986
 10
176.9677003645999
 20
176.8050351927
 10
176.7485080513999
 20
176.5873259999999
  0
LWPOLYLINE
  5
1642
330
1547
100
AcDbEntity
  8
LAYER_1_0
 62
     7
100
AcDbPolyline
 90
        8
 70
     0
 43
0.0
 10
176.2568127660999
 20
176.5873259999999
 10
176.0376247517999
 20
176.5873259999999
 10
175.6022063664
 20
176.5873259999999
 10
175.6022063664
 20
176.0956307147
 10
175.1105110810999
 20
176.0956307147
 10
174.8913187678998
 20
176.0956307147
 10
174.4559046814
 20
176.0956307147
 10
174.2367123681999
 20
176.0956307147
  0
LWPOLYLINE
  5
1643
330
1547
100
AcDbEntity
  8
LAYER_1_0
 62
     7
100
AcDbPolyline
 90
        5
 70
     0
 43
0.0
 10
174.2367123681999
 20
176.0956307147
 10
173.7450170828998
 20
176.0956307147
 10
174.4559046814
 20
176.5873259999999
 10
175.1105110810999
 20
177.2419366986
 10
176.0376247517999
 20
178.6074263979001
  0
LWPOLYLINE
  5
1644
330
1547
100
AcDbEntity
  8
LAYER_1_0
 62
     7
100
AcDbPolyline
 90
        3
 70
     0
 43
0.0
 10
176.0376247517999
 20
178.6074263979001
 10
176.9677003645999
 20
180.9000340667999
 10
176.9677003645999
 20
183.8487312559
  0
LWPOLYLINE
  5
1645
330
1547
100
AcDbEntity
  8
LAYER_1_0
 62
     7
100
AcDbPolyline
 90
        4
 70
     0
 43
0.0
 10
181.4966345035999
 20
182.265528065
 10
181.0612161182
 20
180.9000340667999
 10
179.9149144332
 20
179.3168308759001
 10
178.7686084492999
 20
177.9528199981999
  0
LWPOLYLINE
  5
1646
330
1547
100
AcDbEntity
  8
LAYER_1_0
 62
     7
100
AcDbPolyline
 90
        5
 70
     0
 43
0.0
 10
180.3503328185998
 20
182.9201344647
 10
180.3503328185998
 20
182.265528065
 10
179.9149144332
 20
181.1192263800001
 10
179.69572212
 20
180.1906295887999
 10
178.7686084492999
 20
179.3168308759001
  0
LWPOLYLINE
  5
1647
330
1547
100
AcDbEntity
  8
LAYER_1_0
 62
     7
100
AcDbPolyline
 90
        3
 70
     0
 43
0.0
 10
178.5494204349999
 20
177.9528199981999
 10
178.5494204349999
 20
177.4611247129
 10
178.1140020496
 20
177.4611247129
  0
LWPOLYLINE
  5
1648
330
1547
100
AcDbEntity
  8
LAYER_1_0
 62
     7
100
AcDbPolyline
 90
        5
 70
     0
 43
0.0
 10
181.4966345035999
 20
182.265528065
 10
181.7158225178999
 20
182.265528065
 10
181.7158225178999
 20
182.0463400506999
 10
182.1542028453999
 20
181.5561235869999
 10
182.4267101163999
 20
181.1192263800001
  0
LINE
  5
1649
330
1547
100
AcDbEntity
  8
LAYER_1_0
 62
     7
100
AcDbLine
 10
120.5144810811
 20
342.3955163979
 30
0.0
 11
158.0759091849999
 21
342.3955163979
 31
0.0
  0
LINE
  5
164A
330
1547
100
AcDbEntity
  8
LAYER_1_0
 62
     7
100
AcDbLine
 10
120.5144810811
 20
342.3955163979
 30
0.0
 11
114.4008606306999
 21
342.3955163979
 31
0.0
  0
LINE
  5
164B
330
1547
100
AcDbEntity
  8
LAYER_1_0
 62
     7
100
AcDbLine
 10
158.0759091849999
 20
342.3955163979
 30
0.0
 11
174.8913187678998
 21
342.3955163979
 31
0.0
  0
LWPOLYLINE
  5
164C
330
1547
100
AcDbEntity
  8
LAYER_1_0
 62
     7
100
AcDbPolyline
 90
        3
 70
     0
 43
0.0
 10
176.9677003645999
 20
333.0592169647001
 10
176.9677003645999
 20
335.7887218405999
 10
176.0376247517999
 20
338.5197098370001
  0
LWPOLYLINE
  5
164D
330
1547
100
AcDbEntity
  8
LAYER_1_0
 62
     7
100
AcDbPolyline
 90
        5
 70
     0
 43
0.0
 10
180.3503328185998
 20
333.9878137558999
 10
180.3503328185998
 20
334.9164062482001
 10
179.9149144332
 20
335.7887218405999
 10
179.69572212
 20
336.9350278245
 10
178.7686084492999
 20
338.08281263
  0
LWPOLYLINE
  5
164E
330
1547
100
AcDbEntity
  8
LAYER_1_0
 62
     7
100
AcDbPolyline
 90
        3
 70
     0
 43
0.0
 10
181.4966345035999
 20
334.9164062482001
 10
181.4966345035999
 20
334.4247109629001
 10
180.3503328185998
 20
333.9878137558999
  0
LWPOLYLINE
  5
164F
330
1547
100
AcDbEntity
  8
LAYER_1_0
 62
     7
100
AcDbPolyline
 90
        3
 70
     0
 43
0.0
 10
180.3503328185998
 20
333.9878137558999
 10
178.7686084492999
 20
333.7686214427
 10
176.9677003645999
 20
333.0592169647001
  0
LWPOLYLINE
  5
1650
330
1547
100
AcDbEntity
  8
LAYER_1_0
 62
     7
100
AcDbPolyline
 90
       15
 70
     0
 43
0.0
 10
174.2367123681999
 20
341.0300266985999
 10
174.4559046814
 20
341.0300266985999
 10
174.8913187678998
 20
341.0300266985999
 10
175.1105110810999
 20
341.0300266985999
 10
175.6022063664
 20
341.0300266985999
 10
176.0376247517999
 20
341.0300266985999
 10
176.0376247517999
 20
340.5931251926999
 10
176.2568127660999
 20
340.5931251926999
 10
176.6922311514998
 20
340.5931251926999
 10
176.9677003645999
 20
340.3754159999999
 10
177.4031187500001
 20
340.3754159999999
 10
177.4031187500001
 20
339.8837207147002
 10
177.8385328364999
 20
339.8837207147002
 10
178.0577251497
 20
339.8837207147002
 10
178.0577251497
 20
339.4468235077
  0
LWPOLYLINE
  5
1651
330
1547
100
AcDbEntity
  8
LAYER_1_0
 62
     7
100
AcDbPolyline
 90
       38
 70
     0
 43
0.0
 10
182.4267101163999
 20
335.7887218405999
 10
182.4267101163999
 20
336.2804171258999
 10
182.4267101163999
 20
336.7173186318
 10
182.1542028453999
 20
336.9350278245
 10
182.1542028453999
 20
337.4267231098
 10
182.1542028453999
 20
337.6459111241001
 10
181.7158225178999
 20
338.08281263
 10
181.7158225178999
 20
338.5197098370001
 10
181.4966345035999
 20
338.5197098370001
 10
181.4966345035999
 20
338.7922171079999
 10
181.0612161182
 20
338.7922171079999
 10
181.0612161182
 20
339.2291143149999
 10
181.0612161182
 20
339.4468235077
 10
180.5695208328999
 20
339.4468235077
 10
180.5695208328999
 20
339.8837207147002
 10
180.3503328185998
 20
339.8837207147002
 10
180.3503328185998
 20
340.3754159999999
 10
179.9149144332
 20
340.3754159999999
 10
179.9149144332
 20
340.5931251926999
 10
179.69572212
 20
340.5931251926999
 10
179.2040268346999
 20
340.5931251926999
 10
179.2040268346999
 20
341.0300266985999
 10
178.7686084492999
 20
341.0300266985999
 10
178.7686084492999
 20
341.2492147129
 10
178.5494204349999
 20
341.2492147129
 10
178.5494204349999
 20
341.7394311766
 10
178.0577251497
 20
341.7394311766
 10
177.8414947786
 20
341.7394311766
 10
177.8414947786
 20
342.1763283835999
 10
177.4031187500001
 20
342.1763283835999
 10
176.9677003645999
 20
342.1763283835999
 10
176.6922311514998
 20
342.1763283835999
 10
176.6922311514998
 20
342.3955163979001
 10
176.2568127660999
 20
342.3955163979001
 10
176.0376247517999
 20
342.3955163979001
 10
175.6022063664
 20
342.3955163979001
 10
175.1105110810999
 20
342.3955163979001
 10
174.8913187678998
 20
342.3955163979001
  0
LWPOLYLINE
  5
1652
330
1547
100
AcDbEntity
  8
LAYER_1_0
 62
     7
100
AcDbPolyline
 90
        7
 70
     0
 43
0.0
 10
178.7686084492999
 20
339.2291143149999
 10
178.7686084492999
 20
338.7374190297001
 10
178.7686084492999
 20
338.08281263
 10
178.0577251497
 20
338.08281263
 10
177.4031187500001
 20
338.5197098370001
 10
176.6922311514998
 20
338.5197098370001
 10
176.0376247517999
 20
338.5197098370001
  0
LWPOLYLINE
  5
1653
330
1547
100
AcDbEntity
  8
LAYER_1_0
 62
     7
100
AcDbPolyline
 90
        5
 70
     0
 43
0.0
 10
174.8913187678998
 20
342.3955163979001
 10
174.4559046814
 20
342.1763283835999
 10
174.2367123681999
 20
341.7409099982001
 10
174.2367123681999
 20
341.2492147129
 10
173.7450170828998
 20
341.0300266985999
  0
LWPOLYLINE
  5
1654
330
1547
100
AcDbEntity
  8
LAYER_1_0
 62
     7
100
AcDbPolyline
 90
        4
 70
     0
 43
0.0
 10
176.0376247517999
 20
338.7922171079999
 10
175.1105110810999
 20
339.8837207147002
 10
174.4559046814
 20
341.0300266985999
 10
173.7450170828998
 20
341.0300266985999
  0
LINE
  5
1655
330
1547
100
AcDbEntity
  8
LAYER_1_0
 62
     7
100
AcDbLine
 10
173.7450170828998
 20
341.0300266985999
 30
0.0
 11
174.2367123681999
 21
341.0300266985999
 31
0.0
  0
LWPOLYLINE
  5
1656
330
1547
100
AcDbEntity
  8
LAYER_1_0
 62
     7
100
AcDbPolyline
 90
        4
 70
     0
 43
0.0
 10
178.7686084492999
 20
339.2291143149999
 10
179.9149144332
 20
338.08281263
 10
181.0612161182
 20
336.2804171258999
 10
181.4966345035999
 20
334.9149274266001
  0
LWPOLYLINE
  5
1657
330
1547
100
AcDbEntity
  8
LAYER_1_0
 62
     7
100
AcDbPolyline
 90
        3
 70
     0
 43
0.0
 10
178.1140020496
 20
339.4468235077
 10
178.5494204349999
 20
339.4468235077
 10
178.5494204349999
 20
339.2291143149999
  0
LWPOLYLINE
  5
1658
330
1547
100
AcDbEntity
  8
LAYER_1_0
 62
     7
100
AcDbPolyline
 90
        5
 70
     0
 43
0.0
 10
182.4267101163999
 20
335.7887218405999
 10
182.1542028453999
 20
335.7887218405999
 10
181.7158225178999
 20
335.5710126479
 10
181.7158225178999
 20
334.9164062482001
 10
181.4966345035999
 20
334.9164062482001
  0
ENDBLK
  5
1549
330
1547
100
AcDbEntity
  8
0
100
AcDbBlockEnd
  0
BLOCK
  5
165B
330
165A
100
AcDbEntity
  8
0
100
AcDbBlockBegin
  2
9418S
 70
     0
 10
0.0
 20
0.0
 30
0.0
  3
9418S
  1

  0
LINE
  5
165D
330
165A
100
AcDbEntity
  8
LAYER_1_0
 62
     7
100
AcDbLine
 10
110.3213031775599
 20
-169.8106604948156
 30
0.0
 11
106.4440134961599
 21
-169.8106604948156
 31
0.0
  0
LINE
  5
165E
330
165A
100
AcDbEntity
  8
LAYER_1_0
 62
     7
100
AcDbLine
 10
106.4440134961599
 20
-213.7626570838157
 30
0.0
 11
110.3213031775599
 21
-213.7626570838157
 31
0.0
  0
LINE
  5
165F
330
165A
100
AcDbEntity
  8
LAYER_1_0
 62
     7
100
AcDbLine
 10
106.4440134961599
 20
-214.6364514978156
 30
0.0
 11
110.3213031775599
 21
-214.6364514978156
 31
0.0
  0
LINE
  5
1660
330
165A
100
AcDbEntity
  8
LAYER_1_0
 62
     7
100
AcDbLine
 10
110.3213031775599
 20
-211.9054678003157
 30
0.0
 11
106.4440134961599
 21
-211.9054678003157
 31
0.0
  0
LINE
  5
1661
330
165A
100
AcDbEntity
  8
LAYER_1_0
 62
     7
100
AcDbLine
 10
106.4440134961599
 20
-213.4901498128157
 30
0.0
 11
110.3213031775599
 21
-213.4901498128157
 31
0.0
  0
LINE
  5
1662
330
165A
100
AcDbEntity
  8
LAYER_1_0
 62
     7
100
AcDbLine
 10
110.3213031775599
 20
-171.8870377926156
 30
0.0
 11
106.4440134961599
 21
-171.8870377926156
 31
0.0
  0
LINE
  5
1663
330
165A
100
AcDbEntity
  8
LAYER_1_0
 62
     7
100
AcDbLine
 10
110.3213031775599
 20
-170.5215437944156
 30
0.0
 11
106.4440134961599
 21
-170.5215437944156
 31
0.0
  0
LINE
  5
1664
330
165A
100
AcDbEntity
  8
LAYER_1_0
 62
     7
100
AcDbLine
 10
106.4440134961599
 20
-170.5215437944156
 30
0.0
 11
110.3213031775599
 21
-170.5215437944156
 31
0.0
  0
LINE
  5
1665
330
165A
100
AcDbEntity
  8
LAYER_1_0
 62
     7
100
AcDbLine
 10
-31.62852098504008
 20
-158.4542606637156
 30
0.0
 11
163.5518391793598
 21
-158.4542606637156
 31
0.0
  0
LINE
  5
1666
330
165A
100
AcDbEntity
  8
LAYER_1_0
 62
     7
100
AcDbLine
 10
165.6282207760599
 20
-78.14489767621558
 30
0.0
 11
60.52893711885989
 21
-28.1340787151156
 31
0.0
  0
LWPOLYLINE
  5
1667
330
165A
100
AcDbEntity
  8
LAYER_1_0
 62
     7
100
AcDbPolyline
 90
        5
 70
     0
 43
0.0
 10
60.52893711885985
 20
-36.9786828630157
 10
82.36868177785993
 20
-47.4612882801157
 10
104.6431054114599
 20
-57.67138642621557
 10
133.3066101107599
 20
-71.53810311891567
 10
162.4055374943598
 20
-85.40481981161565
  0
LINE
  5
1668
330
165A
100
AcDbEntity
  8
LAYER_1_0
 62
     7
100
AcDbLine
 10
-51.17343974274014
 20
-86.33489542441569
 30
0.0
 11
-52.31974142774014
 21
-158.4542606637156
 31
0.0
  0
LWPOLYLINE
  5
1669
330
165A
100
AcDbEntity
  8
LAYER_1_0
 62
     7
100
AcDbPolyline
 90
        5
 70
     0
 43
0.0
 10
-38.45302473504011
 20
-80.21831303191573
 10
-38.8899262409401
 20
-98.83759694051571
 10
-39.10763113474007
 20
-117.7264261780156
 10
-39.10763113474007
 20
-138.1999374280156
 10
-39.59933071894011
 20
-158.4542606637156
  0
LWPOLYLINE
  5
166A
330
165A
100
AcDbEntity
  8
LAYER_1_0
 62
     7
100
AcDbPolyline
 90
        5
 70
     0
 43
0.0
 10
-46.42383446894013
 20
-80.21831303191573
 10
-46.42383446894013
 20
-98.83759694051571
 10
-46.86073167594014
 20
-117.7264261780156
 10
-47.29762888294004
 20
-138.1999374280156
 10
-47.5153380756401
 20
-158.4542606637156
  0
LINE
  5
166B
330
165A
100
AcDbEntity
  8
LAYER_1_0
 62
     7
100
AcDbLine
 10
55.50682457405986
 20
-209.8853674024156
 30
0.0
 11
-5.476811968940097
 21
-209.8853674024156
 31
0.0
  0
LINE
  5
166C
330
165A
100
AcDbEntity
  8
LAYER_1_0
 62
     7
100
AcDbLine
 10
2.713185779259873
 20
-176.6351642448156
 30
0.0
 11
47.75372833175988
 21
-176.6351642448156
 31
0.0
  0
LINE
  5
166D
330
165A
100
AcDbEntity
  8
LAYER_1_0
 62
     7
100
AcDbLine
 10
-46.15132719794006
 20
-168.0097481112156
 30
0.0
 11
84.16959416145996
 21
-168.0097481112156
 31
0.0
  0
LINE
  5
166E
330
165A
100
AcDbEntity
  8
LAYER_1_0
 62
     7
100
AcDbLine
 10
-46.42383446894011
 20
-216.4936407813156
 30
0.0
 11
83.73417577605989
 21
-216.4936407813156
 31
0.0
  0
LINE
  5
166F
330
165A
100
AcDbEntity
  8
LAYER_1_0
 62
     7
100
AcDbLine
 10
-26.82411763294011
 20
-160.2581306905157
 30
0.0
 11
25.26159550545989
 21
-160.2581306905157
 31
0.0
  0
LINE
  5
1670
330
165A
100
AcDbEntity
  8
LAYER_1_0
 62
     7
100
AcDbLine
 10
76.19878442755994
 20
-162.1123580319157
 30
0.0
 11
-25.67781594794006
 21
-162.1123580319157
 31
0.0
  0
LINE
  5
1671
330
165A
100
AcDbEntity
  8
LAYER_1_0
 62
     7
100
AcDbLine
 10
-26.3872204259401
 20
-166.8634464262156
 30
0.0
 11
76.90967202605992
 21
-166.8634464262156
 31
0.0
  0
LINE
  5
1672
330
165A
100
AcDbEntity
  8
LAYER_1_0
 62
     7
100
AcDbLine
 10
-17.76032547074008
 20
-176.6351642448156
 30
0.0
 11
-21.36362905954011
 21
-176.6351642448156
 31
0.0
  0
LINE
  5
1673
330
165A
100
AcDbEntity
  8
LAYER_1_0
 62
     7
100
AcDbLine
 10
-5.476811968940097
 20
-209.8853674024156
 30
0.0
 11
-21.36362905954011
 21
-209.8853674024156
 31
0.0
  0
LINE
  5
1674
330
165A
100
AcDbEntity
  8
LAYER_1_0
 62
     7
100
AcDbLine
 10
-46.42383446894011
 20
-209.8853674024156
 30
0.0
 11
-46.42383446894011
 21
-216.4373638814157
 31
0.0
  0
LINE
  5
1675
330
165A
100
AcDbEntity
  8
LAYER_1_0
 62
     7
100
AcDbLine
 10
-46.42383446894011
 20
-209.8853674024156
 30
0.0
 11
-39.59933071894009
 21
-209.8853674024156
 31
0.0
  0
LINE
  5
1676
330
165A
100
AcDbEntity
  8
LAYER_1_0
 62
     7
100
AcDbLine
 10
-43.91203448684005
 20
-176.6351642448156
 30
0.0
 11
-37.08753073684009
 21
-176.6351642448156
 31
0.0
  0
LINE
  5
1677
330
165A
100
AcDbEntity
  8
LAYER_1_0
 62
     7
100
AcDbLine
 10
-39.59933071894009
 20
-158.4542606637156
 30
0.0
 11
-42.76573280184005
 21
-158.4542606637156
 31
0.0
  0
LINE
  5
1678
330
165A
100
AcDbEntity
  8
LAYER_1_0
 62
     7
100
AcDbLine
 10
-40.25393711864007
 20
-165.7171447412156
 30
0.0
 11
-44.34893599274012
 21
-165.7171447412156
 31
0.0
  0
LWPOLYLINE
  5
1679
330
165A
100
AcDbEntity
  8
LAYER_1_0
 62
     7
100
AcDbPolyline
 90
       12
 70
     0
 43
0.0
 10
-42.05632832384009
 20
-160.0389426762155
 10
-41.83714030954013
 20
-160.0389426762155
 10
-41.83714030954013
 20
-160.2581306905157
 10
-41.40023880364004
 20
-160.9660563469157
 10
-41.40023880364004
 20
-161.4044366744156
 10
-41.40023880364004
 20
-161.8398550598155
 10
-41.40023880364004
 20
-162.5507383594156
 10
-41.40023880364004
 20
-162.7669644316156
 10
-41.83714030954013
 20
-163.2053447591156
 10
-41.83714030954013
 20
-163.6970400444156
 10
-42.05632832384009
 20
-163.6970400444156
 10
-42.05632832384009
 20
-163.9162323576156
  0
LINE
  5
167A
330
165A
100
AcDbEntity
  8
LAYER_1_0
 62
     7
100
AcDbLine
 10
-46.42383446894011
 20
-209.8853674024156
 30
0.0
 11
-43.91203448684005
 21
-176.6351642448156
 31
0.0
  0
LINE
  5
167B
330
165A
100
AcDbEntity
  8
LAYER_1_0
 62
     7
100
AcDbLine
 10
-44.34893599274012
 20
-162.1123580319157
 30
0.0
 11
-44.34893599274012
 21
-159.6005623487156
 31
0.0
  0
LINE
  5
167C
330
165A
100
AcDbEntity
  8
LAYER_1_0
 62
     7
100
AcDbLine
 10
-42.76573280184005
 20
-158.4542606637156
 30
0.0
 11
-44.34893599274012
 21
-162.1123580319157
 31
0.0
  0
LWPOLYLINE
  5
167D
330
165A
100
AcDbEntity
  8
LAYER_1_0
 62
     7
100
AcDbPolyline
 90
       11
 70
     0
 43
0.0
 10
-42.11112640214008
 20
-163.9162323576156
 10
-42.54802360914005
 20
-163.6970400444156
 10
-42.7657328018401
 20
-163.2053447591156
 10
-42.7657328018401
 20
-162.7669644316156
 10
-42.7657328018401
 20
-162.5507383594156
 10
-42.7657328018401
 20
-161.8961319597157
 10
-42.7657328018401
 20
-161.4044366744156
 10
-42.7657328018401
 20
-160.9660563469157
 10
-42.7657328018401
 20
-160.2581306905157
 10
-42.54802360914005
 20
-160.0389426762155
 10
-42.11112640214008
 20
-160.0389426762155
  0
LINE
  5
167E
330
165A
100
AcDbEntity
  8
LAYER_1_0
 62
     7
100
AcDbLine
 10
-46.15132719794006
 20
-176.6351642448156
 30
0.0
 11
-46.15132719794006
 21
-168.0097481112156
 31
0.0
  0
LINE
  5
167F
330
165A
100
AcDbEntity
  8
LAYER_1_0
 62
     7
100
AcDbLine
 10
-43.91203448684005
 20
-176.6351642448156
 30
0.0
 11
-46.15132719794006
 21
-176.6351642448156
 31
0.0
  0
LINE
  5
1680
330
165A
100
AcDbEntity
  8
LAYER_1_0
 62
     7
100
AcDbLine
 10
-44.34893599274012
 20
-165.7171447412156
 30
0.0
 11
-44.34893599274012
 21
-162.1123580319157
 31
0.0
  0
LINE
  5
1681
330
165A
100
AcDbEntity
  8
LAYER_1_0
 62
     7
100
AcDbLine
 10
-45.49523767774012
 20
-158.4542606637156
 30
0.0
 11
-47.51533807564008
 21
-158.4542606637156
 31
0.0
  0
LINE
  5
1682
330
165A
100
AcDbEntity
  8
LAYER_1_0
 62
     7
100
AcDbLine
 10
-47.51533807564008
 20
-158.4542606637156
 30
0.0
 11
-49.80794574454013
 21
-158.4542606637156
 31
0.0
  0
LINE
  5
1683
330
165A
100
AcDbEntity
  8
LAYER_1_0
 62
     7
100
AcDbLine
 10
-50.0271337588401
 20
-158.4542606637156
 30
0.0
 11
-52.31974142774014
 21
-158.4542606637156
 31
0.0
  0
LINE
  5
1684
330
165A
100
AcDbEntity
  8
LAYER_1_0
 62
     7
100
AcDbLine
 10
-44.56664518544009
 20
-159.6005623487156
 30
0.0
 11
-43.20263000884013
 21
-159.6005623487156
 31
0.0
  0
LINE
  5
1685
330
165A
100
AcDbEntity
  8
LAYER_1_0
 62
     7
100
AcDbLine
 10
-42.76573280184005
 20
-158.8926409912156
 30
0.0
 11
-44.56812400704008
 21
-158.8926409912156
 31
0.0
  0
LINE
  5
1686
330
165A
100
AcDbEntity
  8
LAYER_1_0
 62
     7
100
AcDbLine
 10
-45.0583404707401
 20
-158.4542606637156
 30
0.0
 11
-42.76573280184005
 21
-158.4542606637156
 31
0.0
  0
LINE
  5
1687
330
165A
100
AcDbEntity
  8
LAYER_1_0
 62
     7
100
AcDbLine
 10
-44.56664518544009
 20
-158.8926409912156
 30
0.0
 11
-44.56664518544009
 21
-159.6005623487156
 31
0.0
  0
LINE
  5
1688
330
165A
100
AcDbEntity
  8
LAYER_1_0
 62
     7
100
AcDbLine
 10
-45.0583404707401
 20
-158.4542606637156
 30
0.0
 11
-45.49523767774012
 21
-158.4542606637156
 31
0.0
  0
LINE
  5
1689
330
165A
100
AcDbEntity
  8
LAYER_1_0
 62
     7
100
AcDbLine
 10
-42.76573280184005
 20
-158.8926409912156
 30
0.0
 11
-42.76573280184005
 21
-158.4542606637156
 31
0.0
  0
LINE
  5
168A
330
165A
100
AcDbEntity
  8
LAYER_1_0
 62
     7
100
AcDbLine
 10
-21.36362905954011
 20
-176.6351642448156
 30
0.0
 11
-21.36362905954011
 21
-209.8853674024156
 31
0.0
  0
LWPOLYLINE
  5
168B
330
165A
100
AcDbEntity
  8
LAYER_1_0
 62
     7
100
AcDbPolyline
 90
        5
 70
     0
 43
0.0
 10
-37.08753073684011
 20
-176.6351642448156
 10
-37.74214143544009
 20
-185.0443500073155
 10
-38.2338367207401
 20
-193.0166385628156
 10
-38.8899262409401
 20
-201.4228623832155
 10
-39.59933071894011
 20
-209.8853674024156
  0
LINE
  5
168C
330
165A
100
AcDbEntity
  8
LAYER_1_0
 62
     7
100
AcDbLine
 10
-21.36362905954011
 20
-209.8853674024156
 30
0.0
 11
-39.59933071894009
 21
-209.8853674024156
 31
0.0
  0
LINE
  5
168D
330
165A
100
AcDbEntity
  8
LAYER_1_0
 62
     7
100
AcDbLine
 10
-31.13682569974007
 20
-176.6351642448156
 30
0.0
 11
-21.36362905954011
 21
-176.6351642448156
 31
0.0
  0
LINE
  5
168E
330
165A
100
AcDbEntity
  8
LAYER_1_0
 62
     7
100
AcDbLine
 10
-40.25393711864007
 20
-162.1123580319157
 30
0.0
 11
-26.3872204259401
 21
-160.9660563469157
 31
0.0
  0
LINE
  5
168F
330
165A
100
AcDbEntity
  8
LAYER_1_0
 62
     7
100
AcDbLine
 10
-26.3872204259401
 20
-167.5743297258157
 30
0.0
 11
-34.79492736684012
 21
-167.5743297258157
 31
0.0
  0
LINE
  5
1690
330
165A
100
AcDbEntity
  8
LAYER_1_0
 62
     7
100
AcDbLine
 10
-40.25393711864007
 20
-162.1123580319157
 30
0.0
 11
-41.40023880364005
 21
-158.4542606637156
 31
0.0
  0
LINE
  5
1691
330
165A
100
AcDbEntity
  8
LAYER_1_0
 62
     7
100
AcDbLine
 10
-35.50433184484005
 20
-176.6351642448156
 30
0.0
 11
-37.08753073684009
 21
-176.6351642448156
 31
0.0
  0
LINE
  5
1692
330
165A
100
AcDbEntity
  8
LAYER_1_0
 62
     7
100
AcDbLine
 10
-40.25393711864007
 20
-165.7171447412156
 30
0.0
 11
-33.42943336864012
 21
-165.7171447412156
 31
0.0
  0
LINE
  5
1693
330
165A
100
AcDbEntity
  8
LAYER_1_0
 62
     7
100
AcDbLine
 10
-34.79492736684012
 20
-167.3551417115156
 30
0.0
 11
-38.4530247350401
 21
-167.3551417115156
 31
0.0
  0
LINE
  5
1694
330
165A
100
AcDbEntity
  8
LAYER_1_0
 62
     7
100
AcDbLine
 10
-33.42943336864012
 20
-165.7171447412156
 30
0.0
 11
-37.08753073684009
 21
-165.7171447412156
 31
0.0
  0
LINE
  5
1695
330
165A
100
AcDbEntity
  8
LAYER_1_0
 62
     7
100
AcDbLine
 10
-34.79492736684012
 20
-167.5743297258157
 30
0.0
 11
-38.4530247350401
 21
-167.5743297258157
 31
0.0
  0
LWPOLYLINE
  5
1696
330
165A
100
AcDbEntity
  8
LAYER_1_0
 62
     7
100
AcDbPolyline
 90
        3
 70
     0
 43
0.0
 10
-40.25393711864007
 20
-165.7171447412156
 10
-40.03622792594012
 20
-166.4250660987156
 10
-38.8899262409401
 20
-166.8634464262155
  0
LINE
  5
1697
330
165A
100
AcDbEntity
  8
LAYER_1_0
 62
     7
100
AcDbLine
 10
-40.25393711864007
 20
-165.7171447412156
 30
0.0
 11
-40.25393711864007
 21
-162.1123580319157
 31
0.0
  0
LWPOLYLINE
  5
1698
330
165A
100
AcDbEntity
  8
LAYER_1_0
 62
     7
100
AcDbPolyline
 90
        5
 70
     0
 43
0.0
 10
-38.45302473504011
 20
-167.2988648116156
 10
-38.2338367207401
 20
-166.8634464262155
 10
-37.74214143544009
 20
-166.4250660987156
 10
-37.30672305004015
 20
-166.2088400265155
 10
-37.08753073684011
 20
-165.7171447412156
  0
LINE
  5
1699
330
165A
100
AcDbEntity
  8
LAYER_1_0
 62
     7
100
AcDbLine
 10
-38.4530247350401
 20
-167.5743297258157
 30
0.0
 11
-38.4530247350401
 21
-167.3551417115156
 31
0.0
  0
LINE
  5
169A
330
165A
100
AcDbEntity
  8
LAYER_1_0
 62
     7
100
AcDbLine
 10
-38.88992624094011
 20
-166.8634464262156
 30
0.0
 11
-38.23383672074008
 21
-166.8634464262156
 31
0.0
  0
LINE
  5
169B
330
165A
100
AcDbEntity
  8
LAYER_1_0
 62
     7
100
AcDbLine
 10
-31.13682569974007
 20
-176.6351642448156
 30
0.0
 11
-35.50433184484005
 21
-176.6351642448156
 31
0.0
  0
LINE
  5
169C
330
165A
100
AcDbEntity
  8
LAYER_1_0
 62
     7
100
AcDbLine
 10
-34.79492736684012
 20
-167.2988648116156
 30
0.0
 11
-33.42943336864012
 21
-165.7171447412156
 31
0.0
  0
LINE
  5
169D
330
165A
100
AcDbEntity
  8
LAYER_1_0
 62
     7
100
AcDbLine
 10
-34.79492736684012
 20
-167.3551417115156
 30
0.0
 11
-34.79492736684012
 21
-167.5713677837156
 31
0.0
  0
LINE
  5
169E
330
165A
100
AcDbEntity
  8
LAYER_1_0
 62
     7
100
AcDbLine
 10
-37.30672305004013
 20
-158.4542606637156
 30
0.0
 11
-31.62852098504008
 21
-158.4542606637156
 31
0.0
  0
LINE
  5
169F
330
165A
100
AcDbEntity
  8
LAYER_1_0
 62
     7
100
AcDbLine
 10
-39.59933071894009
 20
-158.4542606637156
 30
0.0
 11
-37.30672305004013
 21
-158.4542606637156
 31
0.0
  0
LINE
  5
16A0
330
165A
100
AcDbEntity
  8
LAYER_1_0
 62
     7
100
AcDbLine
 10
-26.3872204259401
 20
-160.9660563469157
 30
0.0
 11
-26.3872204259401
 21
-167.5743297258157
 31
0.0
  0
LWPOLYLINE
  5
16A1
330
165A
100
AcDbEntity
  8
LAYER_1_0
 62
     7
100
AcDbPolyline
 90
       12
 70
     0
 43
0.0
 10
-26.38722042594008
 20
-160.2581306905157
 10
-26.16803241164006
 20
-160.2581306905157
 10
-26.16803241164006
 20
-160.7468640337156
 10
-25.73113090574008
 20
-160.9660563469157
 10
-25.73113090574008
 20
-161.4044366744156
 10
-25.73113090574008
 20
-161.8398550598155
 10
-25.73113090574008
 20
-162.1123580319156
 10
-25.73113090574008
 20
-162.5507383594156
 10
-26.16803241164006
 20
-162.7669644316156
 10
-26.16803241164006
 20
-163.2053447591156
 10
-26.16803241164006
 20
-163.6970400444156
 10
-26.38722042594008
 20
-163.6970400444156
  0
LWPOLYLINE
  5
16A2
330
165A
100
AcDbEntity
  8
LAYER_1_0
 62
     7
100
AcDbPolyline
 90
        3
 70
     0
 43
0.0
 10
-26.38722042594008
 20
-160.9660563469157
 10
-27.31433409664009
 20
-160.0389426762155
 10
-27.53352211094011
 20
-158.4542606637156
  0
LINE
  5
16A3
330
165A
100
AcDbEntity
  8
LAYER_1_0
 62
     7
100
AcDbLine
 10
-26.3872204259401
 20
-158.4542606637156
 30
0.0
 11
-26.3872204259401
 21
-160.2581306905157
 31
0.0
  0
LINE
  5
16A4
330
165A
100
AcDbEntity
  8
LAYER_1_0
 62
     7
100
AcDbLine
 10
-26.3872204259401
 20
-160.2581306905157
 30
0.0
 11
-26.82411763294011
 21
-160.2581306905157
 31
0.0
  0
LINE
  5
16A5
330
165A
100
AcDbEntity
  8
LAYER_1_0
 62
     7
100
AcDbLine
 10
-5.476811968940097
 20
-176.6351642448156
 30
0.0
 11
2.713185779259873
 21
-176.6351642448156
 31
0.0
  0
LINE
  5
16A6
330
165A
100
AcDbEntity
  8
LAYER_1_0
 62
     7
100
AcDbLine
 10
-5.476811968940097
 20
-176.6351642448156
 30
0.0
 11
-5.476811968940097
 21
-209.8853674024156
 31
0.0
  0
LINE
  5
16A7
330
165A
100
AcDbEntity
  8
LAYER_1_0
 62
     7
100
AcDbLine
 10
-5.476811968940097
 20
-176.6351642448156
 30
0.0
 11
-17.26863018544004
 21
-176.6351642448156
 31
0.0
  0
LINE
  5
16A8
330
165A
100
AcDbEntity
  8
LAYER_1_0
 62
     7
100
AcDbLine
 10
65.28002551315982
 20
-216.4936407813156
 30
0.0
 11
64.62393599295987
 21
-216.4936407813156
 31
0.0
  0
LINE
  5
16A9
330
165A
100
AcDbEntity
  8
LAYER_1_0
 62
     7
100
AcDbLine
 10
25.26159550545989
 20
-160.2581306905157
 30
0.0
 11
77.34509041145992
 21
-160.2581306905157
 31
0.0
  0
LINE
  5
16AA
330
165A
100
AcDbEntity
  8
LAYER_1_0
 62
     7
100
AcDbLine
 10
78.2722040821599
 20
-176.6351642448156
 30
0.0
 11
55.50682457405986
 21
-176.6351642448156
 31
0.0
  0
LINE
  5
16AB
330
165A
100
AcDbEntity
  8
LAYER_1_0
 62
     7
100
AcDbLine
 10
55.50682457405986
 20
-209.8853674024156
 30
0.0
 11
78.2722040821599
 21
-209.8853674024156
 31
0.0
  0
LINE
  5
16AC
330
165A
100
AcDbEntity
  8
LAYER_1_0
 62
     7
100
AcDbLine
 10
55.50682457405986
 20
-209.8853674024156
 30
0.0
 11
55.50682457405986
 21
-176.6351642448156
 31
0.0
  0
LINE
  5
16AD
330
165A
100
AcDbEntity
  8
LAYER_1_0
 62
     7
100
AcDbLine
 10
47.3168268258599
 20
-176.6351642448156
 30
0.0
 11
55.50682457405986
 21
-176.6351642448156
 31
0.0
  0
LINE
  5
16AE
330
165A
100
AcDbEntity
  8
LAYER_1_0
 62
     7
100
AcDbLine
 10
106.4440134961599
 20
-216.4936407813156
 30
0.0
 11
106.4440134961599
 21
-214.6364514978156
 31
0.0
  0
LWPOLYLINE
  5
16AF
330
165A
100
AcDbEntity
  8
LAYER_1_0
 62
     7
100
AcDbPolyline
 90
        3
 70
     0
 43
0.0
 10
83.73417577605989
 20
-216.4373638814157
 10
83.73417577605989
 20
-213.0517694853156
 10
83.73417577605989
 20
-209.8853674024156
  0
LINE
  5
16B0
330
165A
100
AcDbEntity
  8
LAYER_1_0
 62
     7
100
AcDbLine
 10
85.97050224615992
 20
-216.4936407813156
 30
0.0
 11
87.11680823005996
 21
-216.4936407813156
 31
0.0
  0
LINE
  5
16B1
330
165A
100
AcDbEntity
  8
LAYER_1_0
 62
     7
100
AcDbLine
 10
84.16959416145996
 20
-216.4936407813156
 30
0.0
 11
93.72508160895995
 21
-216.4936407813156
 31
0.0
  0
LINE
  5
16B2
330
165A
100
AcDbEntity
  8
LAYER_1_0
 62
     7
100
AcDbLine
 10
83.73417577605989
 20
-216.4936407813156
 30
0.0
 11
106.4440134961599
 21
-216.4936407813156
 31
0.0
  0
LINE
  5
16B3
330
165A
100
AcDbEntity
  8
LAYER_1_0
 62
     7
100
AcDbLine
 10
72.10526867395994
 20
-216.4936407813156
 30
0.0
 11
83.45870656295986
 21
-216.4936407813156
 31
0.0
  0
LINE
  5
16B4
330
165A
100
AcDbEntity
  8
LAYER_1_0
 62
     7
100
AcDbLine
 10
72.59400201715992
 20
-216.4936407813156
 30
0.0
 11
79.14599849615996
 21
-216.4936407813156
 31
0.0
  0
LINE
  5
16B5
330
165A
100
AcDbEntity
  8
LAYER_1_0
 62
     7
100
AcDbLine
 10
72.54068705935989
 20
-216.4936407813156
 30
0.0
 11
65.28002551315982
 21
-216.4936407813156
 31
0.0
  0
LINE
  5
16B6
330
165A
100
AcDbEntity
  8
LAYER_1_0
 62
     7
100
AcDbLine
 10
82.80410016325987
 20
-216.4936407813156
 30
0.0
 11
80.07607410895996
 21
-216.4936407813156
 31
0.0
  0
LINE
  5
16B7
330
165A
100
AcDbEntity
  8
LAYER_1_0
 62
     7
100
AcDbLine
 10
80.07607410895996
 20
-216.4936407813156
 30
0.0
 11
79.14599849615996
 21
-216.4936407813156
 31
0.0
  0
LINE
  5
16B8
330
165A
100
AcDbEntity
  8
LAYER_1_0
 62
     7
100
AcDbLine
 10
82.80410016325987
 20
-216.4936407813156
 30
0.0
 11
84.16959416145996
 21
-216.4936407813156
 31
0.0
  0
LINE
  5
16B9
330
165A
100
AcDbEntity
  8
LAYER_1_0
 62
     7
100
AcDbLine
 10
84.60500824795991
 20
-216.4936407813156
 30
0.0
 11
85.31589584645994
 21
-216.4936407813156
 31
0.0
  0
LINE
  5
16BA
330
165A
100
AcDbEntity
  8
LAYER_1_0
 62
     7
100
AcDbLine
 10
84.60500824795991
 20
-216.4936407813156
 30
0.0
 11
84.16959416145996
 21
-216.4936407813156
 31
0.0
  0
LINE
  5
16BB
330
165A
100
AcDbEntity
  8
LAYER_1_0
 62
     7
100
AcDbLine
 10
85.31589584645994
 20
-216.4936407813156
 30
0.0
 11
85.97050224615992
 21
-216.4936407813156
 31
0.0
  0
LINE
  5
16BC
330
165A
100
AcDbEntity
  8
LAYER_1_0
 62
     7
100
AcDbLine
 10
88.97399751355987
 20
-216.4936407813156
 30
0.0
 11
91.92121158215988
 21
-216.4936407813156
 31
0.0
  0
LINE
  5
16BD
330
165A
100
AcDbEntity
  8
LAYER_1_0
 62
     7
100
AcDbLine
 10
87.33599624435987
 20
-216.4936407813156
 30
0.0
 11
88.48229792935986
 21
-216.4936407813156
 31
0.0
  0
LINE
  5
16BE
330
165A
100
AcDbEntity
  8
LAYER_1_0
 62
     7
100
AcDbLine
 10
87.33599624435987
 20
-216.4936407813156
 30
0.0
 11
87.11680823005996
 21
-216.4936407813156
 31
0.0
  0
LINE
  5
16BF
330
165A
100
AcDbEntity
  8
LAYER_1_0
 62
     7
100
AcDbLine
 10
88.48229792935986
 20
-216.4936407813156
 30
0.0
 11
88.92067825685989
 21
-216.4936407813156
 31
0.0
  0
LINE
  5
16C0
330
165A
100
AcDbEntity
  8
LAYER_1_0
 62
     7
100
AcDbLine
 10
91.92121158215988
 20
-216.4936407813156
 30
0.0
 11
93.72508160895995
 21
-216.4936407813156
 31
0.0
  0
LINE
  5
16C1
330
165A
100
AcDbEntity
  8
LAYER_1_0
 62
     7
100
AcDbLine
 10
93.72508160895995
 20
-216.4936407813156
 30
0.0
 11
94.37968800865991
 21
-216.4936407813156
 31
0.0
  0
LINE
  5
16C2
330
165A
100
AcDbEntity
  8
LAYER_1_0
 62
     7
100
AcDbLine
 10
106.4440134961599
 20
-168.0097481112156
 30
0.0
 11
84.16959416145996
 21
-168.0097481112156
 31
0.0
  0
LINE
  5
16C3
330
165A
100
AcDbEntity
  8
LAYER_1_0
 62
     7
100
AcDbLine
 10
83.73417577605989
 20
-209.8853674024156
 30
0.0
 11
88.26310991505996
 21
-209.8853674024156
 31
0.0
  0
LINE
  5
16C4
330
165A
100
AcDbEntity
  8
LAYER_1_0
 62
     7
100
AcDbLine
 10
87.11680823005996
 20
-176.6351642448156
 30
0.0
 11
85.53508386075991
 21
-176.6351642448156
 31
0.0
  0
LINE
  5
16C5
330
165A
100
AcDbEntity
  8
LAYER_1_0
 62
     7
100
AcDbLine
 10
92.57877992395995
 20
-162.1123580319157
 30
0.0
 11
77.56427842575989
 21
-160.9660563469157
 31
0.0
  0
LINE
  5
16C6
330
165A
100
AcDbEntity
  8
LAYER_1_0
 62
     7
100
AcDbLine
 10
86.46219753145993
 20
-165.7171447412156
 30
0.0
 11
87.82769152965988
 21
-167.2988648116156
 31
0.0
  0
LINE
  5
16C7
330
165A
100
AcDbEntity
  8
LAYER_1_0
 62
     7
100
AcDbLine
 10
86.46219753145993
 20
-165.7171447412156
 30
0.0
 11
92.57877992395995
 21
-165.7171447412156
 31
0.0
  0
LINE
  5
16C8
330
165A
100
AcDbEntity
  8
LAYER_1_0
 62
     7
100
AcDbLine
 10
86.68138984465988
 20
-167.5743297258157
 30
0.0
 11
77.56427842575989
 21
-167.5743297258157
 31
0.0
  0
LINE
  5
16C9
330
165A
100
AcDbEntity
  8
LAYER_1_0
 62
     7
100
AcDbLine
 10
88.26310991505996
 20
-168.0097481112156
 30
0.0
 11
79.41850576715989
 21
-168.0097481112156
 31
0.0
  0
LWPOLYLINE
  5
16CA
330
165A
100
AcDbEntity
  8
LAYER_1_0
 62
     7
100
AcDbPolyline
 90
        5
 70
     0
 43
0.0
 10
86.68138984465992
 20
-167.2988648116156
 10
86.46219753145993
 20
-166.8634464262155
 10
85.97050224615992
 20
-166.4250660987156
 10
85.53508386075993
 20
-166.2088400265155
 10
85.31589584645997
 20
-165.7171447412156
  0
LINE
  5
16CB
330
165A
100
AcDbEntity
  8
LAYER_1_0
 62
     7
100
AcDbLine
 10
78.2722040821599
 20
-176.6351642448156
 30
0.0
 11
78.2722040821599
 21
-209.8853674024156
 31
0.0
  0
LINE
  5
16CC
330
165A
100
AcDbEntity
  8
LAYER_1_0
 62
     7
100
AcDbLine
 10
83.73417577605989
 20
-209.8853674024156
 30
0.0
 11
78.2722040821599
 21
-209.8853674024156
 31
0.0
  0
LINE
  5
16CD
330
165A
100
AcDbEntity
  8
LAYER_1_0
 62
     7
100
AcDbLine
 10
77.56427842575989
 20
-167.5743297258157
 30
0.0
 11
77.56427842575989
 21
-160.9660563469157
 31
0.0
  0
LWPOLYLINE
  5
16CE
330
165A
100
AcDbEntity
  8
LAYER_1_0
 62
     7
100
AcDbPolyline
 90
       10
 70
     0
 43
0.0
 10
77.34509041145992
 20
-163.6970400444156
 10
77.34509041145992
 20
-163.2053447591156
 10
77.34509041145992
 20
-162.7669644316156
 10
77.34509041145992
 20
-162.5507383594156
 10
77.34509041145992
 20
-162.1123580319156
 10
77.34509041145992
 20
-161.8398550598155
 10
77.34509041145992
 20
-161.4044366744156
 10
77.34509041145992
 20
-160.9660563469157
 10
77.34509041145992
 20
-160.7498259758156
 10
77.34509041145992
 20
-160.2581306905157
  0
LWPOLYLINE
  5
16CF
330
165A
100
AcDbEntity
  8
LAYER_1_0
 62
     7
100
AcDbPolyline
 90
       10
 70
     0
 43
0.0
 10
76.19878442755993
 20
-163.6970400444156
 10
76.19878442755993
 20
-163.2053447591156
 10
76.19878442755993
 20
-162.7669644316156
 10
76.19878442755993
 20
-162.5507383594156
 10
76.19878442755993
 20
-162.1123580319156
 10
76.19878442755993
 20
-161.8398550598155
 10
76.19878442755993
 20
-161.4044366744156
 10
76.19878442755993
 20
-160.9660563469157
 10
76.19878442755993
 20
-160.7498259758156
 10
76.19878442755993
 20
-160.2581306905157
  0
LINE
  5
16D0
330
165A
100
AcDbEntity
  8
LAYER_1_0
 62
     7
100
AcDbLine
 10
84.60500824795991
 20
-176.6351642448156
 30
0.0
 11
79.85688609465987
 21
-176.6351642448156
 31
0.0
  0
LINE
  5
16D1
330
165A
100
AcDbEntity
  8
LAYER_1_0
 62
     7
100
AcDbLine
 10
78.2722040821599
 20
-176.6351642448156
 30
0.0
 11
79.85688609465987
 21
-176.6351642448156
 31
0.0
  0
LINE
  5
16D2
330
165A
100
AcDbEntity
  8
LAYER_1_0
 62
     7
100
AcDbLine
 10
77.56427842575989
 20
-168.0097481112156
 30
0.0
 11
79.36519080935991
 21
-168.0097481112156
 31
0.0
  0
LINE
  5
16D3
330
165A
100
AcDbEntity
  8
LAYER_1_0
 62
     7
100
AcDbLine
 10
77.56427842575989
 20
-168.0097481112156
 30
0.0
 11
77.56427842575989
 21
-163.6970400444156
 31
0.0
  0
LINE
  5
16D4
330
165A
100
AcDbEntity
  8
LAYER_1_0
 62
     7
100
AcDbLine
 10
76.90967202605992
 20
-166.8634464262156
 30
0.0
 11
77.56427842575989
 21
-166.8634464262156
 31
0.0
  0
LINE
  5
16D5
330
165A
100
AcDbEntity
  8
LAYER_1_0
 62
     7
100
AcDbLine
 10
76.19878442755994
 20
-163.6970400444156
 30
0.0
 11
77.34509041145992
 21
-163.6970400444156
 31
0.0
  0
LINE
  5
16D6
330
165A
100
AcDbEntity
  8
LAYER_1_0
 62
     7
100
AcDbLine
 10
77.56427842575989
 20
-163.6970400444156
 30
0.0
 11
77.34509041145992
 21
-163.6970400444156
 31
0.0
  0
LINE
  5
16D7
330
165A
100
AcDbEntity
  8
LAYER_1_0
 62
     7
100
AcDbLine
 10
79.41850576715989
 20
-168.0097481112156
 30
0.0
 11
79.41850576715989
 21
-167.5713677837156
 31
0.0
  0
LWPOLYLINE
  5
16D8
330
165A
100
AcDbEntity
  8
LAYER_1_0
 62
     7
100
AcDbPolyline
 90
        5
 70
     0
 43
0.0
 10
84.16959416145994
 20
-168.0097481112156
 10
84.16959416145994
 20
-170.0298485091156
 10
84.16959416145994
 20
-172.3224561780156
 10
84.16959416145994
 20
-174.6150638469156
 10
84.60500824795991
 20
-176.6351642448156
  0
LINE
  5
16D9
330
165A
100
AcDbEntity
  8
LAYER_1_0
 62
     7
100
AcDbLine
 10
85.97050224615992
 20
-176.6351642448156
 30
0.0
 11
84.60500824795991
 21
-176.6351642448156
 31
0.0
  0
LINE
  5
16DA
330
165A
100
AcDbEntity
  8
LAYER_1_0
 62
     7
100
AcDbLine
 10
86.46219753145993
 20
-165.7171447412156
 30
0.0
 11
85.31589584645994
 21
-165.7171447412156
 31
0.0
  0
LINE
  5
16DB
330
165A
100
AcDbEntity
  8
LAYER_1_0
 62
     7
100
AcDbLine
 10
86.46219753145993
 20
-165.7171447412156
 30
0.0
 11
85.31589584645994
 21
-165.7171447412156
 31
0.0
  0
LINE
  5
16DC
330
165A
100
AcDbEntity
  8
LAYER_1_0
 62
     7
100
AcDbLine
 10
77.34509041145992
 20
-160.2581306905157
 30
0.0
 11
76.19878442755994
 21
-160.2581306905157
 31
0.0
  0
LINE
  5
16DD
330
165A
100
AcDbEntity
  8
LAYER_1_0
 62
     7
100
AcDbLine
 10
76.4179767407599
 20
-160.2581306905157
 30
0.0
 11
76.4179767407599
 21
-158.4542606637156
 31
0.0
  0
LINE
  5
16DE
330
165A
100
AcDbEntity
  8
LAYER_1_0
 62
     7
100
AcDbLine
 10
77.56427842575989
 20
-160.0389426762156
 30
0.0
 11
77.99969681115996
 21
-158.4542606637156
 31
0.0
  0
LINE
  5
16DF
330
165A
100
AcDbEntity
  8
LAYER_1_0
 62
     7
100
AcDbLine
 10
77.34509041145992
 20
-160.2581306905157
 30
0.0
 11
77.99969681115996
 21
-159.6005623487156
 31
0.0
  0
LWPOLYLINE
  5
16E0
330
165A
100
AcDbEntity
  8
LAYER_1_0
 62
     7
100
AcDbPolyline
 90
        3
 70
     0
 43
0.0
 10
77.99969681115993
 20
-158.4542606637156
 10
77.56427842575988
 20
-160.0389426762155
 10
77.56427842575988
 20
-160.9660563469157
  0
LINE
  5
16E1
330
165A
100
AcDbEntity
  8
LAYER_1_0
 62
     7
100
AcDbLine
 10
103.7159917407598
 20
-171.1761544930156
 30
0.0
 11
103.7159917407598
 21
-212.3438481278156
 31
0.0
  0
LINE
  5
16E2
330
165A
100
AcDbEntity
  8
LAYER_1_0
 62
     7
100
AcDbLine
 10
92.57877992395995
 20
-212.3438481278156
 30
0.0
 11
92.57877992395995
 21
-171.1761544930156
 31
0.0
  0
LINE
  5
16E3
330
165A
100
AcDbEntity
  8
LAYER_1_0
 62
     7
100
AcDbLine
 10
106.4440134961599
 20
-179.1469599280156
 30
0.0
 11
106.4440134961599
 21
-211.9054678003157
 31
0.0
  0
LINE
  5
16E4
330
165A
100
AcDbEntity
  8
LAYER_1_0
 62
     7
100
AcDbLine
 10
87.11680823005996
 20
-176.6351642448156
 30
0.0
 11
88.26310991505996
 21
-209.8853674024156
 31
0.0
  0
LINE
  5
16E5
330
165A
100
AcDbEntity
  8
LAYER_1_0
 62
     7
100
AcDbLine
 10
93.94131198005991
 20
-214.1980754692156
 30
0.0
 11
100.5495853589599
 21
-214.1980754692156
 31
0.0
  0
LINE
  5
16E6
330
165A
100
AcDbEntity
  8
LAYER_1_0
 62
     7
100
AcDbLine
 10
97.38318327605988
 20
-192.7974505485156
 30
0.0
 11
95.7985012635599
 21
-192.7974505485156
 31
0.0
  0
LINE
  5
16E7
330
165A
100
AcDbEntity
  8
LAYER_1_0
 62
     7
100
AcDbLine
 10
97.38318327605988
 20
-196.0201295313156
 30
0.0
 11
95.7985012635599
 21
-196.0201295313156
 31
0.0
  0
LINE
  5
16E8
330
165A
100
AcDbEntity
  8
LAYER_1_0
 62
     7
100
AcDbLine
 10
94.6521952796599
 20
-194.6546398320156
 30
0.0
 11
97.59940934825985
 21
-194.6546398320156
 31
0.0
  0
LINE
  5
16E9
330
165A
100
AcDbEntity
  8
LAYER_1_0
 62
     7
100
AcDbLine
 10
97.59940934825985
 20
-207.5927597335156
 30
0.0
 11
95.08761366505991
 21
-206.4464580485156
 31
0.0
  0
LINE
  5
16EA
330
165A
100
AcDbEntity
  8
LAYER_1_0
 62
     7
100
AcDbLine
 10
94.6521952796599
 20
-206.9381533338156
 30
0.0
 11
97.59940934825985
 21
-208.0311400610157
 31
0.0
  0
LINE
  5
16EB
330
165A
100
AcDbEntity
  8
LAYER_1_0
 62
     7
100
AcDbLine
 10
97.38318327605988
 20
-209.1774417460156
 30
0.0
 11
96.89148799075992
 21
-209.3936721171156
 31
0.0
  0
LINE
  5
16EC
330
165A
100
AcDbEntity
  8
LAYER_1_0
 62
     7
100
AcDbLine
 10
95.08761366505991
 20
-206.4464580485156
 30
0.0
 11
97.59940934825985
 21
-205.5726593356156
 31
0.0
  0
LINE
  5
16ED
330
165A
100
AcDbEntity
  8
LAYER_1_0
 62
     7
100
AcDbLine
 10
97.59940934825985
 20
-205.0809640503157
 30
0.0
 11
94.6521952796599
 21
-206.4464580485156
 31
0.0
  0
LINE
  5
16EE
330
165A
100
AcDbEntity
  8
LAYER_1_0
 62
     7
100
AcDbLine
 10
94.6521952796599
 20
-202.1337499817156
 30
0.0
 11
97.59940934825985
 21
-202.1337499817156
 31
0.0
  0
LINE
  5
16EF
330
165A
100
AcDbEntity
  8
LAYER_1_0
 62
     7
100
AcDbLine
 10
97.59940934825985
 20
-203.9346580664157
 30
0.0
 11
94.6521952796599
 21
-203.9346580664157
 31
0.0
  0
LINE
  5
16F0
330
165A
100
AcDbEntity
  8
LAYER_1_0
 62
     7
100
AcDbLine
 10
94.6521952796599
 20
-193.5083338481156
 30
0.0
 11
97.59940934825985
 21
-193.5083338481156
 31
0.0
  0
LINE
  5
16F1
330
165A
100
AcDbEntity
  8
LAYER_1_0
 62
     7
100
AcDbLine
 10
97.59940934825985
 20
-198.2564603003157
 30
0.0
 11
94.6521952796599
 21
-198.2564603003157
 31
0.0
  0
LINE
  5
16F2
330
165A
100
AcDbEntity
  8
LAYER_1_0
 62
     7
100
AcDbLine
 10
97.59940934825985
 20
-197.8210419149156
 30
0.0
 11
94.6521952796599
 21
-197.8210419149156
 31
0.0
  0
LINE
  5
16F3
330
165A
100
AcDbEntity
  8
LAYER_1_0
 62
     7
100
AcDbLine
 10
94.6521952796599
 20
-191.2157261792155
 30
0.0
 11
97.59940934825985
 21
-191.2157261792155
 31
0.0
  0
LINE
  5
16F4
330
165A
100
AcDbEntity
  8
LAYER_1_0
 62
     7
100
AcDbLine
 10
97.59940934825985
 20
-191.9236518356156
 30
0.0
 11
95.7985012635599
 21
-192.7974505485156
 31
0.0
  0
LINE
  5
16F5
330
165A
100
AcDbEntity
  8
LAYER_1_0
 62
     7
100
AcDbLine
 10
97.59940934825985
 20
-196.4555479167155
 30
0.0
 11
94.6521952796599
 21
-196.4555479167155
 31
0.0
  0
LINE
  5
16F6
330
165A
100
AcDbEntity
  8
LAYER_1_0
 62
     7
100
AcDbLine
 10
97.38318327605988
 20
-194.8738278463156
 30
0.0
 11
95.52599399255996
 21
-194.8738278463156
 31
0.0
  0
LINE
  5
16F7
330
165A
100
AcDbEntity
  8
LAYER_1_0
 62
     7
100
AcDbLine
 10
97.59940934825985
 20
-200.1136495838157
 30
0.0
 11
95.08761366505991
 21
-200.1136495838157
 31
0.0
  0
LINE
  5
16F8
330
165A
100
AcDbEntity
  8
LAYER_1_0
 62
     7
100
AcDbLine
 10
95.08761366505991
 20
-200.3328375981156
 30
0.0
 11
97.59940934825985
 21
-200.3328375981156
 31
0.0
  0
LWPOLYLINE
  5
16F9
330
165A
100
AcDbEntity
  8
LAYER_1_0
 62
     7
100
AcDbPolyline
 90
        9
 70
     0
 43
0.0
 10
95.08761366505991
 20
-209.1774417460156
 10
94.6521952796599
 20
-209.8853674024156
 10
94.6521952796599
 20
-210.5399738021156
 10
95.52599399255996
 20
-211.2508614006155
 10
96.23391535005993
 20
-211.6892374292155
 10
96.89148799075992
 20
-211.2508614006155
 10
97.59940934825989
 20
-210.5399738021156
 10
97.59940934825989
 20
-209.8853674024156
 10
97.38318327605988
 20
-209.1774417460156
  0
LWPOLYLINE
  5
16FA
330
165A
100
AcDbEntity
  8
LAYER_1_0
 62
     7
100
AcDbPolyline
 90
        8
 70
     0
 43
0.0
 10
95.52599399255996
 20
-209.3936721171156
 10
95.08761366505991
 20
-209.8853674024156
 10
95.08761366505991
 20
-210.5399738021156
 10
95.74518200685986
 20
-210.9783541296155
 10
96.23687729215987
 20
-211.2508614006155
 10
96.89148799075992
 20
-210.5399738021156
 10
97.38318327605988
 20
-210.1045554167156
 10
96.89148799075992
 20
-209.3936721171156
  0
LINE
  5
16FB
330
165A
100
AcDbEntity
  8
LAYER_1_0
 62
     7
100
AcDbLine
 10
94.6521952796599
 20
-206.2272657353156
 30
0.0
 11
94.6521952796599
 21
-206.8848340771156
 31
0.0
  0
LWPOLYLINE
  5
16FC
330
165A
100
AcDbEntity
  8
LAYER_1_0
 62
     7
100
AcDbPolyline
 90
        3
 70
     0
 43
0.0
 10
92.57877992395993
 20
-212.8355434131155
 10
92.79500599615994
 20
-213.4901498128156
 10
93.28670128145995
 20
-213.7093378271156
  0
LINE
  5
16FD
330
165A
100
AcDbEntity
  8
LAYER_1_0
 62
     7
100
AcDbLine
 10
92.57877992395995
 20
-212.8355434131155
 30
0.0
 11
92.57877992395995
 21
-212.3971630856156
 31
0.0
  0
LINE
  5
16FE
330
165A
100
AcDbEntity
  8
LAYER_1_0
 62
     7
100
AcDbLine
 10
93.28670128145995
 20
-213.7626570838157
 30
0.0
 11
93.94131198005991
 21
-214.1980754692156
 31
0.0
  0
LINE
  5
16FF
330
165A
100
AcDbEntity
  8
LAYER_1_0
 62
     7
100
AcDbLine
 10
95.52599399255996
 20
-209.3936721171156
 30
0.0
 11
95.08761366505991
 21
-209.1774417460156
 31
0.0
  0
LINE
  5
1700
330
165A
100
AcDbEntity
  8
LAYER_1_0
 62
     7
100
AcDbLine
 10
96.89148799075992
 20
-202.5691683671156
 30
0.0
 11
94.6521952796599
 21
-202.5691683671156
 31
0.0
  0
LINE
  5
1701
330
165A
100
AcDbEntity
  8
LAYER_1_0
 62
     7
100
AcDbLine
 10
94.6521952796599
 20
-203.7154700521157
 30
0.0
 11
96.89148799075992
 21
-203.7154700521157
 31
0.0
  0
LINE
  5
1702
330
165A
100
AcDbEntity
  8
LAYER_1_0
 62
     7
100
AcDbLine
 10
94.6521952796599
 20
-203.9346580664157
 30
0.0
 11
94.6521952796599
 21
-203.7154700521157
 31
0.0
  0
LINE
  5
1703
330
165A
100
AcDbEntity
  8
LAYER_1_0
 62
     7
100
AcDbLine
 10
94.6521952796599
 20
-202.5691683671156
 30
0.0
 11
94.6521952796599
 21
-202.1337499817156
 31
0.0
  0
LINE
  5
1704
330
165A
100
AcDbEntity
  8
LAYER_1_0
 62
     7
100
AcDbLine
 10
94.6521952796599
 20
-201.4791435820156
 30
0.0
 11
94.6521952796599
 21
-198.9673435999156
 31
0.0
  0
LINE
  5
1705
330
165A
100
AcDbEntity
  8
LAYER_1_0
 62
     7
100
AcDbLine
 10
94.6521952796599
 20
-197.8210419149156
 30
0.0
 11
94.6521952796599
 21
-198.2564603003157
 31
0.0
  0
LINE
  5
1706
330
165A
100
AcDbEntity
  8
LAYER_1_0
 62
     7
100
AcDbLine
 10
95.08761366505991
 20
-200.1136495838157
 30
0.0
 11
95.08761366505991
 21
-198.9673435999156
 31
0.0
  0
LINE
  5
1707
330
165A
100
AcDbEntity
  8
LAYER_1_0
 62
     7
100
AcDbLine
 10
95.08761366505991
 20
-198.9673435999156
 30
0.0
 11
94.6521952796599
 21
-198.9673435999156
 31
0.0
  0
LINE
  5
1708
330
165A
100
AcDbEntity
  8
LAYER_1_0
 62
     7
100
AcDbLine
 10
94.6521952796599
 20
-201.4791435820156
 30
0.0
 11
95.08761366505991
 21
-201.4791435820156
 31
0.0
  0
LINE
  5
1709
330
165A
100
AcDbEntity
  8
LAYER_1_0
 62
     7
100
AcDbLine
 10
95.08761366505991
 20
-201.4791435820156
 30
0.0
 11
95.08761366505991
 21
-200.3328375981156
 31
0.0
  0
LINE
  5
170A
330
165A
100
AcDbEntity
  8
LAYER_1_0
 62
     7
100
AcDbLine
 10
94.6521952796599
 20
-193.5083338481156
 30
0.0
 11
94.6521952796599
 21
-192.7974505485156
 31
0.0
  0
LINE
  5
170B
330
165A
100
AcDbEntity
  8
LAYER_1_0
 62
     7
100
AcDbLine
 10
94.6521952796599
 20
-195.3092462317156
 30
0.0
 11
94.6521952796599
 21
-195.9638526314156
 31
0.0
  0
LINE
  5
170C
330
165A
100
AcDbEntity
  8
LAYER_1_0
 62
     7
100
AcDbLine
 10
94.6521952796599
 20
-195.5284342460156
 30
0.0
 11
94.6521952796599
 21
-194.6546398320156
 31
0.0
  0
LINE
  5
170D
330
165A
100
AcDbEntity
  8
LAYER_1_0
 62
     7
100
AcDbLine
 10
95.08761366505991
 20
-194.8738278463156
 30
0.0
 11
95.08761366505991
 21
-195.9638526314156
 31
0.0
  0
LINE
  5
170E
330
165A
100
AcDbEntity
  8
LAYER_1_0
 62
     7
100
AcDbLine
 10
94.6521952796599
 20
-196.0201295313156
 30
0.0
 11
94.6521952796599
 21
-196.4555479167155
 31
0.0
  0
LINE
  5
170F
330
165A
100
AcDbEntity
  8
LAYER_1_0
 62
     7
100
AcDbLine
 10
95.52599399255996
 20
-196.0201295313156
 30
0.0
 11
95.74518200685986
 21
-196.0201295313156
 31
0.0
  0
LINE
  5
1710
330
165A
100
AcDbEntity
  8
LAYER_1_0
 62
     7
100
AcDbLine
 10
95.08761366505991
 20
-196.0201295313156
 30
0.0
 11
95.52599399255996
 21
-196.0201295313156
 31
0.0
  0
LINE
  5
1711
330
165A
100
AcDbEntity
  8
LAYER_1_0
 62
     7
100
AcDbLine
 10
95.52599399255996
 20
-194.8738278463156
 30
0.0
 11
95.08761366505991
 21
-194.8738278463156
 31
0.0
  0
LINE
  5
1712
330
165A
100
AcDbEntity
  8
LAYER_1_0
 62
     7
100
AcDbLine
 10
96.45310766325987
 20
-191.9236518356156
 30
0.0
 11
94.6521952796599
 21
-191.9236518356156
 31
0.0
  0
LINE
  5
1713
330
165A
100
AcDbEntity
  8
LAYER_1_0
 62
     7
100
AcDbLine
 10
94.6521952796599
 20
-192.7974505485156
 30
0.0
 11
96.45310766325987
 21
-191.9236518356156
 31
0.0
  0
LINE
  5
1714
330
165A
100
AcDbEntity
  8
LAYER_1_0
 62
     7
100
AcDbLine
 10
94.6521952796599
 20
-191.9236518356156
 30
0.0
 11
94.6521952796599
 21
-191.2157261792155
 31
0.0
  0
LINE
  5
1715
330
165A
100
AcDbEntity
  8
LAYER_1_0
 62
     7
100
AcDbLine
 10
102.3504977425599
 20
-214.1980754692156
 30
0.0
 11
103.0613810421599
 21
-213.7626570838157
 31
0.0
  0
LINE
  5
1716
330
165A
100
AcDbEntity
  8
LAYER_1_0
 62
     7
100
AcDbLine
 10
97.59940934825985
 20
-208.0311400610157
 30
0.0
 11
97.59940934825985
 21
-207.5927597335156
 31
0.0
  0
LINE
  5
1717
330
165A
100
AcDbEntity
  8
LAYER_1_0
 62
     7
100
AcDbLine
 10
100.5495853589599
 20
-214.1980754692156
 30
0.0
 11
102.3504977425599
 21
-214.1980754692156
 31
0.0
  0
LINE
  5
1718
330
165A
100
AcDbEntity
  8
LAYER_1_0
 62
     7
100
AcDbLine
 10
97.59940934825985
 20
-205.5726593356156
 30
0.0
 11
97.59940934825985
 21
-205.0809640503157
 31
0.0
  0
LINE
  5
1719
330
165A
100
AcDbEntity
  8
LAYER_1_0
 62
     7
100
AcDbLine
 10
97.59940934825985
 20
-202.1337499817156
 30
0.0
 11
97.59940934825985
 21
-203.9346580664157
 31
0.0
  0
LINE
  5
171A
330
165A
100
AcDbEntity
  8
LAYER_1_0
 62
     7
100
AcDbLine
 10
97.38318327605988
 20
-203.7154700521157
 30
0.0
 11
97.38318327605988
 21
-202.5691683671156
 31
0.0
  0
LINE
  5
171B
330
165A
100
AcDbEntity
  8
LAYER_1_0
 62
     7
100
AcDbLine
 10
97.59940934825985
 20
-198.2564603003157
 30
0.0
 11
97.59940934825985
 21
-197.8210419149156
 31
0.0
  0
LINE
  5
171C
330
165A
100
AcDbEntity
  8
LAYER_1_0
 62
     7
100
AcDbLine
 10
97.59940934825985
 20
-200.3328375981156
 30
0.0
 11
97.59940934825985
 21
-200.1136495838157
 31
0.0
  0
LINE
  5
171D
330
165A
100
AcDbEntity
  8
LAYER_1_0
 62
     7
100
AcDbLine
 10
103.7159917407598
 20
-212.3971630856156
 30
0.0
 11
103.7159917407598
 21
-212.8355434131155
 31
0.0
  0
LWPOLYLINE
  5
171E
330
165A
100
AcDbEntity
  8
LAYER_1_0
 62
     7
100
AcDbPolyline
 90
        3
 70
     0
 43
0.0
 10
103.0613810421598
 20
-213.7093378271156
 10
103.4967994275598
 20
-213.0517694853156
 10
103.7159917407598
 20
-212.8355434131155
  0
LINE
  5
171F
330
165A
100
AcDbEntity
  8
LAYER_1_0
 62
     7
100
AcDbLine
 10
106.4440134961599
 20
-211.9054678003157
 30
0.0
 11
106.4440134961599
 21
-213.4901498128157
 31
0.0
  0
LINE
  5
1720
330
165A
100
AcDbEntity
  8
LAYER_1_0
 62
     7
100
AcDbLine
 10
106.4440134961599
 20
-213.4901498128157
 30
0.0
 11
106.4440134961599
 21
-213.7093378271156
 31
0.0
  0
LINE
  5
1721
330
165A
100
AcDbEntity
  8
LAYER_1_0
 62
     7
100
AcDbLine
 10
106.4440134961599
 20
-214.1980754692156
 30
0.0
 11
106.4440134961599
 21
-213.7626570838157
 31
0.0
  0
LINE
  5
1722
330
165A
100
AcDbEntity
  8
LAYER_1_0
 62
     7
100
AcDbLine
 10
97.59940934825985
 20
-192.7974505485156
 30
0.0
 11
97.59940934825985
 21
-193.5083338481156
 31
0.0
  0
LINE
  5
1723
330
165A
100
AcDbEntity
  8
LAYER_1_0
 62
     7
100
AcDbLine
 10
97.59940934825985
 20
-195.3092462317156
 30
0.0
 11
97.59940934825985
 21
-195.9638526314156
 31
0.0
  0
LINE
  5
1724
330
165A
100
AcDbEntity
  8
LAYER_1_0
 62
     7
100
AcDbLine
 10
97.38318327605988
 20
-196.0201295313156
 30
0.0
 11
97.38318327605988
 21
-194.8708659042156
 31
0.0
  0
LINE
  5
1725
330
165A
100
AcDbEntity
  8
LAYER_1_0
 62
     7
100
AcDbLine
 10
97.59940934825985
 20
-196.0201295313156
 30
0.0
 11
97.59940934825985
 21
-196.4555479167155
 31
0.0
  0
LINE
  5
1726
330
165A
100
AcDbEntity
  8
LAYER_1_0
 62
     7
100
AcDbLine
 10
97.59940934825985
 20
-195.5284342460156
 30
0.0
 11
97.59940934825985
 21
-194.6546398320156
 31
0.0
  0
LINE
  5
1727
330
165A
100
AcDbEntity
  8
LAYER_1_0
 62
     7
100
AcDbLine
 10
97.59940934825985
 20
-191.9236518356156
 30
0.0
 11
97.59940934825985
 21
-191.2157261792155
 31
0.0
  0
LINE
  5
1728
330
165A
100
AcDbEntity
  8
LAYER_1_0
 62
     7
100
AcDbLine
 10
97.59940934825985
 20
-192.7974505485156
 30
0.0
 11
97.38318327605988
 21
-192.7974505485156
 31
0.0
  0
LINE
  5
1729
330
165A
100
AcDbEntity
  8
LAYER_1_0
 62
     7
100
AcDbLine
 10
102.3504977425599
 20
-169.8106604948156
 30
0.0
 11
93.94131198005991
 21
-169.8106604948156
 31
0.0
  0
LINE
  5
172A
330
165A
100
AcDbEntity
  8
LAYER_1_0
 62
     7
100
AcDbLine
 10
92.57877992395995
 20
-162.1123580319157
 30
0.0
 11
92.79500599615994
 21
-158.4542606637156
 31
0.0
  0
LINE
  5
172B
330
165A
100
AcDbEntity
  8
LAYER_1_0
 62
     7
100
AcDbLine
 10
94.43300726535994
 20
-162.7669644316156
 30
0.0
 11
93.72508160895995
 21
-158.4542606637156
 31
0.0
  0
LINE
  5
172C
330
165A
100
AcDbEntity
  8
LAYER_1_0
 62
     7
100
AcDbLine
 10
93.72508160895995
 20
-158.4542606637156
 30
0.0
 11
93.94131198005991
 21
-162.1123580319157
 31
0.0
  0
LWPOLYLINE
  5
172D
330
165A
100
AcDbEntity
  8
LAYER_1_0
 62
     7
100
AcDbPolyline
 90
       19
 70
     0
 43
0.0
 10
93.28670128145995
 20
-160.0389426762155
 10
93.28670128145995
 20
-160.2581306905157
 10
93.72508160895995
 20
-160.9660563469157
 10
93.72508160895995
 20
-161.4044366744156
 10
93.72508160895995
 20
-161.8398550598155
 10
93.72508160895995
 20
-162.5507383594156
 10
93.72508160895995
 20
-162.7669644316156
 10
93.28670128145995
 20
-163.2053447591156
 10
93.28670128145995
 20
-163.6970400444156
 10
93.28670128145995
 20
-163.9162323576156
 10
93.28670128145995
 20
-163.6970400444156
 10
92.79500599615994
 20
-163.2053447591156
 10
92.79500599615994
 20
-162.7669644316156
 10
92.79500599615994
 20
-162.5507383594156
 10
92.79500599615994
 20
-161.8398550598155
 10
92.79500599615994
 20
-161.4044366744156
 10
92.79500599615994
 20
-160.9660563469157
 10
92.79500599615994
 20
-160.2581306905157
 10
93.28670128145995
 20
-160.0389426762155
  0
LINE
  5
172E
330
165A
100
AcDbEntity
  8
LAYER_1_0
 62
     7
100
AcDbLine
 10
88.26310991505996
 20
-167.5743297258157
 30
0.0
 11
87.82769152965988
 21
-167.3551417115156
 31
0.0
  0
LINE
  5
172F
330
165A
100
AcDbEntity
  8
LAYER_1_0
 62
     7
100
AcDbLine
 10
87.82769152965988
 20
-167.3551417115156
 30
0.0
 11
86.68138984465988
 21
-167.3551417115156
 31
0.0
  0
LINE
  5
1730
330
165A
100
AcDbEntity
  8
LAYER_1_0
 62
     7
100
AcDbLine
 10
86.68138984465988
 20
-167.5743297258157
 30
0.0
 11
87.82769152965988
 21
-167.5743297258157
 31
0.0
  0
LINE
  5
1731
330
165A
100
AcDbEntity
  8
LAYER_1_0
 62
     7
100
AcDbLine
 10
87.82769152965988
 20
-167.3551417115156
 30
0.0
 11
87.82769152965988
 21
-167.5713677837156
 31
0.0
  0
LINE
  5
1732
330
165A
100
AcDbEntity
  8
LAYER_1_0
 62
     7
100
AcDbLine
 10
86.68138984465988
 20
-167.5743297258157
 30
0.0
 11
86.68138984465988
 21
-167.3551417115156
 31
0.0
  0
LINE
  5
1733
330
165A
100
AcDbEntity
  8
LAYER_1_0
 62
     7
100
AcDbLine
 10
88.26310991505996
 20
-167.5743297258157
 30
0.0
 11
88.26310991505996
 21
-168.0097481112156
 31
0.0
  0
LINE
  5
1734
330
165A
100
AcDbEntity
  8
LAYER_1_0
 62
     7
100
AcDbLine
 10
88.26310991505996
 20
-168.0097481112156
 30
0.0
 11
88.26310991505996
 21
-167.5713677837156
 31
0.0
  0
LWPOLYLINE
  5
1735
330
165A
100
AcDbEntity
  8
LAYER_1_0
 62
     7
100
AcDbPolyline
 90
        4
 70
     0
 43
0.0
 10
93.94131198005993
 20
-169.8106604948156
 10
93.28670128145995
 20
-169.8106604948156
 10
92.57877992395993
 20
-170.5215437944156
 10
92.57877992395993
 20
-171.1761544930156
  0
LINE
  5
1736
330
165A
100
AcDbEntity
  8
LAYER_1_0
 62
     7
100
AcDbLine
 10
93.94131198005991
 20
-165.7171447412156
 30
0.0
 11
92.57877992395995
 21
-165.7171447412156
 31
0.0
  0
LINE
  5
1737
330
165A
100
AcDbEntity
  8
LAYER_1_0
 62
     7
100
AcDbLine
 10
92.57877992395995
 20
-165.7171447412156
 30
0.0
 11
92.57877992395995
 21
-162.1123580319157
 31
0.0
  0
LINE
  5
1738
330
165A
100
AcDbEntity
  8
LAYER_1_0
 62
     7
100
AcDbLine
 10
93.94131198005991
 20
-165.7171447412156
 30
0.0
 11
93.94131198005991
 21
-162.1123580319157
 31
0.0
  0
LINE
  5
1739
330
165A
100
AcDbEntity
  8
LAYER_1_0
 62
     7
100
AcDbLine
 10
93.94131198005991
 20
-165.7171447412156
 30
0.0
 11
94.37968800865991
 21
-165.7171447412156
 31
0.0
  0
LINE
  5
173A
330
165A
100
AcDbEntity
  8
LAYER_1_0
 62
     7
100
AcDbLine
 10
94.43300726535994
 20
-165.7171447412156
 30
0.0
 11
94.43300726535994
 21
-162.7669644316156
 31
0.0
  0
LINE
  5
173B
330
165A
100
AcDbEntity
  8
LAYER_1_0
 62
     7
100
AcDbLine
 10
94.43300726535994
 20
-162.7669644316156
 30
0.0
 11
93.94131198005991
 21
-162.7669644316156
 31
0.0
  0
LWPOLYLINE
  5
173C
330
165A
100
AcDbEntity
  8
LAYER_1_0
 62
     7
100
AcDbPolyline
 90
        4
 70
     0
 43
0.0
 10
103.7159917407598
 20
-171.1761544930156
 10
103.4967994275598
 20
-170.0298485091156
 10
102.8421930278599
 20
-169.8106604948156
 10
102.3504977425599
 20
-169.8106604948156
  0
LINE
  5
173D
330
165A
100
AcDbEntity
  8
LAYER_1_0
 62
     7
100
AcDbLine
 10
106.4440134961599
 20
-170.5215437944156
 30
0.0
 11
106.4440134961599
 21
-171.6678497783156
 31
0.0
  0
LINE
  5
173E
330
165A
100
AcDbEntity
  8
LAYER_1_0
 62
     7
100
AcDbLine
 10
106.4440134961599
 20
-179.1469599280156
 30
0.0
 11
106.4440134961599
 21
-175.2696702466156
 31
0.0
  0
LINE
  5
173F
330
165A
100
AcDbEntity
  8
LAYER_1_0
 62
     7
100
AcDbLine
 10
106.4440134961599
 20
-171.8870377926156
 30
0.0
 11
106.4440134961599
 21
-175.2696702466156
 31
0.0
  0
LINE
  5
1740
330
165A
100
AcDbEntity
  8
LAYER_1_0
 62
     7
100
AcDbLine
 10
106.4440134961599
 20
-171.1761544930156
 30
0.0
 11
106.4440134961599
 21
-171.8870377926156
 31
0.0
  0
LINE
  5
1741
330
165A
100
AcDbEntity
  8
LAYER_1_0
 62
     7
100
AcDbLine
 10
106.4440134961599
 20
-169.8106604948156
 30
0.0
 11
106.4440134961599
 21
-170.0298485091156
 31
0.0
  0
LINE
  5
1742
330
165A
100
AcDbEntity
  8
LAYER_1_0
 62
     7
100
AcDbLine
 10
106.4440134961599
 20
-169.8106604948156
 30
0.0
 11
106.4440134961599
 21
-168.0097481112156
 31
0.0
  0
LINE
  5
1743
330
165A
100
AcDbEntity
  8
LAYER_1_0
  6
AI9-LTYPE2
 62
     7
100
AcDbLine
 10
2.276288572259872
 20
-75.41390967981567
 30
0.0
 11
47.75372833175988
 21
-75.41390967981567
 31
0.0
  0
LINE
  5
1744
330
165A
100
AcDbEntity
  8
LAYER_1_0
 62
     7
100
AcDbLine
 10
-8.643214051840075
 20
4.186044530784329
 30
0.0
 11
59.16492624115992
 21
4.186044530784329
 31
0.0
  0
LINE
  5
1745
330
165A
100
AcDbEntity
  8
LAYER_1_0
 62
     7
100
AcDbLine
 10
60.52893711885989
 20
7.134741719884402
 30
0.0
 11
-10.44412643544009
 21
7.134741719884402
 31
0.0
  0
LINE
  5
1746
330
165A
100
AcDbEntity
  8
LAYER_1_0
 62
     7
100
AcDbLine
 10
-9.297820451540104
 20
10.79284338698431
 30
0.0
 11
59.38263543385989
 21
10.79284338698431
 31
0.0
  0
LWPOLYLINE
  5
1747
330
165A
100
AcDbEntity
  8
LAYER_1_0
 62
     7
100
AcDbPolyline
 90
       40
 70
     0
 43
0.0
 10
26.62560638315989
 20
-95.88742092981561
 10
30.01120077925992
 20
-95.45200254441567
 10
32.74070565515995
 20
-94.52192693161567
 10
35.68940284425986
 20
-92.94020686121559
 10
38.69141499115988
 20
-90.86679150551573
 10
41.64010788135994
 20
-87.91661549481558
 10
43.44102026495995
 20
-84.96940142621559
 10
44.58732194995991
 20
-82.02218735761556
 10
45.24192834965987
 20
-78.8528190337156
 10
45.51591874115985
 20
-75.90560496511563
 10
45.51591874115985
 20
-75.41390967981567
 10
45.24192834965987
 20
-72.46669561121564
 10
44.80651426315989
 20
-69.30029352831571
 10
43.44102026495995
 20
-66.35159633921557
 10
41.85781707405988
 20
-63.34958849121562
 10
39.1283121981599
 20
-60.18318210941572
 10
36.17961500905983
 20
-57.88909561891569
 10
33.23240094045991
 20
-56.52508474121566
 10
30.22890997195992
 20
-55.43209371511569
 10
27.06250788905993
 20
-55.15959074301566
 10
24.11381069995991
 20
-54.72268923711567
 10
21.16659663135988
 20
-55.15959074301566
 10
18.21790374115988
 20
-55.86899522101567
 10
15.48839886525991
 20
-57.23448921921556
 10
12.04800639085988
 20
-59.52709258921561
 10
9.537689529259921
 20
-62.47578977831563
 10
7.298401117059881
 20
-65.20529465421566
 10
5.93438594045989
 20
-68.15398754441571
 10
5.223502640859919
 20
-71.10120161301569
 10
4.788084255459864
 20
-74.54011526581564
 10
4.788084255459864
 20
-77.27109896331569
 10
5.223502640859919
 20
-80.21831303191573
 10
6.371287446359929
 20
-83.1684890426156
 10
7.735298324059897
 20
-86.11570311121557
 10
10.02790599295986
 20
-89.28210949301563
 10
12.75888969045991
 20
-92.22932356161567
 10
15.70610375905988
 20
-94.08651284511558
 10
19.09169815515991
 20
-95.23281453011554
 10
21.82120303105989
 20
-95.88742092981561
 10
23.4044062219599
 20
-96.32580125731568
  0
LWPOLYLINE
  5
1748
330
165A
100
AcDbEntity
  8
LAYER_1_0
 62
     7
100
AcDbPolyline
 90
       40
 70
     0
 43
0.0
 10
26.62560638315989
 20
-95.88742092981561
 10
29.57430357225991
 20
-95.45200254441567
 10
32.52151764085994
 20
-94.52192693161567
 10
35.68940284425986
 20
-92.94020686121559
 10
38.69141499115988
 20
-90.86679150551573
 10
41.14841259605987
 20
-87.91661549481558
 10
43.0041187590599
 20
-84.96940142621559
 10
44.58732194995991
 20
-82.02218735761556
 10
45.24192834965987
 20
-78.8528190337156
 10
45.51591874115985
 20
-75.90560496511563
 10
45.51591874115985
 20
-75.41390967981567
 10
45.24192834965987
 20
-72.46669561121564
 10
44.58732194995991
 20
-69.30029352831571
 10
43.44102026495995
 20
-66.35159633921557
 10
41.64010788135994
 20
-63.34958849121562
 10
39.1283121981599
 20
-60.18318210941572
 10
36.17961500905983
 20
-57.88909561891569
 10
33.23240094045991
 20
-56.52508474121566
 10
30.01120077925992
 20
-55.43209371511569
 10
27.06250788905993
 20
-55.15959074301566
 10
24.11381069995991
 20
-55.15959074301566
 10
21.16659663135988
 20
-55.15959074301566
 10
17.94539647015989
 20
-56.08670441371555
 10
14.99669928105993
 20
-57.67138642621557
 10
12.04800639085988
 20
-59.52709258921561
 10
9.537689529259921
 20
-62.47578977831563
 10
7.298401117059881
 20
-65.20529465421566
 10
5.93438594045989
 20
-68.5894059298156
 10
5.223502640859919
 20
-71.53810311891567
 10
4.788084255459864
 20
-74.54011526581564
 10
4.788084255459864
 20
-77.27109896331569
 10
5.223502640859919
 20
-80.65669335941562
 10
6.371287446359929
 20
-83.60390742801564
 10
8.172195531059912
 20
-86.33489542441566
 10
10.24709400725987
 20
-89.28210949301563
 10
13.19579119635989
 20
-92.22932356161567
 10
16.14300526495986
 20
-94.08651284511558
 10
19.30940734785986
 20
-95.23281453011554
 10
22.31290261525987
 20
-95.88742092981561
 10
23.67691349295989
 20
-95.88742092981561
  0
LWPOLYLINE
  5
1749
330
165A
100
AcDbEntity
  8
LAYER_1_0
 62
     7
100
AcDbPolyline
 90
       26
 70
     0
 43
0.0
 10
-10.44412643544006
 20
-75.41390967981567
 10
-10.00870805004007
 20
-79.51039167441564
 10
-9.297820451540133
 20
-83.60390742801564
 10
-8.206316844840102
 20
-87.48119710941564
 10
-6.840822846640037
 20
-91.57471286301563
 10
-4.330505985040133
 20
-95.45200254441567
 10
-0.8901178095400723
 20
-99.9839029244157
 10
2.985693050259953
 20
-103.6420002926156
 10
7.080691924359939
 20
-106.1508340337156
 10
10.90170470585991
 20
-108.1709344316157
 10
14.99669928105993
 20
-109.7556207430156
 10
19.36420542615991
 20
-110.4665040426156
 10
23.45920430025995
 20
-111.1211147412155
 10
27.28169590335994
 20
-111.1211147412155
 10
31.37521595585991
 20
-110.4665040426156
 10
35.47021053105993
 20
-109.7556207430156
 10
39.34602139085995
 20
-107.9547083594156
 10
43.44102026495995
 20
-106.1508340337156
 10
47.31682682585989
 20
-103.1503050073155
 10
51.41182569995987
 20
-99.54552259691565
 10
54.57823208175989
 20
-95.45200254441567
 10
56.87231857225993
 20
-91.13929877651555
 10
58.67323095585987
 20
-87.26200909511566
 10
59.81953264085996
 20
-83.1684890426156
 10
60.52893711885985
 20
-79.0720113469157
 10
60.52893711885985
 20
-75.41390967981567
  0
LWPOLYLINE
  5
174A
330
165A
100
AcDbEntity
  8
LAYER_1_0
 62
     7
100
AcDbPolyline
 90
       26
 70
     0
 43
0.0
 10
-10.44412643544006
 20
-75.41390967981567
 10
-10.00870805004007
 20
-79.51039167441564
 10
-9.297820451540133
 20
-83.60390742801564
 10
-8.206316844840102
 20
-87.48119710941564
 10
-6.3506063829401
 20
-91.57471286301563
 10
-3.838810699740122
 20
-95.45200254441567
 10
-0.8901178095400723
 20
-99.9839029244157
 10
3.422590257259855
 20
-103.6420002926156
 10
7.298401117059881
 20
-106.1508340337156
 10
11.39339999115986
 20
-108.1709344316157
 10
15.48839886525991
 20
-109.7556207430156
 10
19.36420542615991
 20
-110.4665040426156
 10
23.45920430025995
 20
-110.9019224280156
 10
27.28169590335994
 20
-110.9019224280156
 10
31.37521595585991
 20
-110.4665040426156
 10
35.47021053105993
 20
-109.3202023576156
 10
39.83771667615991
 20
-107.9547083594156
 10
43.6602082792599
 20
-105.6621006905156
 10
47.75372833175987
 20
-102.7119246798156
 10
51.41182569995987
 20
-98.83759694051571
 10
54.57823208175989
 20
-94.7411192448156
 10
56.87231857225993
 20
-90.86679150551573
 10
58.67323095585987
 20
-86.7703138098156
 10
59.81953264085996
 20
-82.67679375731558
 10
60.03872065515986
 20
-78.8528190337156
 10
60.52893711885985
 20
-75.41390967981567
  0
LWPOLYLINE
  5
174B
330
165A
100
AcDbEntity
  8
LAYER_1_0
 62
     7
100
AcDbPolyline
 90
       26
 70
     0
 43
0.0
 10
-8.643214051840061
 20
-75.41390967981567
 10
-8.643214051840061
 20
-79.0720113469157
 10
-7.933809573840107
 20
-83.1684890426156
 10
-6.840822846640037
 20
-87.26200909511566
 10
-4.985112384740091
 20
-91.13929877651555
 10
-2.473316701540113
 20
-95.23281453011554
 10
0.9107945740598779
 20
-99.05382731161569
 10
4.788084255459864
 20
-102.4956986076156
 10
8.881600009059866
 20
-105.0045323487156
 10
12.53970167615989
 20
-106.8084066744157
 10
16.36219327925994
 20
-108.1709344316157
 10
20.45719215335992
 20
-109.1010100444157
 10
24.11381069995991
 20
-109.3202023576156
 10
28.20880957405989
 20
-109.3202023576156
 10
32.08609925545988
 20
-108.6093147591156
 10
36.17961500905983
 20
-107.5163280319156
 10
40.05690469045987
 20
-106.1508340337156
 10
43.6602082792599
 20
-103.6420002926156
 10
47.75372833175987
 20
-100.6918242819156
 10
51.41182569995987
 20
-96.59830852831568
 10
53.92362138315991
 20
-92.94020686121559
 10
56.21622905205993
 20
-88.62749879441565
 10
57.52692497195994
 20
-84.96940142621559
 10
58.23632944995989
 20
-80.87291943161563
 10
59.16492624115995
 20
-76.99859599121555
 10
59.16492624115995
 20
-75.41390967981567
  0
LWPOLYLINE
  5
174C
330
165A
100
AcDbEntity
  8
LAYER_1_0
 62
     7
100
AcDbPolyline
 90
       40
 70
     0
 43
0.0
 10
45.24192834965987
 20
-75.41390967981567
 10
45.24192834965987
 20
-72.46669561121564
 10
44.58732194995991
 20
-69.30029352831571
 10
43.0041187590599
 20
-66.29680255981566
 10
41.14841259605987
 20
-63.34958849121562
 10
38.69141499115988
 20
-60.61860049481561
 10
35.68940284425986
 20
-57.88909561891569
 10
32.74070565515995
 20
-56.52508474121566
 10
30.01120077925992
 20
-55.86899522101567
 10
26.62560638315989
 20
-55.15959074301566
 10
23.67691349295989
 20
-55.15959074301566
 10
20.94740861705992
 20
-55.37877875731567
 10
17.94539647015989
 20
-56.52508474121566
 10
14.55980207405991
 20
-57.88909561891569
 10
11.83029719815994
 20
-60.18318210941572
 10
9.100792322259906
 20
-63.13039617801564
 10
7.025893846059886
 20
-66.07909336711566
 10
5.93438594045989
 20
-69.30029352831571
 10
5.223502640859919
 20
-72.24750759691568
 10
4.788084255459864
 20
-75.19620048711562
 10
4.788084255459864
 20
-75.41390967981567
 10
5.223502640859919
 20
-78.36408569051565
 10
5.93438594045989
 20
-81.31129975911568
 10
7.025893846059886
 20
-84.31479502651569
 10
8.881600009059866
 20
-87.48119710941564
 10
11.83029719815994
 20
-90.42841117801566
 10
14.55980207405991
 20
-92.72101884691563
 10
17.50849926315987
 20
-94.08651284511558
 10
20.45719215335992
 20
-95.23281453011554
 10
23.4044062219599
 20
-95.45200254441567
 10
26.62560638315989
 20
-95.45200254441567
 10
29.57430357225991
 20
-95.23281453011554
 10
32.52151764085994
 20
-94.52192693161567
 10
35.47021053105993
 20
-92.94020686121559
 10
38.69141499115988
 20
-90.42841117801566
 10
41.14841259605987
 20
-87.48119710941564
 10
43.0041187590599
 20
-84.53102109871565
 10
44.58732194995991
 20
-81.80299504441563
 10
45.24192834965987
 20
-78.8528190337156
 10
45.24192834965987
 20
-75.41390967981567
  0
LWPOLYLINE
  5
174D
330
165A
100
AcDbEntity
  8
LAYER_1_0
 62
     7
100
AcDbPolyline
 90
       22
 70
     0
 43
0.0
 10
-12.9559221186401
 20
-75.41390967981567
 10
-12.9559221186401
 20
-79.51039167441564
 10
-12.30131571894014
 20
-83.82309974121557
 10
-11.15500973504009
 20
-87.91661549481558
 10
-9.352618529840071
 20
-92.22932356161567
 10
-7.277720053640052
 20
-96.32580125731568
 10
-3.893608778040061
 20
-100.6918242819156
 10
-0.016319096640018
 20
-104.5157990055156
 10
4.568896241159905
 20
-107.5163280319156
 10
8.391387844259895
 20
-109.9748087573155
 10
12.75888969045991
 20
-111.6128100265156
 10
16.85388856455995
 20
-112.9753377837156
 10
20.94740861705992
 20
-113.4137181112156
 10
25.26159550545986
 20
-113.6329104244156
 10
29.13740636525989
 20
-113.4137181112156
 10
33.66930244635989
 20
-112.7028348116156
 10
37.54510900725984
 20
-111.6128100265156
 10
41.64010788135994
 20
-109.7556207430156
 10
45.95281594815992
 20
-107.5163280319156
 10
50.04781482225985
 20
-104.2966109912156
 10
53.92362138315991
 20
-100.2001289966157
 10
56.87231857225993
 20
-95.88742092981561
  0
LINE
  5
174E
330
165A
100
AcDbEntity
  8
LAYER_1_0
 62
     7
100
AcDbLine
 10
-8.643214051840075
 20
-75.41390967981567
 30
0.0
 11
-8.643214051840075
 21
4.186044530784329
 31
0.0
  0
LINE
  5
174F
330
165A
100
AcDbEntity
  8
LAYER_1_0
 62
     7
100
AcDbLine
 10
-10.44412643544009
 20
-75.41390967981567
 30
0.0
 11
-10.44412643544009
 21
6.697844512884273
 31
0.0
  0
LINE
  5
1750
330
165A
100
AcDbEntity
  8
LAYER_1_0
 62
     7
100
AcDbLine
 10
-10.44412643544009
 20
7.134741719884402
 30
0.0
 11
-10.44412643544009
 21
-75.41390967981567
 31
0.0
  0
LWPOLYLINE
  5
1751
330
165A
100
AcDbEntity
  8
LAYER_1_0
 62
     7
100
AcDbPolyline
 90
       23
 70
     0
 43
0.0
 10
7.025893846059886
 20
-1.490674413715623
 10
6.588996639059871
 20
-0.1266592371156321
 10
5.93438594045989
 20
1.237351640584279
 10
4.788084255459864
 20
2.822033653084304
 10
2.930894971959901
 20
3.531438131084314
 10
1.566884094259876
 20
3.968339636984296
 10
-0.016319096640018
 20
3.968339636984296
 10
-1.381813094840026
 20
3.039742845784417
 10
-2.747302794140068
 20
2.165944132884419
 10
-3.893608778040061
 20
0.5827452408843783
 10
-4.330505985040133
 20
-0.7827487573155168
 10
-4.330505985040133
 20
-1.490674413715623
 10
-3.893608778040061
 20
-3.075356426215648
 10
-3.184204300040107
 20
-4.440850424415771
 10
-2.036419494540098
 20
-6.022570494815681
 10
-0.67240861684013
 20
-6.733453794415709
 10
0.9107945740598779
 20
-6.951162987115594
 10
2.713185779259845
 20
-6.951162987115594
 10
4.07720095585995
 20
-6.241758509115584
 10
5.442690655159935
 20
-5.148771781915684
 10
6.588996639059871
 20
-3.784760904215659
 10
7.025893846059886
 20
-2.420750026515634
 10
7.025893846059886
 20
-1.490674413715623
  0
LWPOLYLINE
  5
1752
330
165A
100
AcDbEntity
  8
LAYER_1_0
 62
     7
100
AcDbPolyline
 90
       37
 70
     0
 43
0.0
 10
5.223502640859919
 20
-1.490674413715623
 10
5.223502640859919
 20
-0.5635607430157279
 10
4.568896241159905
 20
1.019642447884393
 10
2.985693050259953
 20
2.165944132884419
 10
1.839391365259928
 20
2.383653325584305
 10
0.4738973670599194
 20
2.165944132884419
 10
-0.67240861684013
 20
1.675731968084392
 10
-2.036419494540098
 20
0.5827452408843783
 10
-2.473316701540113
 20
-0.7827487573155168
 10
-2.473316701540113
 20
-1.490674413715623
 10
-2.473316701540113
 20
-3.075356426215648
 10
-1.818710301840098
 20
-4.221658111215674
 10
-0.67240861684013
 20
-5.148771781915684
 10
0.9107945740598779
 20
-5.587152109415683
 10
1.839391365259928
 20
-5.587152109415683
 10
3.422590257259855
 20
-5.148771781915684
 10
4.568896241159905
 20
-4.221658111215674
 10
5.223502640859919
 20
-2.638459219215633
 10
5.223502640859919
 20
-1.490674413715623
 10
5.223502640859919
 20
-0.5635607430157279
 10
4.568896241159905
 20
1.019642447884393
 10
2.985693050259953
 20
2.165944132884419
 10
1.839391365259928
 20
2.383653325584305
 10
0.9107945740598779
 20
2.383653325584305
 10
-0.67240861684013
 20
2.165944132884419
 10
-1.818710301840098
 20
1.019642447884393
 10
-2.473316701540113
 20
-0.5635607430157279
 10
-2.473316701540113
 20
-1.490674413715623
 10
-2.473316701540113
 20
-3.075356426215648
 10
-1.818710301840098
 20
-4.221658111215674
 10
-0.2355071109401479
 20
-5.148771781915684
 10
0.9107945740598779
 20
-5.587152109415683
 10
2.276288572259886
 20
-5.148771781915684
 10
3.422590257259855
 20
-4.876268809815655
 10
4.788084255459864
 20
-3.784760904215659
 10
5.223502640859919
 20
-2.638459219215633
 10
5.223502640859919
 20
-1.490674413715623
  0
LWPOLYLINE
  5
1753
330
165A
100
AcDbEntity
  8
LAYER_1_0
 62
     7
100
AcDbPolyline
 90
        3
 70
     0
 43
0.0
 10
1.839391365259928
 20
-3.075356426215648
 10
2.713185779259845
 20
-2.420750026515634
 10
2.713185779259845
 20
-1.929054741215622
  0
LINE
  5
1754
330
165A
100
AcDbEntity
  8
LAYER_1_0
 62
     7
100
AcDbLine
 10
2.276288572259872
 20
-1.929054741215679
 30
0.0
 11
1.839391365259928
 21
-2.420750026515662
 31
0.0
  0
LWPOLYLINE
  5
1755
330
165A
100
AcDbEntity
  8
LAYER_1_0
 62
     7
100
AcDbPolyline
 90
        3
 70
     0
 43
0.0
 10
-0.2355071109401479
 20
-1.929054741215622
 10
0.4738973670599194
 20
-3.075356426215648
 10
0.9107945740598779
 20
-3.075356426215648
  0
LWPOLYLINE
  5
1756
330
165A
100
AcDbEntity
  8
LAYER_1_0
 62
     7
100
AcDbPolyline
 90
        3
 70
     0
 43
0.0
 10
0.9107945740598779
 20
-2.420750026515634
 10
0.4738973670599194
 20
-2.420750026515634
 10
-0.016319096640018
 20
-1.929054741215622
  0
LWPOLYLINE
  5
1757
330
165A
100
AcDbEntity
  8
LAYER_1_0
 62
     7
100
AcDbPolyline
 90
       21
 70
     0
 43
0.0
 10
5.93438594045989
 20
-1.490674413715623
 10
5.93438594045989
 20
-0.1266592371156321
 10
5.223502640859919
 20
1.237351640584279
 10
4.07720095585995
 20
2.383653325584305
 10
2.276288572259886
 20
3.039742845784417
 10
1.129982588359951
 20
3.039742845784417
 10
-0.2355071109401479
 20
2.822033653084304
 10
-1.818710301840098
 20
2.165944132884419
 10
-2.747302794140068
 20
1.019642447884393
 10
-3.619622685440049
 20
-0.5635607430157279
 10
-3.619622685440049
 20
-1.490674413715623
 10
-3.184204300040107
 20
-3.075356426215648
 10
-2.528114779840052
 20
-4.440850424415771
 10
-1.381813094840026
 20
-5.587152109415683
 10
-0.016319096640018
 20
-6.241758509115584
 10
1.566884094259876
 20
-6.241758509115584
 10
2.930894971959901
 20
-6.022570494815681
 10
4.568896241159905
 20
-5.148771781915684
 10
5.442690655159935
 20
-3.784760904215659
 10
5.93438594045989
 20
-2.638459219215633
 10
5.93438594045989
 20
-1.490674413715623
  0
LINE
  5
1758
330
165A
100
AcDbEntity
  8
LAYER_1_0
 62
     7
100
AcDbLine
 10
-44.56664518544009
 20
-75.41390967981567
 30
0.0
 11
-19.99961388294009
 21
-43.14858021331571
 31
0.0
  0
LWPOLYLINE
  5
1759
330
165A
100
AcDbEntity
  8
LAYER_1_0
 62
     7
100
AcDbPolyline
 90
        5
 70
     0
 43
0.0
 10
-38.45302473504011
 20
-80.21831303191573
 10
-31.19162377804008
 20
-70.6657875265156
 10
-24.36712002804006
 20
-61.32948379441564
 10
-18.90662715574007
 20
-54.72268923711567
 10
-13.66532659664011
 20
-47.8981854871156
  0
LWPOLYLINE
  5
175A
330
165A
100
AcDbEntity
  8
LAYER_1_0
 62
     7
100
AcDbPolyline
 90
        3
 70
     0
 43
0.0
 10
-38.45302473504011
 20
-80.21831303191573
 10
-40.96334159664007
 20
-78.36408569051565
 10
-42.7657328018401
 20
-76.99859599121555
  0
LWPOLYLINE
  5
175B
330
165A
100
AcDbEntity
  8
LAYER_1_0
 62
     7
100
AcDbPolyline
 90
        3
 70
     0
 43
0.0
 10
-38.45302473504011
 20
-80.21831303191573
 10
-41.40023880364004
 20
-80.21831303191573
 10
-43.69432529414007
 20
-80.21831303191573
  0
LINE
  5
175C
330
165A
100
AcDbEntity
  8
LAYER_1_0
 62
     7
100
AcDbLine
 10
-44.56664518544009
 20
-75.41390967981567
 30
0.0
 11
-49.37252735914005
 21
-82.0221873576156
 31
0.0
  0
LWPOLYLINE
  5
175D
330
165A
100
AcDbEntity
  8
LAYER_1_0
 62
     7
100
AcDbPolyline
 90
        5
 70
     0
 43
0.0
 10
-51.17343974274013
 20
-86.33489542441566
 10
-50.95573055004013
 20
-86.11570311121557
 10
-49.80794574454012
 20
-84.96940142621559
 10
-48.22474255364011
 20
-83.1684890426156
 10
-46.42383446894013
 20
-80.21831303191573
  0
LWPOLYLINE
  5
175E
330
165A
100
AcDbEntity
  8
LAYER_1_0
 62
     7
100
AcDbPolyline
 90
        3
 70
     0
 43
0.0
 10
-51.17343974274013
 20
-86.33489542441566
 10
-50.95573055004013
 20
-83.82309974121557
 10
-49.37252735914007
 20
-82.02218735761556
  0
LWPOLYLINE
  5
175F
330
165A
100
AcDbEntity
  8
LAYER_1_0
 62
     7
100
AcDbPolyline
 90
        4
 70
     0
 43
0.0
 10
-42.7657328018401
 20
-76.99859599121555
 10
-43.91203448684007
 20
-76.34398529261568
 10
-44.56812400704007
 20
-75.85229000731556
 10
-44.56812400704007
 20
-75.41390967981567
  0
LWPOLYLINE
  5
1760
330
165A
100
AcDbEntity
  8
LAYER_1_0
 62
     7
100
AcDbPolyline
 90
        4
 70
     0
 43
0.0
 10
-43.69432529414007
 20
-80.21831303191573
 10
-43.91203448684007
 20
-79.94581005981558
 10
-44.34893599274011
 20
-78.85578097581571
 10
-44.56664518544011
 20
-78.14489767621558
  0
LWPOLYLINE
  5
1761
330
165A
100
AcDbEntity
  8
LAYER_1_0
 62
     7
100
AcDbPolyline
 90
        4
 70
     0
 43
0.0
 10
-42.7657328018401
 20
-76.99859599121555
 10
-43.20263000884011
 20
-77.21778400551563
 10
-44.34893599274011
 20
-77.70651734871563
 10
-44.56812400704007
 20
-78.14489767621558
  0
LWPOLYLINE
  5
1762
330
165A
100
AcDbEntity
  8
LAYER_1_0
 62
     7
100
AcDbPolyline
 90
        6
 70
     0
 43
0.0
 10
-43.69432529414007
 20
-80.21831303191573
 10
-45.05834047074012
 20
-80.21831303191573
 10
-46.20464215574009
 20
-80.21831303191573
 10
-46.42383446894013
 20
-80.21831303191573
 10
-46.20464215574009
 20
-78.85578097581571
 10
-46.20464215574009
 20
-77.70651734871563
  0
LWPOLYLINE
  5
1763
330
165A
100
AcDbEntity
  8
LAYER_1_0
 62
     7
100
AcDbPolyline
 90
        3
 70
     0
 43
0.0
 10
-45.71442999094012
 20
-77.70651734871563
 10
-45.49523767774013
 20
-76.56021566371567
 10
-44.56812400704007
 20
-75.41390967981567
  0
LINE
  5
1764
330
165A
100
AcDbEntity
  8
LAYER_1_0
 62
     7
100
AcDbLine
 10
-44.56664518544009
 20
-78.14489767621558
 30
0.0
 11
-45.71442999094013
 21
-77.70651734871567
 31
0.0
  0
LWPOLYLINE
  5
1765
330
165A
100
AcDbEntity
  8
LAYER_1_0
 62
     7
100
AcDbPolyline
 90
        5
 70
     0
 43
0.0
 10
-10.44412643544006
 20
-61.54719298711575
 10
-11.80961613474011
 20
-65.64219186121568
 10
-12.7382129259401
 20
-69.95489992801572
 10
-12.9559221186401
 20
-74.04989880211565
 10
-12.9559221186401
 20
-75.41390967981567
  0
LINE
  5
1766
330
165A
100
AcDbEntity
  8
LAYER_1_0
 62
     7
100
AcDbLine
 10
-10.00870805004008
 20
-75.41390967981567
 30
0.0
 11
-8.643214051840075
 21
-75.41390967981567
 31
0.0
  0
LINE
  5
1767
330
165A
100
AcDbEntity
  8
LAYER_1_0
 62
     7
100
AcDbLine
 10
-10.44412643544009
 20
-75.41390967981567
 30
0.0
 11
-10.00870805004008
 21
-75.41390967981567
 31
0.0
  0
LINE
  5
1768
330
165A
100
AcDbEntity
  8
LAYER_1_0
 62
     7
100
AcDbLine
 10
0.9107945740598637
 20
-3.293065618915733
 30
0.0
 11
1.839391365259928
 21
-3.293065618915733
 31
0.0
  0
LINE
  5
1769
330
165A
100
AcDbEntity
  8
LAYER_1_0
 62
     7
100
AcDbLine
 10
-20.21732307564012
 20
-43.14858021331571
 30
0.0
 11
-15.25000860914006
 21
-36.97868286301573
 31
0.0
  0
LWPOLYLINE
  5
176A
330
165A
100
AcDbEntity
  8
LAYER_1_0
 62
     7
100
AcDbPolyline
 90
        5
 70
     0
 43
0.0
 10
-15.46771780184008
 20
-36.9786828630157
 10
-15.25000860914008
 20
-36.9786828630157
 10
-14.10222380364007
 20
-37.9072796542157
 10
-12.30131571894014
 20
-38.99878755981569
 10
-10.44560525704008
 20
-40.63678453011561
  0
LWPOLYLINE
  5
176B
330
165A
100
AcDbEntity
  8
LAYER_1_0
 62
     7
100
AcDbPolyline
 90
        6
 70
     0
 43
0.0
 10
-20.21732307564013
 20
-43.14858021331565
 10
-19.99961388294008
 20
-43.14858021331565
 10
-18.90662715574007
 20
-43.80318661301578
 10
-17.26863018544003
 20
-44.94949259691566
 10
-15.46771780184008
 20
-46.31498659511566
 10
-13.66532659664011
 20
-47.8981854871156
  0
LWPOLYLINE
  5
176C
330
165A
100
AcDbEntity
  8
LAYER_1_0
 62
     7
100
AcDbPolyline
 90
        3
 70
     0
 43
0.0
 10
-10.44412643544006
 20
-43.36777252651564
 10
-12.30131571894014
 20
-45.60558211711565
 10
-14.10222380364007
 20
-47.8981854871156
  0
LWPOLYLINE
  5
176D
330
165A
100
AcDbEntity
  8
LAYER_1_0
 62
     7
100
AcDbPolyline
 90
        3
 70
     0
 43
0.0
 10
-10.44412643544006
 20
-31.08277590421562
 10
-14.81311140214012
 20
-36.05157349121566
 10
-15.46771780184008
 20
-36.9786828630157
  0
LINE
  5
176E
330
165A
100
AcDbEntity
  8
LAYER_1_0
 62
     7
100
AcDbLine
 10
0.9107945740598637
 20
-2.420750026515662
 30
0.0
 11
0.9107945740598637
 21
-3.075356426215677
 31
0.0
  0
LINE
  5
176F
330
165A
100
AcDbEntity
  8
LAYER_1_0
 62
     7
100
AcDbLine
 10
0.9107945740598637
 20
-3.293065618915733
 30
0.0
 11
0.9107945740598637
 21
-3.075356426215677
 31
0.0
  0
LINE
  5
1770
330
165A
100
AcDbEntity
  8
LAYER_1_0
 62
     7
100
AcDbLine
 10
1.839391365259928
 20
-2.420750026515662
 30
0.0
 11
1.839391365259928
 21
-3.075356426215677
 31
0.0
  0
LINE
  5
1771
330
165A
100
AcDbEntity
  8
LAYER_1_0
 62
     7
100
AcDbLine
 10
1.839391365259928
 20
-3.075356426215677
 30
0.0
 11
1.839391365259928
 21
-3.293065618915733
 31
0.0
  0
LINE
  5
1772
330
165A
100
AcDbEntity
  8
LAYER_1_0
 62
     7
100
AcDbLine
 10
0.9107945740598637
 20
0.5294259841843428
 30
0.0
 11
1.839391365259928
 21
0.5294259841843428
 31
0.0
  0
LINE
  5
1773
330
165A
100
AcDbEntity
  8
LAYER_1_0
 62
     7
100
AcDbLine
 10
-16.39631029414006
 20
10.79284338698431
 30
0.0
 11
-9.352618529840071
 21
10.79284338698431
 31
0.0
  0
LINE
  5
1774
330
165A
100
AcDbEntity
  8
LAYER_1_0
 62
     7
100
AcDbLine
 10
-9.297820451540104
 20
7.844146197884384
 30
0.0
 11
-16.39631029414006
 21
7.844146197884384
 31
0.0
  0
LWPOLYLINE
  5
1775
330
165A
100
AcDbEntity
  8
LAYER_1_0
 62
     7
100
AcDbPolyline
 90
       11
 70
     0
 43
0.0
 10
-8.643214051840061
 20
4.186044530784329
 10
-9.080111258840133
 20
4.186044530784329
 10
-9.080111258840133
 20
4.677744114984307
 10
-9.352618529840071
 20
4.677744114984307
 10
-9.352618529840071
 20
4.895449008784339
 10
-9.789515736840087
 20
5.333829336284452
 10
-9.789515736840087
 20
5.769247721684337
 10
-10.00870805004007
 20
6.041754992684332
 10
-10.00870805004007
 20
6.480135320184331
 10
-10.00870805004007
 20
6.69784451288433
 10
-10.44560525704008
 20
6.69784451288433
  0
LINE
  5
1776
330
165A
100
AcDbEntity
  8
LAYER_1_0
 62
     7
100
AcDbLine
 10
-16.39631029414006
 20
7.844146197884384
 30
0.0
 11
-16.39631029414006
 21
10.79284338698431
 31
0.0
  0
LINE
  5
1777
330
165A
100
AcDbEntity
  8
LAYER_1_0
 62
     7
100
AcDbLine
 10
-10.44412643544009
 20
7.134741719884402
 30
0.0
 11
-10.44412643544009
 21
6.697844512884273
 31
0.0
  0
LWPOLYLINE
  5
1778
330
165A
100
AcDbEntity
  8
LAYER_1_0
 62
     7
100
AcDbPolyline
 90
        7
 70
     0
 43
0.0
 10
-9.297820451540133
 20
10.79284338698437
 10
-9.080111258840133
 20
10.35594188108439
 10
-8.206316844840102
 20
10.13823268838427
 10
-8.206316844840102
 20
9.64653740308438
 10
-7.988607652140103
 20
8.990447882884382
 10
-7.496912366840092
 20
8.281043404884371
 10
-7.496912366840092
 20
7.134741719884459
  0
LINE
  5
1779
330
165A
100
AcDbEntity
  8
LAYER_1_0
 62
     7
100
AcDbLine
 10
-9.297820451540104
 20
10.79284338698431
 30
0.0
 11
-9.297820451540104
 21
7.844146197884384
 31
0.0
  0
LWPOLYLINE
  5
177A
330
165A
100
AcDbEntity
  8
LAYER_1_0
 62
     7
100
AcDbPolyline
 90
        4
 70
     0
 43
0.0
 10
-9.297820451540133
 20
7.844146197884356
 10
-9.080111258840133
 20
7.844146197884356
 10
-8.643214051840061
 20
7.844146197884356
 10
-8.643214051840061
 20
7.626437005184357
  0
LINE
  5
177B
330
165A
100
AcDbEntity
  8
LAYER_1_0
 62
     7
100
AcDbLine
 10
-0.2355071109401337
 20
-1.27444404261567
 30
0.0
 11
-0.6724086168401158
 21
-1.27444404261567
 31
0.0
  0
LINE
  5
177C
330
165A
100
AcDbEntity
  8
LAYER_1_0
 62
     7
100
AcDbLine
 10
-0.2355071109401337
 20
-1.929054741215679
 30
0.0
 11
-0.6724086168401158
 21
-1.929054741215679
 31
0.0
  0
LINE
  5
177D
330
165A
100
AcDbEntity
  8
LAYER_1_0
 62
     7
100
AcDbLine
 10
-0.6724086168401158
 20
-1.929054741215679
 30
0.0
 11
-0.6724086168401158
 21
-1.27444404261567
 31
0.0
  0
LINE
  5
177E
330
165A
100
AcDbEntity
  8
LAYER_1_0
 62
     7
100
AcDbLine
 10
-0.0163190966400464
 20
-1.27444404261567
 30
0.0
 11
-0.2355071109401337
 21
-1.27444404261567
 31
0.0
  0
LINE
  5
177F
330
165A
100
AcDbEntity
  8
LAYER_1_0
 62
     7
100
AcDbLine
 10
0.9107945740598637
 20
-0.1266592371156321
 30
0.0
 11
0.9107945740598637
 21
0.5294259841843428
 31
0.0
  0
LINE
  5
1780
330
165A
100
AcDbEntity
  8
LAYER_1_0
 62
     7
100
AcDbLine
 10
0.9107945740598637
 20
-0.1266592371156321
 30
0.0
 11
0.9107945740598637
 21
-0.5635607430157564
 31
0.0
  0
LINE
  5
1781
330
165A
100
AcDbEntity
  8
LAYER_1_0
 62
     7
100
AcDbLine
 10
-0.0163190966400464
 20
-1.929054741215679
 30
0.0
 11
-0.2355071109401337
 21
-1.929054741215679
 31
0.0
  0
LWPOLYLINE
  5
1782
330
165A
100
AcDbEntity
  8
LAYER_1_0
 62
     7
100
AcDbPolyline
 90
        3
 70
     0
 43
0.0
 10
0.9107945740598779
 20
-0.1266592371156321
 10
-0.016319096640018
 20
-0.5635607430157279
 10
-0.2355071109401479
 20
-1.272965221015738
  0
LWPOLYLINE
  5
1783
330
165A
100
AcDbEntity
  8
LAYER_1_0
 62
     7
100
AcDbPolyline
 90
        3
 70
     0
 43
0.0
 10
-0.016319096640018
 20
-1.274444042615641
 10
0.4738973670599194
 20
-0.7827487573155168
 10
0.9107945740598779
 20
-0.5635607430157279
  0
LINE
  5
1784
330
165A
100
AcDbEntity
  8
LAYER_1_0
 62
     7
100
AcDbLine
 10
2.276288572259872
 20
-1.27444404261567
 30
0.0
 11
2.713185779259873
 21
-1.27444404261567
 31
0.0
  0
LINE
  5
1785
330
165A
100
AcDbEntity
  8
LAYER_1_0
 62
     7
100
AcDbLine
 10
2.276288572259872
 20
-1.929054741215679
 30
0.0
 11
2.713185779259873
 21
-1.929054741215679
 31
0.0
  0
LWPOLYLINE
  5
1786
330
165A
100
AcDbEntity
  8
LAYER_1_0
 62
     7
100
AcDbPolyline
 90
        3
 70
     0
 43
0.0
 10
2.713185779259845
 20
-1.274444042615641
 10
2.276288572259886
 20
-0.1266592371156321
 10
1.839391365259928
 20
-0.1266592371156321
  0
LINE
  5
1787
330
165A
100
AcDbEntity
  8
LAYER_1_0
 62
     7
100
AcDbLine
 10
1.839391365259928
 20
0.5294259841843428
 30
0.0
 11
1.839391365259928
 21
-0.1266592371156321
 31
0.0
  0
LINE
  5
1788
330
165A
100
AcDbEntity
  8
LAYER_1_0
 62
     7
100
AcDbLine
 10
1.839391365259928
 20
-0.5635607430157564
 30
0.0
 11
1.839391365259928
 21
-0.1266592371156321
 31
0.0
  0
LWPOLYLINE
  5
1789
330
165A
100
AcDbEntity
  8
LAYER_1_0
 62
     7
100
AcDbPolyline
 90
        3
 70
     0
 43
0.0
 10
1.839391365259928
 20
-0.5635607430157279
 10
1.839391365259928
 20
-0.7827487573155168
 10
2.276288572259886
 20
-1.274444042615641
  0
LINE
  5
178A
330
165A
100
AcDbEntity
  8
LAYER_1_0
 62
     7
100
AcDbLine
 10
2.713185779259873
 20
-1.27444404261567
 30
0.0
 11
3.422590257259869
 21
-1.27444404261567
 31
0.0
  0
LINE
  5
178B
330
165A
100
AcDbEntity
  8
LAYER_1_0
 62
     7
100
AcDbLine
 10
3.422590257259869
 20
-1.929054741215679
 30
0.0
 11
3.422590257259869
 21
-1.27444404261567
 31
0.0
  0
LINE
  5
178C
330
165A
100
AcDbEntity
  8
LAYER_1_0
 62
     7
100
AcDbLine
 10
3.422590257259869
 20
-1.929054741215679
 30
0.0
 11
2.713185779259873
 21
-1.929054741215679
 31
0.0
  0
LINE
  5
178D
330
165A
100
AcDbEntity
  8
LAYER_1_0
 62
     7
100
AcDbLine
 10
59.16492624115992
 20
-75.41390967981567
 30
0.0
 11
59.16492624115992
 21
4.186044530784329
 31
0.0
  0
LINE
  5
178E
330
165A
100
AcDbEntity
  8
LAYER_1_0
 62
     7
100
AcDbLine
 10
60.52893711885989
 20
6.697844512884273
 30
0.0
 11
60.52893711885989
 21
-75.41390967981567
 31
0.0
  0
LINE
  5
178F
330
165A
100
AcDbEntity
  8
LAYER_1_0
 62
     7
100
AcDbLine
 10
60.52893711885989
 20
-75.41390967981567
 30
0.0
 11
60.52893711885989
 21
7.134741719884402
 31
0.0
  0
LWPOLYLINE
  5
1790
330
165A
100
AcDbEntity
  8
LAYER_1_0
 62
     7
100
AcDbPolyline
 90
       12
 70
     0
 43
0.0
 10
43.44102026495995
 20
-1.490674413715623
 10
43.6602082792599
 20
-3.075356426215648
 10
44.58732194995991
 20
-4.440850424415771
 10
45.51591874115985
 20
-6.022570494815681
 10
47.09911763315995
 20
-6.733453794415709
 10
48.46313280975988
 20
-6.951162987115594
 10
50.04781482225985
 20
-6.951162987115594
 10
51.84872720585992
 20
-6.241758509115584
 10
53.2142169051599
 20
-5.148771781915684
 10
53.92362138315991
 20
-3.784760904215659
 10
54.36052288905989
 20
-2.420750026515634
 10
54.36052288905989
 20
-1.490674413715623
  0
LWPOLYLINE
  5
1791
330
165A
100
AcDbEntity
  8
LAYER_1_0
 62
     7
100
AcDbPolyline
 90
       37
 70
     0
 43
0.0
 10
52.77731969815988
 20
-1.490674413715623
 10
52.55813168385992
 20
-0.5635607430157279
 10
52.06791522015987
 20
1.019642447884393
 10
50.75721930025991
 20
2.165944132884419
 10
49.11921803105991
 20
2.383653325584305
 10
48.24542361705988
 20
2.165944132884419
 10
47.09911763315995
 20
1.675731968084392
 10
45.51591874115985
 20
0.5827452408843783
 10
45.2982095484599
 20
-0.7827487573155168
 10
45.2982095484599
 20
-1.490674413715623
 10
45.2982095484599
 20
-3.075356426215648
 10
45.95281594815992
 20
-4.221658111215674
 10
47.09911763315995
 20
-5.148771781915684
 10
48.46313280975988
 20
-5.587152109415683
 10
49.61091761525989
 20
-5.587152109415683
 10
50.97492849295986
 20
-5.148771781915684
 10
52.06791522015987
 20
-4.221658111215674
 10
52.77731969815988
 20
-2.638459219215633
 10
52.77731969815988
 20
-1.490674413715623
 10
52.77731969815988
 20
-0.5635607430157279
 10
52.06791522015987
 20
1.019642447884393
 10
50.75721930025991
 20
2.165944132884419
 10
49.61091761525989
 20
2.383653325584305
 10
48.24542361705988
 20
2.383653325584305
 10
47.09911763315995
 20
2.165944132884419
 10
45.95281594815992
 20
1.019642447884393
 10
45.2982095484599
 20
-0.5635607430157279
 10
45.2982095484599
 20
-1.490674413715623
 10
45.2982095484599
 20
-3.075356426215648
 10
45.95281594815992
 20
-4.221658111215674
 10
47.09911763315995
 20
-5.148771781915684
 10
48.46313280975988
 20
-5.587152109415683
 10
50.04781482225985
 20
-5.148771781915684
 10
50.97492849295986
 20
-4.876268809815655
 10
52.06791522015987
 20
-3.784760904215659
 10
52.77731969815988
 20
-2.638459219215633
 10
52.77731969815988
 20
-1.490674413715623
  0
LWPOLYLINE
  5
1792
330
165A
100
AcDbEntity
  8
LAYER_1_0
 62
     7
100
AcDbPolyline
 90
        3
 70
     0
 43
0.0
 10
49.11921803105991
 20
-3.075356426215648
 10
50.2655240149599
 20
-2.420750026515634
 10
50.2655240149599
 20
-1.929054741215622
  0
LWPOLYLINE
  5
1793
330
165A
100
AcDbEntity
  8
LAYER_1_0
 62
     7
100
AcDbPolyline
 90
        3
 70
     0
 43
0.0
 10
50.04781482225985
 20
-1.929054741215622
 10
49.61091761525989
 20
-2.420750026515634
 10
49.11921803105991
 20
-2.420750026515634
  0
LWPOLYLINE
  5
1794
330
165A
100
AcDbEntity
  8
LAYER_1_0
 62
     7
100
AcDbPolyline
 90
        3
 70
     0
 43
0.0
 10
47.31682682585989
 20
-1.929054741215622
 10
48.24542361705988
 20
-3.075356426215648
 10
48.46461163135995
 20
-3.075356426215648
  0
LWPOLYLINE
  5
1795
330
165A
100
AcDbEntity
  8
LAYER_1_0
 62
     7
100
AcDbPolyline
 90
        3
 70
     0
 43
0.0
 10
48.46461163135995
 20
-2.420750026515634
 10
48.24542361705988
 20
-2.420750026515634
 10
47.75372833175987
 20
-1.929054741215622
  0
LWPOLYLINE
  5
1796
330
165A
100
AcDbEntity
  8
LAYER_1_0
 62
     7
100
AcDbPolyline
 90
       21
 70
     0
 43
0.0
 10
53.7044333688599
 20
-1.490674413715623
 10
53.7044333688599
 20
-0.1266592371156321
 10
52.77731969815988
 20
1.237351640584279
 10
51.41182569995987
 20
2.383653325584305
 10
50.04781482225985
 20
3.039742845784417
 10
48.9000300167599
 20
3.039742845784417
 10
47.31682682585989
 20
2.822033653084304
 10
45.95281594815992
 20
2.165944132884419
 10
44.80651426315989
 20
1.019642447884393
 10
44.15190356455991
 20
-0.5635607430157279
 10
44.15190356455991
 20
-1.490674413715623
 10
44.15190356455991
 20
-3.075356426215648
 10
45.24192834965987
 20
-4.440850424415771
 10
46.38971315515994
 20
-5.587152109415683
 10
47.75372833175987
 20
-6.241758509115584
 10
49.11921803105991
 20
-6.241758509115584
 10
50.70242122195987
 20
-6.022570494815681
 10
51.84872720585992
 20
-5.148771781915684
 10
53.2142169051599
 20
-3.784760904215659
 10
53.7044333688599
 20
-2.638459219215633
 10
53.7044333688599
 20
-1.490674413715623
  0
LINE
  5
1797
330
165A
100
AcDbEntity
  8
LAYER_1_0
  6
AI9-LTYPE2
 62
     7
100
AcDbLine
 10
25.26159550545989
 20
-98.18002859871562
 30
0.0
 11
25.26159550545989
 21
-52.92029803191576
 31
0.0
  0
LWPOLYLINE
  5
1798
330
165A
100
AcDbEntity
  8
LAYER_1_0
 62
     7
100
AcDbPolyline
 90
       10
 70
     0
 43
0.0
 10
56.87231857225993
 20
-96.32580125731568
 10
59.38263543385989
 20
-91.79390517621561
 10
60.96583432585993
 20
-87.48119710941564
 10
62.33132832405988
 20
-83.60390742801564
 10
62.7682255310599
 20
-79.51039167441564
 10
62.9859347237599
 20
-75.19620048711562
 10
62.7682255310599
 20
-71.10120161301569
 10
61.89443111705981
 20
-66.78849784511555
 10
60.96583432585993
 20
-62.69497779261564
 10
60.52893711885985
 20
-61.98409449301573
  0
LINE
  5
1799
330
165A
100
AcDbEntity
  8
LAYER_1_0
 62
     7
100
AcDbLine
 10
23.67839231455989
 20
-95.88742092981565
 30
0.0
 11
26.62560638315992
 21
-95.88742092981565
 31
0.0
  0
LINE
  5
179A
330
165A
100
AcDbEntity
  8
LAYER_1_0
 62
     7
100
AcDbLine
 10
23.45920430025994
 20
-96.37911621511561
 30
0.0
 11
26.62560638315992
 21
-96.37911621511561
 31
0.0
  0
LINE
  5
179B
330
165A
100
AcDbEntity
  8
LAYER_1_0
 62
     7
100
AcDbLine
 10
60.03872065515985
 20
-75.41390967981567
 30
0.0
 11
59.16492624115992
 21
-75.41390967981567
 31
0.0
  0
LINE
  5
179C
330
165A
100
AcDbEntity
  8
LAYER_1_0
 62
     7
100
AcDbLine
 10
60.03872065515985
 20
-75.41390967981567
 30
0.0
 11
60.52893711885989
 21
-75.41390967981567
 31
0.0
  0
LINE
  5
179D
330
165A
100
AcDbEntity
  8
LAYER_1_0
 62
     7
100
AcDbLine
 10
49.11921803105991
 20
-2.420750026515662
 30
0.0
 11
49.11921803105991
 21
-3.075356426215677
 31
0.0
  0
LINE
  5
179E
330
165A
100
AcDbEntity
  8
LAYER_1_0
 62
     7
100
AcDbLine
 10
48.46461163135995
 20
-2.420750026515662
 30
0.0
 11
48.46461163135995
 21
-3.075356426215677
 31
0.0
  0
LINE
  5
179F
330
165A
100
AcDbEntity
  8
LAYER_1_0
 62
     7
100
AcDbLine
 10
49.11921803105991
 20
-3.075356426215677
 30
0.0
 11
49.11921803105991
 21
-3.293065618915733
 31
0.0
  0
LINE
  5
17A0
330
165A
100
AcDbEntity
  8
LAYER_1_0
 62
     7
100
AcDbLine
 10
48.46461163135995
 20
-3.293065618915733
 30
0.0
 11
49.11921803105991
 21
-3.293065618915733
 31
0.0
  0
LINE
  5
17A1
330
165A
100
AcDbEntity
  8
LAYER_1_0
 62
     7
100
AcDbLine
 10
48.46461163135995
 20
-3.293065618915733
 30
0.0
 11
48.46461163135995
 21
-3.075356426215677
 31
0.0
  0
LINE
  5
17A2
330
165A
100
AcDbEntity
  8
LAYER_1_0
 62
     7
100
AcDbLine
 10
66.42632719815988
 20
7.844146197884384
 30
0.0
 11
59.38263543385989
 21
7.844146197884384
 31
0.0
  0
LINE
  5
17A3
330
165A
100
AcDbEntity
  8
LAYER_1_0
 62
     7
100
AcDbLine
 10
59.38263543385989
 20
10.79284338698431
 30
0.0
 11
66.42632719815988
 21
10.79284338698431
 31
0.0
  0
LWPOLYLINE
  5
17A4
330
165A
100
AcDbEntity
  8
LAYER_1_0
 62
     7
100
AcDbPolyline
 90
       12
 70
     0
 43
0.0
 10
54.36052288905989
 20
-1.490674413715623
 10
54.36052288905989
 20
-0.1266592371156321
 10
53.7044333688599
 20
1.237351640584279
 10
52.06791522015987
 20
2.822033653084304
 10
50.70242122195987
 20
3.531438131084314
 10
49.11921803105991
 20
3.968339636984296
 10
47.75372833175987
 20
3.968339636984296
 10
46.38971315515994
 20
3.039742845784417
 10
44.80651426315989
 20
2.165944132884419
 10
43.6602082792599
 20
0.5827452408843783
 10
43.44102026495995
 20
-0.7827487573155168
 10
43.44102026495995
 20
-1.490674413715623
  0
LWPOLYLINE
  5
17A5
330
165A
100
AcDbEntity
  8
LAYER_1_0
 62
     7
100
AcDbPolyline
 90
        3
 70
     0
 43
0.0
 10
50.2655240149599
 20
-1.274444042615641
 10
50.04781482225985
 20
-0.1266592371156321
 10
49.11921803105991
 20
-0.1266592371156321
  0
LWPOLYLINE
  5
17A6
330
165A
100
AcDbEntity
  8
LAYER_1_0
 62
     7
100
AcDbPolyline
 90
        3
 70
     0
 43
0.0
 10
49.11921803105991
 20
-0.5635607430157279
 10
49.61091761525989
 20
-0.7827487573155168
 10
50.04781482225985
 20
-1.274444042615641
  0
LWPOLYLINE
  5
17A7
330
165A
100
AcDbEntity
  8
LAYER_1_0
 62
     7
100
AcDbPolyline
 90
        3
 70
     0
 43
0.0
 10
47.75372833175987
 20
-1.274444042615641
 10
48.24542361705988
 20
-0.7827487573155168
 10
48.46461163135995
 20
-0.5635607430157279
  0
LWPOLYLINE
  5
17A8
330
165A
100
AcDbEntity
  8
LAYER_1_0
 62
     7
100
AcDbPolyline
 90
        3
 70
     0
 43
0.0
 10
48.46461163135995
 20
-0.1266592371156321
 10
47.75372833175987
 20
-0.5635607430157279
 10
47.31682682585989
 20
-1.272965221015738
  0
LINE
  5
17A9
330
165A
100
AcDbEntity
  8
LAYER_1_0
 62
     7
100
AcDbLine
 10
47.3168268258599
 20
-1.27444404261567
 30
0.0
 11
47.09911763315992
 21
-1.27444404261567
 31
0.0
  0
LINE
  5
17AA
330
165A
100
AcDbEntity
  8
LAYER_1_0
 62
     7
100
AcDbLine
 10
47.3168268258599
 20
-1.27444404261567
 30
0.0
 11
47.75372833175988
 21
-1.27444404261567
 31
0.0
  0
LINE
  5
17AB
330
165A
100
AcDbEntity
  8
LAYER_1_0
 62
     7
100
AcDbLine
 10
47.75372833175988
 20
-1.929054741215679
 30
0.0
 11
47.3168268258599
 21
-1.929054741215679
 31
0.0
  0
LINE
  5
17AC
330
165A
100
AcDbEntity
  8
LAYER_1_0
 62
     7
100
AcDbLine
 10
47.3168268258599
 20
-1.929054741215679
 30
0.0
 11
47.09911763315992
 21
-1.929054741215679
 31
0.0
  0
LINE
  5
17AD
330
165A
100
AcDbEntity
  8
LAYER_1_0
 62
     7
100
AcDbLine
 10
47.09911763315992
 20
-1.27444404261567
 30
0.0
 11
47.09911763315992
 21
-1.929054741215679
 31
0.0
  0
LINE
  5
17AE
330
165A
100
AcDbEntity
  8
LAYER_1_0
 62
     7
100
AcDbLine
 10
49.11921803105991
 20
-0.5635607430157564
 30
0.0
 11
49.11921803105991
 21
-0.1266592371156321
 31
0.0
  0
LINE
  5
17AF
330
165A
100
AcDbEntity
  8
LAYER_1_0
 62
     7
100
AcDbLine
 10
49.11921803105991
 20
-0.1266592371156321
 30
0.0
 11
49.11921803105991
 21
0.5294259841843428
 31
0.0
  0
LINE
  5
17B0
330
165A
100
AcDbEntity
  8
LAYER_1_0
 62
     7
100
AcDbLine
 10
48.46461163135995
 20
-0.1266592371156321
 30
0.0
 11
48.46461163135995
 21
-0.5635607430157564
 31
0.0
  0
LINE
  5
17B1
330
165A
100
AcDbEntity
  8
LAYER_1_0
 62
     7
100
AcDbLine
 10
48.46461163135995
 20
0.5294259841843428
 30
0.0
 11
49.11921803105991
 21
0.5294259841843428
 31
0.0
  0
LINE
  5
17B2
330
165A
100
AcDbEntity
  8
LAYER_1_0
 62
     7
100
AcDbLine
 10
48.46461163135995
 20
-0.1266592371156321
 30
0.0
 11
48.46461163135995
 21
0.5294259841843428
 31
0.0
  0
LINE
  5
17B3
330
165A
100
AcDbEntity
  8
LAYER_1_0
 62
     7
100
AcDbLine
 10
50.26552401495989
 20
-1.27444404261567
 30
0.0
 11
50.97492849295989
 21
-1.27444404261567
 31
0.0
  0
LINE
  5
17B4
330
165A
100
AcDbEntity
  8
LAYER_1_0
 62
     7
100
AcDbLine
 10
50.26552401495989
 20
-1.929054741215679
 30
0.0
 11
50.97492849295989
 21
-1.929054741215679
 31
0.0
  0
LINE
  5
17B5
330
165A
100
AcDbEntity
  8
LAYER_1_0
 62
     7
100
AcDbLine
 10
50.04781482225985
 20
-1.27444404261567
 30
0.0
 11
50.26552401495989
 21
-1.27444404261567
 31
0.0
  0
LINE
  5
17B6
330
165A
100
AcDbEntity
  8
LAYER_1_0
 62
     7
100
AcDbLine
 10
50.04781482225985
 20
-1.929054741215679
 30
0.0
 11
50.26552401495989
 21
-1.929054741215679
 31
0.0
  0
LINE
  5
17B7
330
165A
100
AcDbEntity
  8
LAYER_1_0
 62
     7
100
AcDbLine
 10
50.97492849295989
 20
-1.929054741215679
 30
0.0
 11
50.97492849295989
 21
-1.27444404261567
 31
0.0
  0
LWPOLYLINE
  5
17B8
330
165A
100
AcDbEntity
  8
LAYER_1_0
 62
     7
100
AcDbPolyline
 90
       12
 70
     0
 43
0.0
 10
59.16492624115995
 20
4.186044530784329
 10
59.16492624115995
 20
4.677744114984307
 10
59.38263543385989
 20
4.677744114984307
 10
59.38263543385989
 20
4.895449008784339
 10
59.38263543385989
 20
5.333829336284452
 10
59.81953264085996
 20
5.333829336284452
 10
59.81953264085996
 20
5.769247721684337
 10
60.03872065515986
 20
5.769247721684337
 10
60.03872065515986
 20
6.041754992684332
 10
60.03872065515986
 20
6.480135320184331
 10
60.52893711885985
 20
6.480135320184331
 10
60.52893711885985
 20
6.69784451288433
  0
LWPOLYLINE
  5
17B9
330
165A
100
AcDbEntity
  8
LAYER_1_0
 62
     7
100
AcDbPolyline
 90
        7
 70
     0
 43
0.0
 10
57.58172305025993
 20
7.134741719884459
 10
57.58172305025993
 20
8.281043404884371
 10
58.01862025725995
 20
8.990447882884382
 10
58.23632944995989
 20
9.64653740308438
 10
58.67323095585987
 20
10.13823268838427
 10
59.16492624115995
 20
10.35594188108439
 10
59.38263543385989
 20
10.79284338698437
  0
LINE
  5
17BA
330
165A
100
AcDbEntity
  8
LAYER_1_0
 62
     7
100
AcDbLine
 10
59.38263543385989
 20
7.844146197884384
 30
0.0
 11
59.38263543385989
 21
10.79284338698431
 31
0.0
  0
LWPOLYLINE
  5
17BB
330
165A
100
AcDbEntity
  8
LAYER_1_0
 62
     7
100
AcDbPolyline
 90
        3
 70
     0
 43
0.0
 10
58.67323095585987
 20
7.626437005184357
 10
59.16492624115995
 20
7.844146197884356
 10
59.38263543385989
 20
7.844146197884356
  0
LINE
  5
17BC
330
165A
100
AcDbEntity
  8
LAYER_1_0
 62
     7
100
AcDbLine
 10
60.52893711885989
 20
6.697844512884273
 30
0.0
 11
60.52893711885989
 21
7.134741719884402
 31
0.0
  0
LINE
  5
17BD
330
165A
100
AcDbEntity
  8
LAYER_1_0
 62
     7
100
AcDbLine
 10
66.42632719815988
 20
10.79284338698431
 30
0.0
 11
66.42632719815988
 21
7.844146197884384
 31
0.0
  0
LINE
  5
17BE
330
165A
100
AcDbEntity
  8
LAYER_1_0
 62
     7
100
AcDbLine
 10
179.2772282760598
 20
-158.4542606637156
 30
0.0
 11
177.6925462635599
 21
-89.06291717981563
 31
0.0
  0
LWPOLYLINE
  5
17BF
330
165A
100
AcDbEntity
  8
LAYER_1_0
 62
     7
100
AcDbPolyline
 90
        5
 70
     0
 43
0.0
 10
162.4055374943598
 20
-85.46109671151567
 10
162.8972327796599
 20
-102.4956986076156
 10
162.8972327796599
 20
-119.0919201762155
 10
163.11642509286
 20
-138.9108250265156
 10
163.5518391793598
 20
-158.4542606637156
  0
LWPOLYLINE
  5
17C0
330
165A
100
AcDbEntity
  8
LAYER_1_0
 62
     7
100
AcDbPolyline
 90
        5
 70
     0
 43
0.0
 10
170.1571549150598
 20
-85.46109671151567
 10
170.3763429293597
 20
-102.4956986076156
 10
170.3763429293597
 20
-119.0919201762155
 10
170.8147232568599
 20
-138.9108250265156
 10
171.0872305278599
 20
-158.4542606637156
  0
LINE
  5
17C1
330
165A
100
AcDbEntity
  8
LAYER_1_0
 62
     7
100
AcDbLine
 10
118.7275269979599
 20
-158.4542606637156
 30
0.0
 11
151.0491376632598
 21
-158.4542606637156
 31
0.0
  0
LINE
  5
17C2
330
165A
100
AcDbEntity
  8
LAYER_1_0
 62
     7
100
AcDbLine
 10
151.4875179907598
 20
-158.4542606637156
 30
0.0
 11
126.7012986739599
 21
-158.4542606637156
 31
0.0
  0
LINE
  5
17C3
330
165A
100
AcDbEntity
  8
LAYER_1_0
 62
     7
100
AcDbLine
 10
150.3945312635599
 20
-158.4542606637156
 30
0.0
 11
152.1954393482598
 21
-158.4542606637156
 31
0.0
  0
LWPOLYLINE
  5
17C4
330
165A
100
AcDbEntity
  8
LAYER_1_0
 62
     7
100
AcDbPolyline
 90
       11
 70
     0
 43
0.0
 10
152.1954393482599
 20
-150.9218312573155
 10
151.9792132760599
 20
-150.4834509298156
 10
151.4875179907599
 20
-149.8288445301156
 10
150.8329072921599
 20
-150.0480325444156
 10
150.3412120068599
 20
-150.4834509298156
 10
150.1220239925598
 20
-151.1943385283156
 10
150.3412120068599
 20
-151.6297569137156
 10
151.0491376632598
 20
-151.8489449280156
 10
151.9792132760599
 20
-151.8489449280156
 10
152.1954393482599
 20
-151.1943385283156
 10
152.1954393482599
 20
-150.9218312573155
  0
LINE
  5
17C5
330
165A
100
AcDbEntity
  8
LAYER_1_0
 62
     7
100
AcDbLine
 10
120.0930209961599
 20
-191.9236518356156
 30
0.0
 11
120.0930209961599
 21
-173.6879501762155
 31
0.0
  0
LINE
  5
17C6
330
165A
100
AcDbEntity
  8
LAYER_1_0
 62
     7
100
AcDbLine
 10
110.3213031775599
 20
-207.3735717192156
 30
0.0
 11
110.3213031775599
 21
-176.4159719316156
 31
0.0
  0
LINE
  5
17C7
330
165A
100
AcDbEntity
  8
LAYER_1_0
 62
     7
100
AcDbLine
 10
112.1784924610599
 20
-176.4159719316156
 30
0.0
 11
112.1784924610599
 21
-191.8703368778156
 31
0.0
  0
LINE
  5
17C8
330
165A
100
AcDbEntity
  8
LAYER_1_0
 62
     7
100
AcDbLine
 10
113.7602125314599
 20
-191.9236518356156
 30
0.0
 11
113.7602125314599
 21
-176.4159719316156
 31
0.0
  0
LINE
  5
17C9
330
165A
100
AcDbEntity
  8
LAYER_1_0
 62
     7
100
AcDbLine
 10
116.9266189132598
 20
-173.6879501762155
 30
0.0
 11
116.9266189132598
 21
-191.8703368778156
 31
0.0
  0
LINE
  5
17CA
330
165A
100
AcDbEntity
  8
LAYER_1_0
 62
     7
100
AcDbLine
 10
115.5611249150599
 20
-191.9236518356156
 30
0.0
 11
115.5611249150599
 21
-173.6879501762155
 31
0.0
  0
LINE
  5
17CB
330
165A
100
AcDbEntity
  8
LAYER_1_0
 62
     7
100
AcDbLine
 10
119.2192265821599
 20
-191.9236518356156
 30
0.0
 11
119.2192265821599
 21
-173.6879501762155
 31
0.0
  0
LINE
  5
17CC
330
165A
100
AcDbEntity
  8
LAYER_1_0
 62
     7
100
AcDbLine
 10
122.3856286650599
 20
-173.6879501762155
 30
0.0
 11
122.3856286650599
 21
-191.8703368778156
 31
0.0
  0
LINE
  5
17CD
330
165A
100
AcDbEntity
  8
LAYER_1_0
 62
     7
100
AcDbLine
 10
123.5348922921598
 20
-174.1796454615156
 30
0.0
 11
123.5348922921598
 21
-191.8703368778156
 31
0.0
  0
LINE
  5
17CE
330
165A
100
AcDbEntity
  8
LAYER_1_0
 62
     7
100
AcDbLine
 10
123.0965162635598
 20
-191.9236518356156
 30
0.0
 11
123.0965162635598
 21
-173.6879501762155
 31
0.0
  0
LINE
  5
17CF
330
165A
100
AcDbEntity
  8
LAYER_1_0
 62
     7
100
AcDbLine
 10
118.7275269979599
 20
-209.1774417460156
 30
0.0
 11
116.9266189132598
 21
-209.1774417460156
 31
0.0
  0
LINE
  5
17D0
330
165A
100
AcDbEntity
  8
LAYER_1_0
 62
     7
100
AcDbLine
 10
112.1784924610599
 20
-207.3735717192156
 30
0.0
 11
112.1784924610599
 21
-191.9236518356156
 31
0.0
  0
LINE
  5
17D1
330
165A
100
AcDbEntity
  8
LAYER_1_0
 62
     7
100
AcDbLine
 10
113.7602125314599
 20
-191.9236518356156
 30
0.0
 11
113.7602125314599
 21
-207.3735717192156
 31
0.0
  0
LINE
  5
17D2
330
165A
100
AcDbEntity
  8
LAYER_1_0
 62
     7
100
AcDbLine
 10
115.5611249150599
 20
-191.9236518356156
 30
0.0
 11
115.5611249150599
 21
-210.5399738021156
 31
0.0
  0
LINE
  5
17D3
330
165A
100
AcDbEntity
  8
LAYER_1_0
 62
     7
100
AcDbLine
 10
116.9266189132598
 20
-210.5399738021156
 30
0.0
 11
116.9266189132598
 21
-191.9236518356156
 31
0.0
  0
LINE
  5
17D4
330
165A
100
AcDbEntity
  8
LAYER_1_0
 62
     7
100
AcDbLine
 10
113.7602125314599
 20
-207.3735717192156
 30
0.0
 11
112.1784924610599
 21
-207.3735717192156
 31
0.0
  0
LINE
  5
17D5
330
165A
100
AcDbEntity
  8
LAYER_1_0
 62
     7
100
AcDbLine
 10
113.7602125314599
 20
-213.0517694853157
 30
0.0
 11
110.3213031775599
 21
-213.0517694853157
 31
0.0
  0
LINE
  5
17D6
330
165A
100
AcDbEntity
  8
LAYER_1_0
 62
     7
100
AcDbLine
 10
112.1784924610599
 20
-207.3735717192156
 30
0.0
 11
110.3213031775599
 21
-207.3735717192156
 31
0.0
  0
LINE
  5
17D7
330
165A
100
AcDbEntity
  8
LAYER_1_0
 62
     7
100
AcDbLine
 10
110.3213031775599
 20
-210.1045554167156
 30
0.0
 11
110.3213031775599
 21
-211.9054678003157
 31
0.0
  0
LINE
  5
17D8
330
165A
100
AcDbEntity
  8
LAYER_1_0
 62
     7
100
AcDbLine
 10
110.3213031775599
 20
-213.0517694853157
 30
0.0
 11
110.3213031775599
 21
-210.1045554167156
 31
0.0
  0
LINE
  5
17D9
330
165A
100
AcDbEntity
  8
LAYER_1_0
 62
     7
100
AcDbLine
 10
110.3213031775599
 20
-212.8355434131155
 30
0.0
 11
110.3213031775599
 21
-211.9054678003157
 31
0.0
  0
LINE
  5
17DA
330
165A
100
AcDbEntity
  8
LAYER_1_0
 62
     7
100
AcDbLine
 10
110.3213031775599
 20
-213.4901498128157
 30
0.0
 11
110.3213031775599
 21
-212.8355434131155
 31
0.0
  0
LINE
  5
17DB
330
165A
100
AcDbEntity
  8
LAYER_1_0
 62
     7
100
AcDbLine
 10
110.3213031775599
 20
-213.7093378271156
 30
0.0
 11
110.3213031775599
 21
-213.4901498128157
 31
0.0
  0
LINE
  5
17DC
330
165A
100
AcDbEntity
  8
LAYER_1_0
 62
     7
100
AcDbLine
 10
110.3213031775599
 20
-213.7626570838157
 30
0.0
 11
110.3213031775599
 21
-214.1980754692156
 31
0.0
  0
LINE
  5
17DD
330
165A
100
AcDbEntity
  8
LAYER_1_0
 62
     7
100
AcDbLine
 10
110.3213031775599
 20
-212.8355434131155
 30
0.0
 11
110.3213031775599
 21
-213.0517694853157
 31
0.0
  0
LINE
  5
17DE
330
165A
100
AcDbEntity
  8
LAYER_1_0
 62
     7
100
AcDbLine
 10
110.3213031775599
 20
-207.3735717192156
 30
0.0
 11
110.3213031775599
 21
-210.1045554167156
 31
0.0
  0
LINE
  5
17DF
330
165A
100
AcDbEntity
  8
LAYER_1_0
 62
     7
100
AcDbLine
 10
110.3213031775599
 20
-207.3735717192156
 30
0.0
 11
110.3213031775599
 21
-210.1045554167156
 31
0.0
  0
LINE
  5
17E0
330
165A
100
AcDbEntity
  8
LAYER_1_0
 62
     7
100
AcDbLine
 10
115.5611249150599
 20
-210.5399738021156
 30
0.0
 11
116.9266189132598
 21
-210.5399738021156
 31
0.0
  0
LINE
  5
17E1
330
165A
100
AcDbEntity
  8
LAYER_1_0
 62
     7
100
AcDbLine
 10
113.7602125314599
 20
-210.1045554167156
 30
0.0
 11
113.7602125314599
 21
-212.8355434131155
 31
0.0
  0
LINE
  5
17E2
330
165A
100
AcDbEntity
  8
LAYER_1_0
 62
     7
100
AcDbLine
 10
113.7602125314599
 20
-210.5399738021156
 30
0.0
 11
113.7602125314599
 21
-210.9783541296156
 31
0.0
  0
LINE
  5
17E3
330
165A
100
AcDbEntity
  8
LAYER_1_0
 62
     7
100
AcDbLine
 10
113.7602125314599
 20
-212.8355434131155
 30
0.0
 11
113.7602125314599
 21
-213.0517694853157
 31
0.0
  0
LINE
  5
17E4
330
165A
100
AcDbEntity
  8
LAYER_1_0
 62
     7
100
AcDbLine
 10
113.7602125314599
 20
-211.0316690874156
 30
0.0
 11
113.7602125314599
 21
-213.0517694853157
 31
0.0
  0
LINE
  5
17E5
330
165A
100
AcDbEntity
  8
LAYER_1_0
 62
     7
100
AcDbLine
 10
115.5611249150599
 20
-209.1774417460156
 30
0.0
 11
113.7602125314599
 21
-209.1774417460156
 31
0.0
  0
LINE
  5
17E6
330
165A
100
AcDbEntity
  8
LAYER_1_0
 62
     7
100
AcDbLine
 10
113.7602125314599
 20
-207.3735717192156
 30
0.0
 11
113.7602125314599
 21
-207.5927597335156
 31
0.0
  0
LINE
  5
17E7
330
165A
100
AcDbEntity
  8
LAYER_1_0
 62
     7
100
AcDbLine
 10
113.7602125314599
 20
-209.1774417460156
 30
0.0
 11
113.7602125314599
 21
-207.5927597335156
 31
0.0
  0
LINE
  5
17E8
330
165A
100
AcDbEntity
  8
LAYER_1_0
 62
     7
100
AcDbLine
 10
113.7602125314599
 20
-209.3936721171156
 30
0.0
 11
113.7602125314599
 21
-210.1045554167156
 31
0.0
  0
LINE
  5
17E9
330
165A
100
AcDbEntity
  8
LAYER_1_0
 62
     7
100
AcDbLine
 10
113.7602125314599
 20
-209.3936721171156
 30
0.0
 11
113.7602125314599
 21
-209.1774417460156
 31
0.0
  0
LINE
  5
17EA
330
165A
100
AcDbEntity
  8
LAYER_1_0
 62
     7
100
AcDbLine
 10
113.7602125314599
 20
-209.3936721171156
 30
0.0
 11
113.7602125314599
 21
-207.3735717192156
 31
0.0
  0
LINE
  5
17EB
330
165A
100
AcDbEntity
  8
LAYER_1_0
 62
     7
100
AcDbLine
 10
113.7602125314599
 20
-209.3936721171156
 30
0.0
 11
113.7602125314599
 21
-210.1045554167156
 31
0.0
  0
LINE
  5
17EC
330
165A
100
AcDbEntity
  8
LAYER_1_0
 62
     7
100
AcDbLine
 10
113.7602125314599
 20
-210.5399738021156
 30
0.0
 11
113.7602125314599
 21
-210.1045554167156
 31
0.0
  0
LINE
  5
17ED
330
165A
100
AcDbEntity
  8
LAYER_1_0
 62
     7
100
AcDbLine
 10
120.0930209961599
 20
-191.9236518356156
 30
0.0
 11
120.0930209961599
 21
-210.5399738021156
 31
0.0
  0
LINE
  5
17EE
330
165A
100
AcDbEntity
  8
LAYER_1_0
 62
     7
100
AcDbLine
 10
119.2192265821599
 20
-191.9236518356156
 30
0.0
 11
119.2192265821599
 21
-210.5399738021156
 31
0.0
  0
LINE
  5
17EF
330
165A
100
AcDbEntity
  8
LAYER_1_0
 62
     7
100
AcDbLine
 10
122.3856286650599
 20
-210.5399738021156
 30
0.0
 11
122.3856286650599
 21
-191.9236518356156
 31
0.0
  0
LINE
  5
17F0
330
165A
100
AcDbEntity
  8
LAYER_1_0
 62
     7
100
AcDbLine
 10
123.5348922921598
 20
-191.9236518356156
 30
0.0
 11
123.5348922921598
 21
-210.1045554167156
 31
0.0
  0
LINE
  5
17F1
330
165A
100
AcDbEntity
  8
LAYER_1_0
 62
     7
100
AcDbLine
 10
123.0965162635598
 20
-191.9236518356156
 30
0.0
 11
123.0965162635598
 21
-210.5399738021156
 31
0.0
  0
LINE
  5
17F2
330
165A
100
AcDbEntity
  8
LAYER_1_0
 62
     7
100
AcDbLine
 10
120.0930209961599
 20
-209.1774417460156
 30
0.0
 11
122.3856286650599
 21
-209.1774417460156
 31
0.0
  0
LINE
  5
17F3
330
165A
100
AcDbEntity
  8
LAYER_1_0
 62
     7
100
AcDbLine
 10
119.2192265821599
 20
-210.5399738021156
 30
0.0
 11
120.0930209961599
 21
-210.5399738021156
 31
0.0
  0
LINE
  5
17F4
330
165A
100
AcDbEntity
  8
LAYER_1_0
 62
     7
100
AcDbLine
 10
123.0965162635598
 20
-210.5399738021156
 30
0.0
 11
122.3856286650599
 21
-210.5399738021156
 31
0.0
  0
LINE
  5
17F5
330
165A
100
AcDbEntity
  8
LAYER_1_0
 62
     7
100
AcDbLine
 10
123.5348922921598
 20
-210.1045554167156
 30
0.0
 11
123.0965162635598
 21
-210.5399738021156
 31
0.0
  0
LINE
  5
17F6
330
165A
100
AcDbEntity
  8
LAYER_1_0
 62
     7
100
AcDbLine
 10
124.1895029907599
 20
-192.7974505485156
 30
0.0
 11
123.7511226632599
 21
-192.7974505485156
 31
0.0
  0
LINE
  5
17F7
330
165A
100
AcDbEntity
  8
LAYER_1_0
 62
     7
100
AcDbLine
 10
117.3649992407598
 20
-158.4542606637156
 30
0.0
 11
118.7275269979599
 21
-158.4542606637156
 31
0.0
  0
LINE
  5
17F8
330
165A
100
AcDbEntity
  8
LAYER_1_0
 62
     7
100
AcDbLine
 10
118.7275269979599
 20
-158.4542606637156
 30
0.0
 11
118.2921129114599
 21
-158.4542606637156
 31
0.0
  0
LINE
  5
17F9
330
165A
100
AcDbEntity
  8
LAYER_1_0
 62
     7
100
AcDbLine
 10
118.7275269979599
 20
-158.4542606637156
 30
0.0
 11
117.3649992407598
 21
-158.4542606637156
 31
0.0
  0
LINE
  5
17FA
330
165A
100
AcDbEntity
  8
LAYER_1_0
 62
     7
100
AcDbLine
 10
121.2393269800599
 20
-158.8926409912156
 30
0.0
 11
118.2921129114599
 21
-158.8926409912156
 31
0.0
  0
LINE
  5
17FB
330
165A
100
AcDbEntity
  8
LAYER_1_0
 62
     7
100
AcDbLine
 10
118.7275269979599
 20
-175.2696702466156
 30
0.0
 11
116.9266189132598
 21
-175.2696702466156
 31
0.0
  0
LINE
  5
17FC
330
165A
100
AcDbEntity
  8
LAYER_1_0
 62
     7
100
AcDbLine
 10
113.7602125314599
 20
-176.4159719316156
 30
0.0
 11
112.1784924610599
 21
-176.4159719316156
 31
0.0
  0
LINE
  5
17FD
330
165A
100
AcDbEntity
  8
LAYER_1_0
 62
     7
100
AcDbLine
 10
113.7602125314599
 20
-170.9569621798156
 30
0.0
 11
110.3213031775599
 21
-170.9569621798156
 31
0.0
  0
LINE
  5
17FE
330
165A
100
AcDbEntity
  8
LAYER_1_0
 62
     7
100
AcDbLine
 10
110.3213031775599
 20
-170.5215437944156
 30
0.0
 11
110.3213031775599
 21
-170.9569621798156
 31
0.0
  0
LINE
  5
17FF
330
165A
100
AcDbEntity
  8
LAYER_1_0
 62
     7
100
AcDbLine
 10
110.3213031775599
 20
-176.4159719316156
 30
0.0
 11
112.1222155611599
 21
-176.4159719316156
 31
0.0
  0
LINE
  5
1800
330
165A
100
AcDbEntity
  8
LAYER_1_0
 62
     7
100
AcDbLine
 10
110.3213031775599
 20
-176.4159719316156
 30
0.0
 11
110.3213031775599
 21
-173.4687578630156
 31
0.0
  0
LINE
  5
1801
330
165A
100
AcDbEntity
  8
LAYER_1_0
 62
     7
100
AcDbLine
 10
110.3213031775599
 20
-176.4159719316156
 30
0.0
 11
110.3213031775599
 21
-175.2696702466156
 31
0.0
  0
LINE
  5
1802
330
165A
100
AcDbEntity
  8
LAYER_1_0
 62
     7
100
AcDbLine
 10
110.3213031775599
 20
-171.8870377926156
 30
0.0
 11
110.3213031775599
 21
-173.4687578630156
 31
0.0
  0
LINE
  5
1803
330
165A
100
AcDbEntity
  8
LAYER_1_0
 62
     7
100
AcDbLine
 10
110.3213031775599
 20
-171.8870377926156
 30
0.0
 11
110.3213031775599
 21
-170.9569621798156
 31
0.0
  0
LINE
  5
1804
330
165A
100
AcDbEntity
  8
LAYER_1_0
 62
     7
100
AcDbLine
 10
110.3213031775599
 20
-173.4687578630156
 30
0.0
 11
110.3213031775599
 21
-175.2696702466156
 31
0.0
  0
LINE
  5
1805
330
165A
100
AcDbEntity
  8
LAYER_1_0
 62
     7
100
AcDbLine
 10
110.3213031775599
 20
-170.9569621798156
 30
0.0
 11
110.3213031775599
 21
-173.6879501762155
 31
0.0
  0
LINE
  5
1806
330
165A
100
AcDbEntity
  8
LAYER_1_0
 62
     7
100
AcDbLine
 10
110.3213031775599
 20
-170.0298485091156
 30
0.0
 11
110.3213031775599
 21
-169.8106604948156
 31
0.0
  0
LINE
  5
1807
330
165A
100
AcDbEntity
  8
LAYER_1_0
 62
     7
100
AcDbLine
 10
115.5611249150599
 20
-173.6879501762155
 30
0.0
 11
116.9266189132598
 21
-173.6879501762155
 31
0.0
  0
LINE
  5
1808
330
165A
100
AcDbEntity
  8
LAYER_1_0
 62
     7
100
AcDbLine
 10
113.7602125314599
 20
-175.2696702466156
 30
0.0
 11
113.7602125314599
 21
-175.9805578451156
 31
0.0
  0
LINE
  5
1809
330
165A
100
AcDbEntity
  8
LAYER_1_0
 62
     7
100
AcDbLine
 10
113.7602125314599
 20
-176.4159719316156
 30
0.0
 11
113.7602125314599
 21
-173.6879501762155
 31
0.0
  0
LINE
  5
180A
330
165A
100
AcDbEntity
  8
LAYER_1_0
 62
     7
100
AcDbLine
 10
113.7602125314599
 20
-176.4159719316156
 30
0.0
 11
113.7602125314599
 21
-175.9805578451156
 31
0.0
  0
LINE
  5
180B
330
165A
100
AcDbEntity
  8
LAYER_1_0
 62
     7
100
AcDbLine
 10
115.5611249150599
 20
-175.2696702466156
 30
0.0
 11
113.7602125314599
 21
-175.2696702466156
 31
0.0
  0
LINE
  5
180C
330
165A
100
AcDbEntity
  8
LAYER_1_0
 62
     7
100
AcDbLine
 10
113.7602125314599
 20
-173.6879501762155
 30
0.0
 11
113.7602125314599
 21
-170.9569621798156
 31
0.0
  0
LINE
  5
180D
330
165A
100
AcDbEntity
  8
LAYER_1_0
 62
     7
100
AcDbLine
 10
113.7602125314599
 20
-170.9569621798156
 30
0.0
 11
113.7602125314599
 21
-173.6879501762155
 31
0.0
  0
LINE
  5
180E
330
165A
100
AcDbEntity
  8
LAYER_1_0
 62
     7
100
AcDbLine
 10
113.7602125314599
 20
-173.4687578630156
 30
0.0
 11
113.7602125314599
 21
-175.2696702466156
 31
0.0
  0
LINE
  5
180F
330
165A
100
AcDbEntity
  8
LAYER_1_0
 62
     7
100
AcDbLine
 10
113.7602125314599
 20
-173.6879501762155
 30
0.0
 11
113.7602125314599
 21
-173.4687578630156
 31
0.0
  0
LINE
  5
1810
330
165A
100
AcDbEntity
  8
LAYER_1_0
 62
     7
100
AcDbLine
 10
118.2921129114599
 20
-158.8926409912156
 30
0.0
 11
118.2921129114599
 21
-158.4542606637156
 31
0.0
  0
LINE
  5
1811
330
165A
100
AcDbEntity
  8
LAYER_1_0
 62
     7
100
AcDbLine
 10
122.3856286650599
 20
-175.2696702466156
 30
0.0
 11
120.0930209961599
 21
-175.2696702466156
 31
0.0
  0
LINE
  5
1812
330
165A
100
AcDbEntity
  8
LAYER_1_0
 62
     7
100
AcDbLine
 10
120.0930209961599
 20
-173.6879501762155
 30
0.0
 11
119.2192265821599
 21
-173.6879501762155
 31
0.0
  0
LINE
  5
1813
330
165A
100
AcDbEntity
  8
LAYER_1_0
 62
     7
100
AcDbLine
 10
122.3856286650599
 20
-173.6879501762155
 30
0.0
 11
123.0431970068599
 21
-173.6879501762155
 31
0.0
  0
LINE
  5
1814
330
165A
100
AcDbEntity
  8
LAYER_1_0
 62
     7
100
AcDbLine
 10
123.0965162635598
 20
-173.6879501762155
 30
0.0
 11
123.5348922921598
 21
-174.1233685616156
 31
0.0
  0
LINE
  5
1815
330
165A
100
AcDbEntity
  8
LAYER_1_0
 62
     7
100
AcDbLine
 10
123.7511226632599
 20
-158.4542606637156
 30
0.0
 11
124.1895029907599
 21
-158.4542606637156
 31
0.0
  0
LINE
  5
1816
330
165A
100
AcDbEntity
  8
LAYER_1_0
 62
     7
100
AcDbLine
 10
124.1895029907599
 20
-158.4542606637156
 30
0.0
 11
121.2393269800599
 21
-158.4542606637156
 31
0.0
  0
LINE
  5
1817
330
165A
100
AcDbEntity
  8
LAYER_1_0
 62
     7
100
AcDbLine
 10
118.7275269979599
 20
-158.4542606637156
 30
0.0
 11
121.2393269800599
 21
-158.4542606637156
 31
0.0
  0
LINE
  5
1818
330
165A
100
AcDbEntity
  8
LAYER_1_0
 62
     7
100
AcDbLine
 10
121.2393269800599
 20
-158.4542606637156
 30
0.0
 11
121.2393269800599
 21
-158.8926409912156
 31
0.0
  0
LINE
  5
1819
330
165A
100
AcDbEntity
  8
LAYER_1_0
 62
     7
100
AcDbLine
 10
123.7511226632599
 20
-158.4542606637156
 30
0.0
 11
122.8240089925599
 21
-158.4542606637156
 31
0.0
  0
LINE
  5
181A
330
165A
100
AcDbEntity
  8
LAYER_1_0
 62
     7
100
AcDbLine
 10
124.6811982760599
 20
-158.4542606637156
 30
0.0
 11
128.2830187443598
 21
-158.4542606637156
 31
0.0
  0
LINE
  5
181B
330
165A
100
AcDbEntity
  8
LAYER_1_0
 62
     7
100
AcDbLine
 10
126.0437303321598
 20
-158.4542606637156
 30
0.0
 11
126.7012986739599
 21
-158.4542606637156
 31
0.0
  0
LINE
  5
181C
330
165A
100
AcDbEntity
  8
LAYER_1_0
 62
     7
100
AcDbLine
 10
126.0437303321598
 20
-158.4542606637156
 30
0.0
 11
124.8974243482599
 21
-158.4542606637156
 31
0.0
  0
LINE
  5
181D
330
165A
100
AcDbEntity
  8
LAYER_1_0
 62
     7
100
AcDbLine
 10
124.1895029907599
 20
-158.4542606637156
 30
0.0
 11
124.6811982760599
 21
-158.4542606637156
 31
0.0
  0
LINE
  5
181E
330
165A
100
AcDbEntity
  8
LAYER_1_0
 62
     7
100
AcDbLine
 10
124.8974243482599
 20
-158.4542606637156
 30
0.0
 11
124.1895029907599
 21
-158.4542606637156
 31
0.0
  0
LINE
  5
181F
330
165A
100
AcDbEntity
  8
LAYER_1_0
 62
     7
100
AcDbLine
 10
145.5901279114599
 20
-158.8926409912156
 30
0.0
 11
145.3709355982599
 21
-158.8926409912156
 31
0.0
  0
LINE
  5
1820
330
165A
100
AcDbEntity
  8
LAYER_1_0
 62
     7
100
AcDbLine
 10
145.5901279114599
 20
-158.4542606637156
 30
0.0
 11
145.3709355982599
 21
-158.4542606637156
 31
0.0
  0
LINE
  5
1821
330
165A
100
AcDbEntity
  8
LAYER_1_0
 62
     7
100
AcDbLine
 10
142.4237215296598
 20
-158.8926409912156
 30
0.0
 11
142.8591399150598
 21
-158.8926409912156
 31
0.0
  0
LINE
  5
1822
330
165A
100
AcDbEntity
  8
LAYER_1_0
 62
     7
100
AcDbLine
 10
143.5700275135598
 20
-158.4542606637156
 30
0.0
 11
142.4237215296598
 21
-158.4542606637156
 31
0.0
  0
LINE
  5
1823
330
165A
100
AcDbEntity
  8
LAYER_1_0
 62
     7
100
AcDbLine
 10
142.4237215296598
 20
-158.4542606637156
 30
0.0
 11
142.4237215296598
 21
-158.8926409912156
 31
0.0
  0
LINE
  5
1824
330
165A
100
AcDbEntity
  8
LAYER_1_0
 62
     7
100
AcDbLine
 10
145.3709355982599
 20
-158.4542606637156
 30
0.0
 11
143.5700275135598
 21
-158.4542606637156
 31
0.0
  0
LINE
  5
1825
330
165A
100
AcDbEntity
  8
LAYER_1_0
 62
     7
100
AcDbLine
 10
143.7892155278599
 20
-158.8926409912156
 30
0.0
 11
144.2246339132599
 21
-158.8926409912156
 31
0.0
  0
LINE
  5
1826
330
165A
100
AcDbEntity
  8
LAYER_1_0
 62
     7
100
AcDbLine
 10
143.7892155278599
 20
-158.8926409912156
 30
0.0
 11
143.5700275135598
 21
-158.8926409912156
 31
0.0
  0
LINE
  5
1827
330
165A
100
AcDbEntity
  8
LAYER_1_0
 62
     7
100
AcDbLine
 10
143.5700275135598
 20
-158.8926409912156
 30
0.0
 11
143.5700275135598
 21
-158.4542606637156
 31
0.0
  0
LINE
  5
1828
330
165A
100
AcDbEntity
  8
LAYER_1_0
 62
     7
100
AcDbLine
 10
143.5700275135598
 20
-158.8926409912156
 30
0.0
 11
143.0783279293598
 21
-158.8926409912156
 31
0.0
  0
LINE
  5
1829
330
165A
100
AcDbEntity
  8
LAYER_1_0
 62
     7
100
AcDbLine
 10
145.3709355982599
 20
-158.8926409912156
 30
0.0
 11
144.2246339132599
 21
-158.8926409912156
 31
0.0
  0
LINE
  5
182A
330
165A
100
AcDbEntity
  8
LAYER_1_0
 62
     7
100
AcDbLine
 10
145.3709355982599
 20
-158.4542606637156
 30
0.0
 11
145.3709355982599
 21
-158.8926409912156
 31
0.0
  0
LINE
  5
182B
330
165A
100
AcDbEntity
  8
LAYER_1_0
 62
     7
100
AcDbLine
 10
147.3910359961599
 20
-158.8926409912156
 30
0.0
 11
150.3412120068598
 21
-158.8926409912156
 31
0.0
  0
LINE
  5
182C
330
165A
100
AcDbEntity
  8
LAYER_1_0
 62
     7
100
AcDbLine
 10
147.3910359961599
 20
-158.4542606637156
 30
0.0
 11
150.3412120068598
 21
-158.4542606637156
 31
0.0
  0
LINE
  5
182D
330
165A
100
AcDbEntity
  8
LAYER_1_0
 62
     7
100
AcDbLine
 10
145.5901279114599
 20
-158.8926409912156
 30
0.0
 11
146.7364295964599
 21
-158.8926409912156
 31
0.0
  0
LINE
  5
182E
330
165A
100
AcDbEntity
  8
LAYER_1_0
 62
     7
100
AcDbLine
 10
146.7364295964599
 20
-158.4542606637156
 30
0.0
 11
145.5901279114599
 21
-158.4542606637156
 31
0.0
  0
LINE
  5
182F
330
165A
100
AcDbEntity
  8
LAYER_1_0
 62
     7
100
AcDbLine
 10
146.7364295964599
 20
-158.8926409912156
 30
0.0
 11
147.3910359961599
 21
-158.8926409912156
 31
0.0
  0
LINE
  5
1830
330
165A
100
AcDbEntity
  8
LAYER_1_0
 62
     7
100
AcDbLine
 10
146.7364295964599
 20
-158.4542606637156
 30
0.0
 11
147.3910359961599
 21
-158.4542606637156
 31
0.0
  0
LINE
  5
1831
330
165A
100
AcDbEntity
  8
LAYER_1_0
 62
     7
100
AcDbLine
 10
150.3945312635599
 20
-158.8926409912156
 30
0.0
 11
150.3945312635599
 21
-158.4542606637156
 31
0.0
  0
LINE
  5
1832
330
165A
100
AcDbEntity
  8
LAYER_1_0
 62
     7
100
AcDbLine
 10
171.0872305278598
 20
-158.4542606637156
 30
0.0
 11
176.9816586650598
 21
-158.4542606637156
 31
0.0
  0
LINE
  5
1833
330
165A
100
AcDbEntity
  8
LAYER_1_0
 62
     7
100
AcDbLine
 10
160.6046251107599
 20
-162.1123580319157
 30
0.0
 11
162.4055374943598
 21
-162.1123580319157
 31
0.0
  0
LINE
  5
1834
330
165A
100
AcDbEntity
  8
LAYER_1_0
 62
     7
100
AcDbLine
 10
160.6046251107599
 20
-159.6005623487156
 30
0.0
 11
162.4055374943598
 21
-159.6005623487156
 31
0.0
  0
LINE
  5
1835
330
165A
100
AcDbEntity
  8
LAYER_1_0
 62
     7
100
AcDbLine
 10
160.1662490821598
 20
-158.8926409912156
 30
0.0
 11
161.7509310946599
 21
-158.8926409912156
 31
0.0
  0
LINE
  5
1836
330
165A
100
AcDbEntity
  8
LAYER_1_0
 62
     7
100
AcDbLine
 10
160.6046251107599
 20
-159.6005623487156
 30
0.0
 11
160.6046251107599
 21
-162.1123580319157
 31
0.0
  0
LINE
  5
1837
330
165A
100
AcDbEntity
  8
LAYER_1_0
 62
     7
100
AcDbLine
 10
151.0491376632598
 20
-158.4542606637156
 30
0.0
 11
152.6338196757599
 21
-158.4542606637156
 31
0.0
  0
LINE
  5
1838
330
165A
100
AcDbEntity
  8
LAYER_1_0
 62
     7
100
AcDbLine
 10
152.6338196757599
 20
-158.4542606637156
 30
0.0
 11
151.0491376632598
 21
-158.4542606637156
 31
0.0
  0
LINE
  5
1839
330
165A
100
AcDbEntity
  8
LAYER_1_0
 62
     7
100
AcDbLine
 10
160.1662490821598
 20
-159.6005623487156
 30
0.0
 11
160.1662490821598
 21
-158.8926409912156
 31
0.0
  0
LINE
  5
183A
330
165A
100
AcDbEntity
  8
LAYER_1_0
 62
     7
100
AcDbLine
 10
160.6046251107599
 20
-159.6005623487156
 30
0.0
 11
160.1662490821598
 21
-159.6005623487156
 31
0.0
  0
LINE
  5
183B
330
165A
100
AcDbEntity
  8
LAYER_1_0
 62
     7
100
AcDbLine
 10
162.4055374943598
 20
-159.6005623487156
 30
0.0
 11
162.4055374943598
 21
-162.1123580319157
 31
0.0
  0
LINE
  5
183C
330
165A
100
AcDbEntity
  8
LAYER_1_0
 62
     7
100
AcDbLine
 10
166.06363916146
 20
-159.6005623487156
 30
0.0
 11
166.06363916146
 21
-162.1123580319157
 31
0.0
  0
LINE
  5
183D
330
165A
100
AcDbEntity
  8
LAYER_1_0
 62
     7
100
AcDbLine
 10
167.8645472461599
 20
-159.6005623487156
 30
0.0
 11
167.8645472461599
 21
-162.1123580319157
 31
0.0
  0
LINE
  5
183E
330
165A
100
AcDbEntity
  8
LAYER_1_0
 62
     7
100
AcDbLine
 10
166.06363916146
 20
-162.1123580319157
 30
0.0
 11
167.8645472461599
 21
-162.1123580319157
 31
0.0
  0
LINE
  5
183F
330
165A
100
AcDbEntity
  8
LAYER_1_0
 62
     7
100
AcDbLine
 10
166.06363916146
 20
-162.1123580319157
 30
0.0
 11
162.4055374943598
 21
-162.1123580319157
 31
0.0
  0
LINE
  5
1840
330
165A
100
AcDbEntity
  8
LAYER_1_0
 62
     7
100
AcDbLine
 10
166.06363916146
 20
-158.8926409912156
 30
0.0
 11
168.3562425314599
 21
-158.8926409912156
 31
0.0
  0
LINE
  5
1841
330
165A
100
AcDbEntity
  8
LAYER_1_0
 62
     7
100
AcDbLine
 10
167.8645472461599
 20
-159.6005623487156
 30
0.0
 11
166.06363916146
 21
-159.6005623487156
 31
0.0
  0
LINE
  5
1842
330
165A
100
AcDbEntity
  8
LAYER_1_0
 62
     7
100
AcDbLine
 10
163.5518391793598
 20
-158.4542606637156
 30
0.0
 11
169.0108532300598
 21
-158.4542606637156
 31
0.0
  0
LINE
  5
1843
330
165A
100
AcDbEntity
  8
LAYER_1_0
 62
     7
100
AcDbLine
 10
166.06363916146
 20
-159.6005623487156
 30
0.0
 11
162.4055374943598
 21
-159.6005623487156
 31
0.0
  0
LINE
  5
1844
330
165A
100
AcDbEntity
  8
LAYER_1_0
 62
     7
100
AcDbLine
 10
166.06363916146
 20
-158.8926409912156
 30
0.0
 11
161.7509310946599
 21
-158.8926409912156
 31
0.0
  0
LINE
  5
1845
330
165A
100
AcDbEntity
  8
LAYER_1_0
 62
     7
100
AcDbLine
 10
161.7509310946599
 20
-158.8926409912156
 30
0.0
 11
161.7509310946599
 21
-158.4542606637156
 31
0.0
  0
LINE
  5
1846
330
165A
100
AcDbEntity
  8
LAYER_1_0
 62
     7
100
AcDbLine
 10
166.06363916146
 20
-158.8926409912156
 30
0.0
 11
166.06363916146
 21
-158.4542606637156
 31
0.0
  0
LINE
  5
1847
330
165A
100
AcDbEntity
  8
LAYER_1_0
 62
     7
100
AcDbLine
 10
169.0108532300598
 20
-158.4542606637156
 30
0.0
 11
171.0872305278598
 21
-158.4542606637156
 31
0.0
  0
LINE
  5
1848
330
165A
100
AcDbEntity
  8
LAYER_1_0
 62
     7
100
AcDbLine
 10
167.8645472461599
 20
-159.6005623487156
 30
0.0
 11
168.3562425314599
 21
-159.6005623487156
 31
0.0
  0
LINE
  5
1849
330
165A
100
AcDbEntity
  8
LAYER_1_0
 62
     7
100
AcDbLine
 10
168.5754348446599
 20
-159.6005623487156
 30
0.0
 11
168.5754348446599
 21
-158.8926409912156
 31
0.0
  0
LINE
  5
184A
330
165A
100
AcDbEntity
  8
LAYER_1_0
 62
     7
100
AcDbLine
 10
176.9816586650598
 20
-158.4542606637156
 30
0.0
 11
179.2772282760598
 21
-158.4542606637156
 31
0.0
  0
LINE
  5
184B
330
165A
100
AcDbEntity
  8
LAYER_1_0
 62
     7
100
AcDbLine
 10
165.6282207760599
 20
-78.14489767621558
 30
0.0
 11
173.3235569979598
 21
-81.80299504441567
 31
0.0
  0
LWPOLYLINE
  5
184C
330
165A
100
AcDbEntity
  8
LAYER_1_0
 62
     7
100
AcDbPolyline
 90
        7
 70
     0
 43
0.0
 10
170.1571549150598
 20
-85.46109671151567
 10
172.6689505982599
 20
-86.33489542441566
 10
174.4728249239599
 20
-87.26200909511566
 10
175.8353569800599
 20
-87.91661549481558
 10
176.9816586650598
 20
-88.62749879441565
 10
177.6392270068598
 20
-88.62749879441565
 10
177.6392270068598
 20
-89.06291717981559
  0
LWPOLYLINE
  5
184D
330
165A
100
AcDbEntity
  8
LAYER_1_0
 62
     7
100
AcDbPolyline
 90
        3
 70
     0
 43
0.0
 10
167.4291288607598
 20
-85.46109671151567
 10
164.9173331775598
 20
-85.46109671151567
 10
162.4055374943598
 20
-85.46109671151567
  0
LWPOLYLINE
  5
184E
330
165A
100
AcDbEntity
  8
LAYER_1_0
 62
     7
100
AcDbPolyline
 90
        5
 70
     0
 43
0.0
 10
165.6282207760599
 20
-78.14489767621558
 10
167.4291288607598
 20
-79.51039167441564
 10
169.0108532300598
 20
-80.87291943161563
 10
170.1571549150598
 20
-83.1684890426156
 10
170.1571549150598
 20
-85.40481981161565
  0
LWPOLYLINE
  5
184F
330
165A
100
AcDbEntity
  8
LAYER_1_0
 62
     7
100
AcDbPolyline
 90
        7
 70
     0
 43
0.0
 10
169.0108532300598
 20
-80.87291943161563
 10
168.5754348446599
 20
-81.31129975911568
 10
167.4291288607598
 20
-81.80299504441563
 10
166.7182455611599
 20
-81.31129975911568
 10
166.0636391614599
 20
-80.87291943161563
 10
165.3527515629598
 20
-80.65669335941562
 10
164.6981451632599
 20
-80.21831303191573
  0
LWPOLYLINE
  5
1850
330
165A
100
AcDbEntity
  8
LAYER_1_0
 62
     7
100
AcDbPolyline
 90
        3
 70
     0
 43
0.0
 10
164.6981451632599
 20
-80.21831303191573
 10
163.5518391793598
 20
-82.45760574301561
 10
162.4055374943598
 20
-85.40481981161565
  0
LWPOLYLINE
  5
1851
330
165A
100
AcDbEntity
  8
LAYER_1_0
 62
     7
100
AcDbPolyline
 90
        4
 70
     0
 43
0.0
 10
165.6282207760599
 20
-78.14489767621558
 10
165.6282207760599
 20
-78.36408569051565
 10
165.3527515629598
 20
-79.0720113469157
 10
164.6981451632599
 20
-80.21831303191573
  0
LWPOLYLINE
  5
1852
330
165A
100
AcDbEntity
  8
LAYER_1_0
 62
     7
100
AcDbPolyline
 90
        8
 70
     0
 43
0.0
 10
170.1571549150598
 20
-85.46109671151567
 10
169.7217365296598
 20
-85.46109671151567
 10
168.5754348446599
 20
-85.46109671151567
 10
167.4291288607598
 20
-85.46109671151567
 10
167.4291288607598
 20
-84.53102109871565
 10
167.4291288607598
 20
-83.60390742801564
 10
167.8645472461598
 20
-82.73010871511564
 10
167.4291288607598
 20
-81.80299504441563
  0
LWPOLYLINE
  5
1853
330
165A
100
AcDbEntity
  8
LAYER_1_0
 62
     7
100
AcDbPolyline
 90
        7
 70
     0
 43
0.0
 10
173.3235569979598
 20
-81.80299504441563
 10
173.3235569979598
 20
-82.02218735761556
 10
175.1807462814598
 20
-83.1684890426156
 10
176.5462402796598
 20
-84.53102109871565
 10
177.4200389925599
 20
-86.7703138098156
 10
177.6392270068598
 20
-88.62749879441565
 10
177.6392270068598
 20
-89.06291717981559
  0
ENDBLK
  5
165C
330
165A
100
AcDbEntity
  8
0
100
AcDbBlockEnd
  0
BLOCK
  5
1862
330
1857
100
AcDbEntity
  8
0
100
AcDbBlockBegin
  2
*D3
 70
     1
 10
0.0
 20
0.0
 30
0.0
  3
*D3
  1

  0
LINE
  5
1880
330
1857
100
AcDbEntity
  8
0
  6
CONTINUOUS
 62
     0
100
AcDbLine
 10
190.3708602219499
 20
254.9632720453
 30
0.0
 11
190.3708602219499
 21
386.4050860512761
 31
0.0
  0
LINE
  5
1881
330
1857
100
AcDbEntity
  8
0
  6
CONTINUOUS
 62
     0
100
AcDbLine
 10
-40.98026183920007
 20
260.668871
 30
0.0
 11
-40.98026183920006
 21
386.4050860512761
 31
0.0
  0
LINE
  5
1882
330
1857
100
AcDbEntity
  8
0
  6
CONTINUOUS
 62
     0
100
AcDbLine
 10
184.0708602219498
 20
380.1050860512761
 30
0.0
 11
103.0452991913749
 21
380.1050860512761
 31
0.0
  0
LINE
  5
1883
330
1857
100
AcDbEntity
  8
0
  6
CONTINUOUS
 62
     0
100
AcDbLine
 10
-34.68026183920006
 20
380.1050860512761
 30
0.0
 11
46.34529919137492
 21
380.1050860512761
 31
0.0
  0
SOLID
  5
1884
330
1857
100
AcDbEntity
  8
0
  6
CONTINUOUS
 62
     0
100
AcDbTrace
 10
184.0708602219498
 20
381.1550860512761
 30
0.0
 11
184.0708602219498
 21
379.0550860512761
 31
0.0
 12
190.3708602219499
 22
380.1050860512761
 32
0.0
 13
190.3708602219499
 23
380.1050860512761
 33
0.0
  0
SOLID
  5
1885
330
1857
100
AcDbEntity
  8
0
  6
CONTINUOUS
 62
     0
100
AcDbTrace
 10
-34.68026183920006
 20
381.1550860512761
 30
0.0
 11
-34.68026183920006
 21
379.0550860512761
 31
0.0
 12
-40.98026183920006
 22
380.1050860512761
 32
0.0
 13
-40.98026183920006
 23
380.1050860512761
 33
0.0
  0
MTEXT
  5
1886
330
1857
100
AcDbEntity
  8
0
  6
CONTINUOUS
 62
     0
100
AcDbMText
 10
74.69529919137491
 20
380.1050860512761
 30
0.0
 40
6.299999999999999
 41
0.0
 71
     5
 72
     1
  1
\A1;231.4 [9.1]
1001
ACAD
1000
MTEXTBEGIN
1070
    73
1070
     1
1070
    44
1040
1.0
1070
    74
1070
     0
1000
MTEXTEND
  0
POINT
  5
1887
330
1857
100
AcDbEntity
  8
DEFPOINTS
  6
CONTINUOUS
 62
     0
100
AcDbPoint
 10
190.3708602219499
 20
252.7757720453
 30
0.0
  0
POINT
  5
1888
330
1857
100
AcDbEntity
  8
DEFPOINTS
  6
CONTINUOUS
 62
     0
100
AcDbPoint
 10
-40.98026183920007
 20
258.4813710000001
 30
0.0
  0
POINT
  5
1889
330
1857
100
AcDbEntity
  8
DEFPOINTS
  6
CONTINUOUS
 62
     0
100
AcDbPoint
 10
-40.98026183920006
 20
380.1050860512761
 30
0.0
  0
ENDBLK
  5
1863
330
1857
100
AcDbEntity
  8
0
100
AcDbBlockEnd
  0
BLOCK
  5
1870
330
1865
100
AcDbEntity
  8
0
100
AcDbBlockBegin
  2
*D4
 70
     1
 10
0.0
 20
0.0
 30
0.0
  3
*D4
  1

  0
LINE
  5
18AC
330
1865
100
AcDbEntity
  8
0
  6
CONTINUOUS
 62
     0
100
AcDbLine
 10
8.167070971699956
 20
354.4613250059
 30
0.0
 11
-169.5689272385159
 21
354.4613250059
 31
0.0
  0
LINE
  5
18AD
330
1865
100
AcDbEntity
  8
0
  6
CONTINUOUS
 62
     0
100
AcDbLine
 10
12.26206984579994
 20
162.7191304857
 30
0.0
 11
-169.568927238516
 21
162.7191304857
 31
0.0
  0
LINE
  5
18AE
330
1865
100
AcDbEntity
  8
0
  6
CONTINUOUS
 62
     0
100
AcDbLine
 10
-162.3689272385159
 20
347.2613250059
 30
0.0
 11
-162.3689272385159
 21
265.7902277458
 31
0.0
  0
LINE
  5
18AF
330
1865
100
AcDbEntity
  8
0
  6
CONTINUOUS
 62
     0
100
AcDbLine
 10
-162.368927238516
 20
169.9191304857
 30
0.0
 11
-162.3689272385159
 21
251.3902277458
 31
0.0
  0
SOLID
  5
18B0
330
1865
100
AcDbEntity
  8
0
  6
CONTINUOUS
 62
     0
100
AcDbTrace
 10
-163.5689272385159
 20
347.2613250059
 30
0.0
 11
-161.1689272385159
 21
347.2613250059
 31
0.0
 12
-162.3689272385159
 22
354.4613250059
 32
0.0
 13
-162.3689272385159
 23
354.4613250059
 33
0.0
  0
SOLID
  5
18B1
330
1865
100
AcDbEntity
  8
0
  6
CONTINUOUS
 62
     0
100
AcDbTrace
 10
-163.568927238516
 20
169.9191304857
 30
0.0
 11
-161.168927238516
 21
169.9191304857
 31
0.0
 12
-162.368927238516
 22
162.7191304857
 32
0.0
 13
-162.368927238516
 23
162.7191304857
 33
0.0
  0
MTEXT
  5
18B2
330
1865
100
AcDbEntity
  8
0
  6
CONTINUOUS
 62
     0
100
AcDbMText
 10
-162.368927238516
 20
258.5902277458
 30
0.0
 40
7.199999999999999
 41
0.0
 71
     5
 72
     1
  1
\A1;191.7 [7.6]
1001
ACAD
1000
MTEXTBEGIN
1070
    73
1070
     1
1070
    44
1040
1.0
1070
    74
1070
     0
1000
MTEXTEND
  0
POINT
  5
18B3
330
1865
100
AcDbEntity
  8
DEFPOINTS
  6
CONTINUOUS
 62
     0
100
AcDbPoint
 10
10.66707097169995
 20
354.4613250059
 30
0.0
  0
POINT
  5
18B4
330
1865
100
AcDbEntity
  8
DEFPOINTS
  6
CONTINUOUS
 62
     0
100
AcDbPoint
 10
14.76206984579994
 20
162.7191304857
 30
0.0
  0
POINT
  5
18B5
330
1865
100
AcDbEntity
  8
DEFPOINTS
  6
CONTINUOUS
 62
     0
100
AcDbPoint
 10
-162.368927238516
 20
162.7191304857
 30
0.0
  0
ENDBLK
  5
1871
330
1865
100
AcDbEntity
  8
0
100
AcDbBlockEnd
  0
BLOCK
  5
187E
330
1873
100
AcDbEntity
  8
0
100
AcDbBlockBegin
  2
*D5
 70
     1
 10
0.0
 20
0.0
 30
0.0
  3
*D5
  1

  0
LINE
  5
18B6
330
1873
100
AcDbEntity
  8
0
  6
CONTINUOUS
 62
     0
100
AcDbLine
 10
-16.39631029414006
 20
13.29284338698431
 30
0.0
 11
-16.39631029414006
 21
41.53803393630847
 31
0.0
  0
LINE
  5
18B7
330
1873
100
AcDbEntity
  8
0
  6
CONTINUOUS
 62
     0
100
AcDbLine
 10
66.42632719815988
 20
13.29284338698431
 30
0.0
 11
66.42632719815988
 21
41.53803393630847
 31
0.0
  0
LINE
  5
18B8
330
1873
100
AcDbEntity
  8
0
  6
CONTINUOUS
 62
     0
100
AcDbLine
 10
-23.59631029414006
 20
34.33803393630848
 30
0.0
 11
-30.79631029414006
 21
34.33803393630848
 31
0.0
  0
LINE
  5
18B9
330
1873
100
AcDbEntity
  8
0
  6
CONTINUOUS
 62
     0
100
AcDbLine
 10
73.62632719815988
 20
34.33803393630848
 30
0.0
 11
80.82632719815988
 21
34.33803393630848
 31
0.0
  0
SOLID
  5
18BA
330
1873
100
AcDbEntity
  8
0
  6
CONTINUOUS
 62
     0
100
AcDbTrace
 10
-23.59631029414006
 20
35.53803393630848
 30
0.0
 11
-23.59631029414006
 21
33.13803393630847
 31
0.0
 12
-16.39631029414006
 22
34.33803393630848
 32
0.0
 13
-16.39631029414006
 23
34.33803393630848
 33
0.0
  0
SOLID
  5
18BB
330
1873
100
AcDbEntity
  8
0
  6
CONTINUOUS
 62
     0
100
AcDbTrace
 10
73.62632719815988
 20
35.53803393630848
 30
0.0
 11
73.62632719815988
 21
33.13803393630847
 31
0.0
 12
66.42632719815988
 22
34.33803393630848
 32
0.0
 13
66.42632719815988
 23
34.33803393630848
 33
0.0
  0
MTEXT
  5
18BC
330
1873
100
AcDbEntity
  8
0
  6
CONTINUOUS
 62
     0
100
AcDbMText
 10
25.01500845200991
 20
34.33803393630848
 30
0.0
 40
7.199999999999999
 41
0.0
 71
     5
 72
     1
  1
\A1;82.8 [3.3]
1001
ACAD
1000
MTEXTBEGIN
1070
    73
1070
     1
1070
    44
1040
1.0
1070
    74
1070
     0
1000
MTEXTEND
  0
POINT
  5
18BD
330
1873
100
AcDbEntity
  8
DEFPOINTS
  6
CONTINUOUS
 62
     0
100
AcDbPoint
 10
-16.39631029414006
 20
10.79284338698431
 30
0.0
  0
POINT
  5
18BE
330
1873
100
AcDbEntity
  8
DEFPOINTS
  6
CONTINUOUS
 62
     0
100
AcDbPoint
 10
66.42632719815988
 20
10.79284338698431
 30
0.0
  0
POINT
  5
18BF
330
1873
100
AcDbEntity
  8
DEFPOINTS
  6
CONTINUOUS
 62
     0
100
AcDbPoint
 10
66.42632719815988
 20
34.33803393630848
 30
0.0
  0
ENDBLK
  5
187F
330
1873
100
AcDbEntity
  8
0
100
AcDbBlockEnd
  0
BLOCK
  5
18AA
330
189F
100
AcDbEntity
  8
0
100
AcDbBlockBegin
  2
*D6
 70
     1
 10
0.0
 20
0.0
 30
0.0
  3
*D6
  1

  0
LINE
  5
18C0
330
189F
100
AcDbEntity
  8
0
  6
CONTINUOUS
 62
     0
100
AcDbLine
 10
-40.98026183920007
 20
252.5462671694
 30
0.0
 11
-40.98026183920006
 21
405.2279922468318
 31
0.0
  0
LINE
  5
18C1
330
189F
100
AcDbEntity
  8
0
  6
CONTINUOUS
 62
     0
100
AcDbLine
 10
190.3708602219499
 20
267.69628074285
 30
0.0
 11
190.3708602219499
 21
405.2279922468318
 31
0.0
  0
LINE
  5
18C2
330
189F
100
AcDbEntity
  8
0
  6
CONTINUOUS
 62
     0
100
AcDbLine
 10
-33.78026183920006
 20
398.0279922468318
 30
0.0
 11
42.29529919137492
 21
398.0279922468318
 31
0.0
  0
LINE
  5
18C3
330
189F
100
AcDbEntity
  8
0
  6
CONTINUOUS
 62
     0
100
AcDbLine
 10
183.1708602219499
 20
398.0279922468318
 30
0.0
 11
107.0952991913749
 21
398.0279922468318
 31
0.0
  0
SOLID
  5
18C4
330
189F
100
AcDbEntity
  8
0
  6
CONTINUOUS
 62
     0
100
AcDbTrace
 10
-33.78026183920006
 20
399.2279922468318
 30
0.0
 11
-33.78026183920006
 21
396.8279922468318
 31
0.0
 12
-40.98026183920006
 22
398.0279922468318
 32
0.0
 13
-40.98026183920006
 23
398.0279922468318
 33
0.0
  0
SOLID
  5
18C5
330
189F
100
AcDbEntity
  8
0
  6
CONTINUOUS
 62
     0
100
AcDbTrace
 10
183.1708602219499
 20
399.2279922468318
 30
0.0
 11
183.1708602219499
 21
396.8279922468318
 31
0.0
 12
190.3708602219499
 22
398.0279922468318
 32
0.0
 13
190.3708602219499
 23
398.0279922468318
 33
0.0
  0
MTEXT
  5
18C6
330
189F
100
AcDbEntity
  8
0
  6
CONTINUOUS
 62
     0
100
AcDbMText
 10
74.69529919137491
 20
398.0279922468318
 30
0.0
 40
7.199999999999999
 41
0.0
 71
     5
 72
     1
  1
\A1;231.4 [9.1]
1001
ACAD
1000
MTEXTBEGIN
1070
    73
1070
     1
1070
    44
1040
1.0
1070
    74
1070
     0
1000
MTEXTEND
  0
POINT
  5
18C7
330
189F
100
AcDbEntity
  8
DEFPOINTS
  6
CONTINUOUS
 62
     0
100
AcDbPoint
 10
-40.98026183920007
 20
250.0462671694001
 30
0.0
  0
POINT
  5
18C8
330
189F
100
AcDbEntity
  8
DEFPOINTS
  6
CONTINUOUS
 62
     0
100
AcDbPoint
 10
190.3708602219499
 20
265.19628074285
 30
0.0
  0
POINT
  5
18C9
330
189F
100
AcDbEntity
  8
DEFPOINTS
  6
CONTINUOUS
 62
     0
100
AcDbPoint
 10
190.3708602219499
 20
398.0279922468318
 30
0.0
  0
ENDBLK
  5
18AB
330
189F
100
AcDbEntity
  8
0
100
AcDbBlockEnd
  0
BLOCK
  5
18D6
330
18CB
100
AcDbEntity
  8
0
100
AcDbBlockBegin
  2
*D7
 70
     1
 10
0.0
 20
0.0
 30
0.0
  3
*D7
  1

  0
LINE
  5
18CC
330
18CB
100
AcDbEntity
  8
0
  6
CONTINUOUS
 62
     0
100
AcDbLine
 10
-40.98026183920007
 20
265.86797146955
 30
0.0
 11
-40.98026183920006
 21
397.4579458469792
 31
0.0
  0
LINE
  5
18CD
330
18CB
100
AcDbEntity
  8
0
  6
CONTINUOUS
 62
     0
100
AcDbLine
 10
190.3708602219499
 20
267.69628074285
 30
0.0
 11
190.3708602219499
 21
397.4579458469792
 31
0.0
  0
LINE
  5
18CE
330
18CB
100
AcDbEntity
  8
0
  6
CONTINUOUS
 62
     0
100
AcDbLine
 10
-33.78026183920006
 20
390.2579458469792
 30
0.0
 11
42.29529919137492
 21
390.2579458469792
 31
0.0
  0
LINE
  5
18CF
330
18CB
100
AcDbEntity
  8
0
  6
CONTINUOUS
 62
     0
100
AcDbLine
 10
183.1708602219499
 20
390.2579458469792
 30
0.0
 11
107.0952991913749
 21
390.2579458469792
 31
0.0
  0
SOLID
  5
18D0
330
18CB
100
AcDbEntity
  8
0
  6
CONTINUOUS
 62
     0
100
AcDbTrace
 10
-33.78026183920006
 20
391.4579458469792
 30
0.0
 11
-33.78026183920006
 21
389.0579458469792
 31
0.0
 12
-40.98026183920006
 22
390.2579458469792
 32
0.0
 13
-40.98026183920006
 23
390.2579458469792
 33
0.0
  0
SOLID
  5
18D1
330
18CB
100
AcDbEntity
  8
0
  6
CONTINUOUS
 62
     0
100
AcDbTrace
 10
183.1708602219499
 20
391.4579458469792
 30
0.0
 11
183.1708602219499
 21
389.0579458469792
 31
0.0
 12
190.3708602219499
 22
390.2579458469792
 32
0.0
 13
190.3708602219499
 23
390.2579458469792
 33
0.0
  0
MTEXT
  5
18D2
330
18CB
100
AcDbEntity
  8
0
  6
CONTINUOUS
 62
     0
100
AcDbMText
 10
74.69529919137491
 20
390.2579458469792
 30
0.0
 40
7.199999999999999
 41
0.0
 71
     5
 72
     1
  1
\A1;231.4 [9.1]
1001
ACAD
1000
MTEXTBEGIN
1070
    73
1070
     1
1070
    44
1040
1.0
1070
    74
1070
     0
1000
MTEXTEND
  0
POINT
  5
18D3
330
18CB
100
AcDbEntity
  8
DEFPOINTS
  6
CONTINUOUS
 62
     0
100
AcDbPoint
 10
-40.98026183920007
 20
263.36797146955
 30
0.0
  0
POINT
  5
18D4
330
18CB
100
AcDbEntity
  8
DEFPOINTS
  6
CONTINUOUS
 62
     0
100
AcDbPoint
 10
190.3708602219499
 20
265.19628074285
 30
0.0
  0
POINT
  5
18D5
330
18CB
100
AcDbEntity
  8
DEFPOINTS
  6
CONTINUOUS
 62
     0
100
AcDbPoint
 10
190.3708602219499
 20
390.2579458469792
 30
0.0
  0
ENDBLK
  5
18D7
330
18CB
100
AcDbEntity
  8
0
100
AcDbBlockEnd
  0
BLOCK
  5
18E4
330
18D9
100
AcDbEntity
  8
0
100
AcDbBlockBegin
  2
*D8
 70
     1
 10
0.0
 20
0.0
 30
0.0
  3
*D8
  1

  0
LINE
  5
18DA
330
18D9
100
AcDbEntity
  8
0
  6
CONTINUOUS
 62
     0
100
AcDbLine
 10
66.42632719815988
 20
13.29284338698431
 30
0.0
 11
66.42632719815988
 21
72.41101667868988
 31
0.0
  0
LINE
  5
18DB
330
18D9
100
AcDbEntity
  8
0
  6
CONTINUOUS
 62
     0
100
AcDbLine
 10
-16.39631029414006
 20
13.29284338698431
 30
0.0
 11
-16.39631029414006
 21
72.41101667868988
 31
0.0
  0
LINE
  5
18DC
330
18D9
100
AcDbEntity
  8
0
  6
CONTINUOUS
 62
     0
100
AcDbLine
 10
73.62632719815988
 20
65.21101667868987
 30
0.0
 11
80.82632719815988
 21
65.21101667868987
 31
0.0
  0
LINE
  5
18DD
330
18D9
100
AcDbEntity
  8
0
  6
CONTINUOUS
 62
     0
100
AcDbLine
 10
-23.59631029414006
 20
65.21101667868987
 30
0.0
 11
-30.79631029414006
 21
65.21101667868987
 31
0.0
  0
SOLID
  5
18DE
330
18D9
100
AcDbEntity
  8
0
  6
CONTINUOUS
 62
     0
100
AcDbTrace
 10
73.62632719815988
 20
66.41101667868987
 30
0.0
 11
73.62632719815988
 21
64.01101667868987
 31
0.0
 12
66.42632719815988
 22
65.21101667868987
 32
0.0
 13
66.42632719815988
 23
65.21101667868987
 33
0.0
  0
SOLID
  5
18DF
330
18D9
100
AcDbEntity
  8
0
  6
CONTINUOUS
 62
     0
100
AcDbTrace
 10
-23.59631029414006
 20
66.41101667868987
 30
0.0
 11
-23.59631029414006
 21
64.01101667868987
 31
0.0
 12
-16.39631029414006
 22
65.21101667868987
 32
0.0
 13
-16.39631029414006
 23
65.21101667868987
 33
0.0
  0
MTEXT
  5
18E0
330
18D9
100
AcDbEntity
  8
0
  6
CONTINUOUS
 62
     0
100
AcDbMText
 10
25.01500845200991
 20
65.21101667868987
 30
0.0
 40
7.199999999999999
 41
0.0
 71
     5
 72
     1
  1
\A1;82.8 [3.3]
1001
ACAD
1000
MTEXTBEGIN
1070
    73
1070
     1
1070
    44
1040
1.0
1070
    74
1070
     0
1000
MTEXTEND
  0
POINT
  5
18E1
330
18D9
100
AcDbEntity
  8
DEFPOINTS
  6
CONTINUOUS
 62
     0
100
AcDbPoint
 10
66.42632719815988
 20
10.79284338698431
 30
0.0
  0
POINT
  5
18E2
330
18D9
100
AcDbEntity
  8
DEFPOINTS
  6
CONTINUOUS
 62
     0
100
AcDbPoint
 10
-16.39631029414006
 20
10.79284338698431
 30
0.0
  0
POINT
  5
18E3
330
18D9
100
AcDbEntity
  8
DEFPOINTS
  6
CONTINUOUS
 62
     0
100
AcDbPoint
 10
-16.39631029414006
 20
65.21101667868987
 30
0.0
  0
ENDBLK
  5
18E5
330
18D9
100
AcDbEntity
  8
0
100
AcDbBlockEnd
  0
BLOCK
  5
18F2
330
18E7
100
AcDbEntity
  8
0
100
AcDbBlockBegin
  2
*D9
 70
     1
 10
0.0
 20
0.0
 30
0.0
  3
*D9
  1

  0
LINE
  5
18E8
330
18E7
100
AcDbEntity
  8
0
  6
CONTINUOUS
 62
     0
100
AcDbLine
 10
-18.89631029414006
 20
13.29284338698431
 30
0.0
 11
-183.2875935770776
 21
13.29284338698436
 31
0.0
  0
LINE
  5
18E9
330
18E7
100
AcDbEntity
  8
0
  6
CONTINUOUS
 62
     0
100
AcDbLine
 10
-48.92383446894012
 20
-216.4936407813156
 30
0.0
 11
-183.2875935770776
 21
-216.4936407813156
 31
0.0
  0
LINE
  5
18EA
330
18E7
100
AcDbEntity
  8
0
  6
CONTINUOUS
 62
     0
100
AcDbLine
 10
-176.0875935770776
 20
6.092843386984363
 30
0.0
 11
-176.0875935770776
 21
-94.40039869716562
 31
0.0
  0
LINE
  5
18EB
330
18E7
100
AcDbEntity
  8
0
  6
CONTINUOUS
 62
     0
100
AcDbLine
 10
-176.0875935770776
 20
-209.2936407813156
 30
0.0
 11
-176.0875935770776
 21
-108.8003986971656
 31
0.0
  0
SOLID
  5
18EC
330
18E7
100
AcDbEntity
  8
0
  6
CONTINUOUS
 62
     0
100
AcDbTrace
 10
-177.2875935770776
 20
6.092843386984363
 30
0.0
 11
-174.8875935770776
 21
6.092843386984363
 31
0.0
 12
-176.0875935770776
 22
13.29284338698436
 32
0.0
 13
-176.0875935770776
 23
13.29284338698436
 33
0.0
  0
SOLID
  5
18ED
330
18E7
100
AcDbEntity
  8
0
  6
CONTINUOUS
 62
     0
100
AcDbTrace
 10
-177.2875935770776
 20
-209.2936407813156
 30
0.0
 11
-174.8875935770777
 21
-209.2936407813156
 31
0.0
 12
-176.0875935770776
 22
-216.4936407813156
 32
0.0
 13
-176.0875935770776
 23
-216.4936407813156
 33
0.0
  0
MTEXT
  5
18EE
330
18E7
100
AcDbEntity
  8
0
  6
CONTINUOUS
 62
     0
100
AcDbMText
 10
-176.0875935770776
 20
-101.6003986971656
 30
0.0
 40
7.199999999999999
 41
0.0
 71
     5
 72
     1
  1
\A1;229.8 [9.1]
1001
ACAD
1000
MTEXTBEGIN
1070
    73
1070
     1
1070
    44
1040
1.0
1070
    74
1070
     0
1000
MTEXTEND
  0
POINT
  5
18EF
330
18E7
100
AcDbEntity
  8
DEFPOINTS
  6
CONTINUOUS
 62
     0
100
AcDbPoint
 10
-16.39631029414006
 20
13.29284338698431
 30
0.0
  0
POINT
  5
18F0
330
18E7
100
AcDbEntity
  8
DEFPOINTS
  6
CONTINUOUS
 62
     0
100
AcDbPoint
 10
-46.42383446894011
 20
-216.4936407813156
 30
0.0
  0
POINT
  5
18F1
330
18E7
100
AcDbEntity
  8
DEFPOINTS
  6
CONTINUOUS
 62
     0
100
AcDbPoint
 10
-176.0875935770776
 20
-216.4936407813156
 30
0.0
  0
ENDBLK
  5
18F3
330
18E7
100
AcDbEntity
  8
0
100
AcDbBlockEnd
  0
BLOCK
  5
1900
330
18F5
100
AcDbEntity
  8
0
100
AcDbBlockBegin
  2
*D10
 70
     1
 10
0.0
 20
0.0
 30
0.0
  3
*D10
  1

  0
LINE
  5
18F6
330
18F5
100
AcDbEntity
  8
0
  6
CONTINUOUS
 62
     0
100
AcDbLine
 10
-48.92383446894012
 20
-216.4936407813156
 30
0.0
 11
-118.0149248102257
 21
-216.4936407813156
 31
0.0
  0
LINE
  5
18F7
330
18F5
100
AcDbEntity
  8
0
  6
CONTINUOUS
 62
     0
100
AcDbLine
 10
-48.92383446894012
 20
10.5491159779363
 30
0.0
 11
-118.0149248102257
 21
10.54911597793632
 31
0.0
  0
LINE
  5
18F8
330
18F5
100
AcDbEntity
  8
0
  6
CONTINUOUS
 62
     0
100
AcDbLine
 10
-110.8149248102258
 20
-209.2936407813156
 30
0.0
 11
-110.8149248102257
 21
-110.1722624016896
 31
0.0
  0
LINE
  5
18F9
330
18F5
100
AcDbEntity
  8
0
  6
CONTINUOUS
 62
     0
100
AcDbLine
 10
-110.8149248102257
 20
3.349115977936328
 30
0.0
 11
-110.8149248102257
 21
-95.77226240168965
 31
0.0
  0
SOLID
  5
18FA
330
18F5
100
AcDbEntity
  8
0
  6
CONTINUOUS
 62
     0
100
AcDbTrace
 10
-112.0149248102258
 20
-209.2936407813156
 30
0.0
 11
-109.6149248102258
 21
-209.2936407813156
 31
0.0
 12
-110.8149248102258
 22
-216.4936407813156
 32
0.0
 13
-110.8149248102258
 23
-216.4936407813156
 33
0.0
  0
SOLID
  5
18FB
330
18F5
100
AcDbEntity
  8
0
  6
CONTINUOUS
 62
     0
100
AcDbTrace
 10
-112.0149248102257
 20
3.349115977936328
 30
0.0
 11
-109.6149248102257
 21
3.349115977936328
 31
0.0
 12
-110.8149248102257
 22
10.54911597793632
 32
0.0
 13
-110.8149248102257
 23
10.54911597793632
 33
0.0
  0
MTEXT
  5
18FC
330
18F5
100
AcDbEntity
  8
0
  6
CONTINUOUS
 62
     0
100
AcDbMText
 10
-110.8149248102257
 20
-102.9722624016896
 30
0.0
 40
7.199999999999999
 41
0.0
 71
     5
 72
     1
  1
\A1;227.0 [8.9]
1001
ACAD
1000
MTEXTBEGIN
1070
    73
1070
     1
1070
    44
1040
1.0
1070
    74
1070
     0
1000
MTEXTEND
  0
POINT
  5
18FD
330
18F5
100
AcDbEntity
  8
DEFPOINTS
  6
CONTINUOUS
 62
     0
100
AcDbPoint
 10
-46.42383446894011
 20
-216.4936407813156
 30
0.0
  0
POINT
  5
18FE
330
18F5
100
AcDbEntity
  8
DEFPOINTS
  6
CONTINUOUS
 62
     0
100
AcDbPoint
 10
-46.42383446894011
 20
10.5491159779363
 30
0.0
  0
POINT
  5
18FF
330
18F5
100
AcDbEntity
  8
DEFPOINTS
  6
CONTINUOUS
 62
     0
100
AcDbPoint
 10
-110.8149248102257
 20
10.54911597793632
 30
0.0
  0
ENDBLK
  5
1901
330
18F5
100
AcDbEntity
  8
0
100
AcDbBlockEnd
  0
BLOCK
  5
190E
330
1903
100
AcDbEntity
  8
0
100
AcDbBlockBegin
  2
*D11
 70
     1
 10
0.0
 20
0.0
 30
0.0
  3
*D11
  1

  0
LINE
  5
1904
330
1903
100
AcDbEntity
  8
0
  6
CONTINUOUS
 62
     0
100
AcDbLine
 10
22.51500845200987
 20
-75.41390967981567
 30
0.0
 11
-70.6039309833071
 21
-75.41390967981566
 31
0.0
  0
LINE
  5
1905
330
1903
100
AcDbEntity
  8
0
  6
CONTINUOUS
 62
     0
100
AcDbLine
 10
-18.89631029414006
 20
13.29284338698431
 30
0.0
 11
-70.60393098330706
 21
13.29284338698433
 31
0.0
  0
LINE
  5
1906
330
1903
100
AcDbEntity
  8
0
  6
CONTINUOUS
 62
     0
100
AcDbLine
 10
-63.40393098330708
 20
-68.21390967981566
 30
0.0
 11
-63.40393098330707
 21
-38.26053314641566
 31
0.0
  0
LINE
  5
1907
330
1903
100
AcDbEntity
  8
0
  6
CONTINUOUS
 62
     0
100
AcDbLine
 10
-63.40393098330707
 20
6.092843386984331
 30
0.0
 11
-63.40393098330707
 21
-23.86053314641566
 31
0.0
  0
SOLID
  5
1908
330
1903
100
AcDbEntity
  8
0
  6
CONTINUOUS
 62
     0
100
AcDbTrace
 10
-64.60393098330708
 20
-68.21390967981566
 30
0.0
 11
-62.20393098330708
 21
-68.21390967981566
 31
0.0
 12
-63.40393098330708
 22
-75.41390967981566
 32
0.0
 13
-63.40393098330708
 23
-75.41390967981566
 33
0.0
  0
SOLID
  5
1909
330
1903
100
AcDbEntity
  8
0
  6
CONTINUOUS
 62
     0
100
AcDbTrace
 10
-64.60393098330706
 20
6.092843386984331
 30
0.0
 11
-62.20393098330706
 21
6.092843386984331
 31
0.0
 12
-63.40393098330707
 22
13.29284338698433
 32
0.0
 13
-63.40393098330707
 23
13.29284338698433
 33
0.0
  0
MTEXT
  5
190A
330
1903
100
AcDbEntity
  8
0
  6
CONTINUOUS
 62
     0
100
AcDbMText
 10
-63.40393098330707
 20
-31.06053314641567
 30
0.0
 40
7.199999999999999
 41
0.0
 71
     5
 72
     1
  1
\A1;88.7 [3.5]
1001
ACAD
1000
MTEXTBEGIN
1070
    73
1070
     1
1070
    44
1040
1.0
1070
    74
1070
     0
1000
MTEXTEND
  0
POINT
  5
190B
330
1903
100
AcDbEntity
  8
DEFPOINTS
  6
CONTINUOUS
 62
     0
100
AcDbPoint
 10
25.01500845200988
 20
-75.41390967981567
 30
0.0
  0
POINT
  5
190C
330
1903
100
AcDbEntity
  8
DEFPOINTS
  6
CONTINUOUS
 62
     0
100
AcDbPoint
 10
-16.39631029414006
 20
13.29284338698431
 30
0.0
  0
POINT
  5
190D
330
1903
100
AcDbEntity
  8
DEFPOINTS
  6
CONTINUOUS
 62
     0
100
AcDbPoint
 10
-63.40393098330707
 20
13.29284338698433
 30
0.0
  0
ENDBLK
  5
190F
330
1903
100
AcDbEntity
  8
0
100
AcDbBlockEnd
  0
ENDSEC
  0
SECTION
  2
ENTITIES
  0
MTEXT
  5
37
330
A
100
AcDbEntity
  8
LAYER_1_0
 62
     7
100
AcDbMText
 10
241.3991943058968
 20
249.7825965443944
 30
0.0
 40
9.233220408999997
 41
0.0
 71
     1
 72
     2
  1
\fMyriad Roman|b0|i0;TOP VIEW
  7
STD
1001
ACAD
1000
MTEXTBEGIN
1070
    73
1070
     1
1070
    44
1040
1.0
1070
    74
1070
     0
1000
MTEXTEND
  0
MTEXT
  5
36
330
A
100
AcDbEntity
  8
LAYER_1_0
 62
     7
100
AcDbMText
 10
254.5359119287381
 20
-79.90652030800777
 30
0.0
 40
9.233220408999997
 41
0.0
 71
     1
 72
     2
  1
\fMyriad Roman|b0|i0;SIDE VIEW
  7
STD
1001
ACAD
1000
MTEXTBEGIN
1070
    73
1070
     1
1070
    44
1040
1.0
1070
    74
1070
     0
1000
MTEXTEND
  0
INSERT
  5
1659
330
A
100
AcDbEntity
  8
0
  6
CONTINUOUS
100
AcDbBlockReference
  2
9418T
 10
0.0
 20
0.0
 30
0.0
  0
INSERT
  5
1854
330
A
100
AcDbEntity
  8
0
  6
CONTINUOUS
100
AcDbBlockReference
  2
9418S
 10
0.0
 20
0.0
 30
0.0
  0
DIMENSION
  5
1864
330
A
100
AcDbEntity
  8
0
  6
CONTINUOUS
100
AcDbDimension
  2
*D4
 10
-162.368927238516
 20
162.7191304857
 30
0.0
 11
-162.368927238516
 21
258.5902277458
 31
0.0
 70
    32
  3
STANDARD
100
AcDbAlignedDimension
 13
10.66707097169995
 23
354.4613250059
 33
0.0
 14
14.76206984579994
 24
162.7191304857
 34
0.0
 50
90.0
100
AcDbRotatedDimension
  0
DIMENSION
  5
18CA
330
A
100
AcDbEntity
  8
0
  6
CONTINUOUS
100
AcDbDimension
  2
*D7
 10
190.3708602219499
 20
390.2579458469792
 30
0.0
 11
74.69529919137491
 21
390.2579458469792
 31
0.0
 70
    32
  3
STANDARD
100
AcDbAlignedDimension
 13
-40.98026183920007
 23
263.36797146955
 33
0.0
 14
190.3708602219499
 24
265.19628074285
 34
0.0
100
AcDbRotatedDimension
  0
DIMENSION
  5
18D8
330
A
100
AcDbEntity
  8
0
  6
CONTINUOUS
100
AcDbDimension
  2
*D8
 10
-16.39631029414006
 20
65.21101667868987
 30
0.0
 11
25.01500845200991
 21
65.21101667868987
 31
0.0
 70
    32
  3
STANDARD
100
AcDbAlignedDimension
 13
66.42632719815988
 23
10.79284338698431
 33
0.0
 14
-16.39631029414006
 24
10.79284338698431
 34
0.0
100
AcDbRotatedDimension
  0
DIMENSION
  5
18F4
330
A
100
AcDbEntity
  8
0
  6
CONTINUOUS
100
AcDbDimension
  2
*D10
 10
-110.8149248102257
 20
10.54911597793632
 30
0.0
 11
-110.8149248102257
 21
-102.9722624016896
 31
0.0
 70
    32
  3
STANDARD
100
AcDbAlignedDimension
 13
-46.42383446894011
 23
-216.4936407813156
 33
0.0
 14
-46.42383446894011
 24
10.5491159779363
 34
0.0
 50
90.0
100
AcDbRotatedDimension
  0
MTEXT
  5
1910
330
A
100
AcDbEntity
  8
0
  6
CONTINUOUS
100
AcDbMText
 10
-125.6461524397948
 20
-274.5795198468001
 30
0.0
 40
15.0
 41
468.4
 71
     1
 72
     5
  1
Weatherproof Outdoor Pan/Tilt\P       LTC 9418 Series
1001
ACAD
1000
MTEXTBEGIN
1070
    73
1070
     1
1070
    44
1040
1.0
1070
    74
1070
     0
1000
MTEXTEND
  0
MTEXT
  5
1911
330
A
100
AcDbEntity
  8
0
  6
CONTINUOUS
100
AcDbMText
 10
344.4434635370159
 20
143.1202621519167
 30
0.0
 40
10.0
 41
231.0999999999999
 71
     1
 72
     5
  1
Notes:\P1. Maximum load: 10 kg (22 lb)\P2. Must be enclosed in a  weatherproof housing if installed outdoors in an inverted position.
1001
ACAD
1000
MTEXTBEGIN
1070
    73
1070
     1
1070
    44
1040
1.0
1070
    74
1070
     0
1000
MTEXTEND
  0
ENDSEC
  0
SECTION
  2
OBJECTS
  0
DICTIONARY
  5
19
330
0
100
AcDbDictionary
  3
ACAD_GROUP
350
1A
  3
ACAD_LAYOUT
350
1540
  3
ACAD_MLINESTYLE
350
1B
  3
ACAD_PLOTSETTINGS
350
1541
  3
ACAD_PLOTSTYLENAME
350
153E
  3
ACDBHEADERROUNDTRIPXREC
350
1948
  3
ACDBVARIABLEDICTIONARY
350
1945
  0
DICTIONARY
  5
1968
330
A
100
AcDbDictionary
280
     1
  3
ACAD_LAYOUTSELFREF
360
1969
  0
DICTIONARY
  5
196A
330
B
100
AcDbDictionary
280
     1
  3
ACAD_LAYOUTSELFREF
360
196B
  0
DICTIONARY
  5
1A
102
{ACAD_REACTORS
330
19
102
}
330
19
100
AcDbDictionary
  0
DICTIONARY
  5
1540
102
{ACAD_REACTORS
330
19
102
}
330
19
100
AcDbDictionary
  0
DICTIONARY
  5
1B
102
{ACAD_REACTORS
330
19
102
}
330
19
100
AcDbDictionary
  3
STANDARD
350
1C
  0
DICTIONARY
  5
1541
102
{ACAD_REACTORS
330
19
102
}
330
19
100
AcDbDictionary
  0
ACDBDICTIONARYWDFLT
  5
153E
102
{ACAD_REACTORS
330
19
102
}
330
19
100
AcDbDictionary
281
     1
  3
Normal
350
153F
100
AcDbDictionaryWithDefault
340
153F
  0
DICTIONARY
  5
1948
102
{ACAD_REACTORS
330
19
102
}
330
19
100
AcDbDictionary
  3
CEPSNTYPE
350
1952
  3
FINGERPRINTGUID
350
1953
  3
HYPERLINKBASE
350
194B
  3
INSUNITS
350
1951
  3
LAYOUTDICT
350
194D
  3
LWETCUNION
350
1950
  3
PLOTSETDICT
350
194E
  3
PLOTSTYLNAMDICT
350
194F
  3
PSVPSCALE
350
1955
  3
PUCSBASE
350
1958
  3
PUCSORGBACK
350
195E
  3
PUCSORGBOTTOM
350
195A
  3
PUCSORGFRONT
350
195D
  3
PUCSORGLEFT
350
195B
  3
PUCSORGRIGHT
350
195C
  3
PUCSORGTOP
350
1959
  3
PUCSORTHOREF
350
1956
  3
PUCSORTHOVIEW
350
1957
  3
STYLESHEET
350
194C
  3
TSTACKALIGN
350
1949
  3
TSTACKSIZE
350
194A
  3
UCSBASE
350
1961
  3
UCSORGBACK
350
1967
  3
UCSORGBOTTOM
350
1963
  3
UCSORGFRONT
350
1966
  3
UCSORGLEFT
350
1964
  3
UCSORGRIGHT
350
1965
  3
UCSORGTOP
350
1962
  3
UCSORTHOREF
350
195F
  3
UCSORTHOVIEW
350
1960
  3
VERSIONGUID
350
1954
  0
DICTIONARY
  5
1945
102
{ACAD_REACTORS
330
19
102
}
330
19
100
AcDbDictionary
  3
DIMASSOC
350
1946
  0
XRECORD
  5
1969
102
{ACAD_REACTORS
330
1968
102
}
330
1968
100
AcDbXrecord
340
A
  0
XRECORD
  5
196B
102
{ACAD_REACTORS
330
196A
102
}
330
196A
100
AcDbXrecord
340
B
  0
MLINESTYLE
  5
1C
102
{ACAD_REACTORS
330
1B
102
}
330
1B
100
AcDbMlineStyle
  2
STANDARD
 70
     0
  3

 62
     0
 51
90.0
 52
90.0
 71
     2
 49
0.5
 62
   256
  6
BYLAYER
 49
-0.5
 62
   256
  6
BYLAYER
  0
ACDBPLACEHOLDER
  5
153F
102
{ACAD_REACTORS
330
153E
102
}
330
153E
100
AcDbPlaceHolder
280
     0
  0
XRECORD
  5
1952
102
{ACAD_REACTORS
330
1948
102
}
330
1948
100
AcDbXrecord
 90
        0
  0
XRECORD
  5
1953
102
{ACAD_REACTORS
330
1948
102
}
330
1948
100
AcDbXrecord
  1
{582580D2-36F5-465F-8BF3-625CFE22C21C}
  0
XRECORD
  5
194B
102
{ACAD_REACTORS
330
1948
102
}
330
1948
100
AcDbXrecord
  1

  0
XRECORD
  5
1951
102
{ACAD_REACTORS
330
1948
102
}
330
1948
100
AcDbXrecord
 90
        4
  0
XRECORD
  5
194D
102
{ACAD_REACTORS
330
1948
102
}
330
1948
100
AcDbXrecord
340
1540
  0
XRECORD
  5
1950
102
{ACAD_REACTORS
330
1948
102
}
330
1948
100
AcDbXrecord
 90
    10781
  0
XRECORD
  5
194E
102
{ACAD_REACTORS
330
1948
102
}
330
1948
100
AcDbXrecord
340
1541
  0
XRECORD
  5
194F
102
{ACAD_REACTORS
330
1948
102
}
330
1948
100
AcDbXrecord
340
153E
  0
XRECORD
  5
1955
102
{ACAD_REACTORS
330
1948
102
}
330
1948
100
AcDbXrecord
 40
0.0
  0
XRECORD
  5
1958
102
{ACAD_REACTORS
330
1948
102
}
330
1948
100
AcDbXrecord
340
0
  0
XRECORD
  5
195E
102
{ACAD_REACTORS
330
1948
102
}
330
1948
100
AcDbXrecord
 10
0.0
 20
0.0
 30
0.0
  0
XRECORD
  5
195A
102
{ACAD_REACTORS
330
1948
102
}
330
1948
100
AcDbXrecord
 10
0.0
 20
0.0
 30
0.0
  0
XRECORD
  5
195D
102
{ACAD_REACTORS
330
1948
102
}
330
1948
100
AcDbXrecord
 10
0.0
 20
0.0
 30
0.0
  0
XRECORD
  5
195B
102
{ACAD_REACTORS
330
1948
102
}
330
1948
100
AcDbXrecord
 10
0.0
 20
0.0
 30
0.0
  0
XRECORD
  5
195C
102
{ACAD_REACTORS
330
1948
102
}
330
1948
100
AcDbXrecord
 10
0.0
 20
0.0
 30
0.0
  0
XRECORD
  5
1959
102
{ACAD_REACTORS
330
1948
102
}
330
1948
100
AcDbXrecord
 10
0.0
 20
0.0
 30
0.0
  0
XRECORD
  5
1956
102
{ACAD_REACTORS
330
1948
102
}
330
1948
100
AcDbXrecord
340
0
  0
XRECORD
  5
1957
102
{ACAD_REACTORS
330
1948
102
}
330
1948
100
AcDbXrecord
 70
     0
  0
XRECORD
  5
194C
102
{ACAD_REACTORS
330
1948
102
}
330
1948
100
AcDbXrecord
  1

  0
XRECORD
  5
1949
102
{ACAD_REACTORS
330
1948
102
}
330
1948
100
AcDbXrecord
 90
        1
  0
XRECORD
  5
194A
102
{ACAD_REACTORS
330
1948
102
}
330
1948
100
AcDbXrecord
 90
       70
  0
XRECORD
  5
1961
102
{ACAD_REACTORS
330
1948
102
}
330
1948
100
AcDbXrecord
340
0
  0
XRECORD
  5
1967
102
{ACAD_REACTORS
330
1948
102
}
330
1948
100
AcDbXrecord
 10
0.0
 20
0.0
 30
0.0
  0
XRECORD
  5
1963
102
{ACAD_REACTORS
330
1948
102
}
330
1948
100
AcDbXrecord
 10
0.0
 20
0.0
 30
0.0
  0
XRECORD
  5
1966
102
{ACAD_REACTORS
330
1948
102
}
330
1948
100
AcDbXrecord
 10
0.0
 20
0.0
 30
0.0
  0
XRECORD
  5
1964
102
{ACAD_REACTORS
330
1948
102
}
330
1948
100
AcDbXrecord
 10
0.0
 20
0.0
 30
0.0
  0
XRECORD
  5
1965
102
{ACAD_REACTORS
330
1948
102
}
330
1948
100
AcDbXrecord
 10
0.0
 20
0.0
 30
0.0
  0
XRECORD
  5
1962
102
{ACAD_REACTORS
330
1948
102
}
330
1948
100
AcDbXrecord
 10
0.0
 20
0.0
 30
0.0
  0
XRECORD
  5
195F
102
{ACAD_REACTORS
330
1948
102
}
330
1948
100
AcDbXrecord
340
0
  0
XRECORD
  5
1960
102
{ACAD_REACTORS
330
1948
102
}
330
1948
100
AcDbXrecord
 70
     0
  0
XRECORD
  5
1954
102
{ACAD_REACTORS
330
1948
102
}
330
1948
100
AcDbXrecord
  1
{94B508EA-DF55-4F80-9801-BE34901D8F96}
  0
DICTIONARYVAR
  5
1946
102
{ACAD_REACTORS
330
1945
102
}
330
1945
100
DictionaryVariables
280
     0
  1
1
  0
ENDSEC
  0
EOF
