999
DXF file: d8125mux.dxf
999
Pro/ENGINEER 2009380 by Parametric Technology Corporation
  0
SECTION
  2
HEADER
  9
$ACADVER
  1
AC1015
  9
$DWGCODEPAGE
  3
ANSI_1252
  9
$EXTMAX
 10
11.0
 20
8.5
 30
0.0
  9
$EXTMIN
 10
0.0
 20
0.0
 30
0.0
  9
$LIMMIN
 10
0.0
 20
0.0
  9
$LIMMAX
 10
11.0
 20
8.5
  9
$VIEWCTR
 10
5.5
 20
4.25
  9
$VIEWSIZE
 40
8.5
  9
$CLAYER
  8
0
  9
$LTSCALE
 40
0.605
  9
$CELTYPE
  6
BYLAYER
  9
$DIMSCALE
 40
1.0
  9
$DIMASZ
 40
0.1875
  9
$DIMEXO
 40
0.06875
  9
$DIMDLI
 40
0.418
  9
$DIMEXE
 40
0.198
  9
$DIMCEN
 40
0.099
  9
$DIMLFAC
 40
1.0
  9
$DIMBLK
  1
_CLOSED
  9
$DIMTXT
 40
0.125
  9
$DIMTOL
 70
0
  9
$DIMLIM
 70
0
  9
$DIMTFAC
 40
1.0
  9
$PDMODE
 70
3
  9
$PDSIZE
 40
0.3125
  9
$HANDSEED
  5
93A
  9
$TILEMODE
 70
1
  9
$MEASUREMENT
 70
0
  9
$INSUNITS
 70
1
  0
ENDSEC
  0
SECTION
  2
CLASSES
  0
CLASS
  1
ACDBDICTIONARYWDFLT
  2
AcDbDictionaryWithDefault
  3
AutoCAD 2000
 90
0
280
0
281
0
  0
CLASS
  1
ACDBPLACEHOLDER
  2
AcDbPlaceHolder
  3
AutoCAD 2000
 90
0
280
0
281
0
  0
CLASS
  1
LAYOUT
  2
AcDbLayout
  3
AutoCAD 2000
 90
0
280
0
281
0
  0
ENDSEC
  0
SECTION
  2
TABLES
  0
TABLE
  2
VPORT
  5
8
100
AcDbSymbolTable
 70
2
  0
VPORT
  5
1F4
100
AcDbSymbolTableRecord
100
AcDbViewportTableRecord
  2
*ACTIVE
 70
0
 10
0.0
 20
0.0
 11
1.0
 21
1.0
 12
5.5
 22
4.25
 13
0.0
 23
0.0
 14
1.0
 24
1.0
 15
0.0
 25
0.0
 16
0.0
 26
0.0
 36
1.0
 17
0.0
 27
0.0
 37
0.0
 40
8.5
 41
1.2941176471
 42
50.0
 43
0.0
 44
0.0
 50
0.0
 51
0.0
 71
0
 72
100
 73
1
 74
1
 75
0
 76
0
 77
0
 78
0
  0
ENDTAB
  0
TABLE
  2
LTYPE
  5
5
100
AcDbSymbolTable
 70
6
  0
LTYPE
  5
14
100
AcDbSymbolTableRecord
100
AcDbLinetypeTableRecord
  2
BYBLOCK
 70
0
  3

 72
65
 73
0
 40
0.0
  0
LTYPE
  5
15
100
AcDbSymbolTableRecord
100
AcDbLinetypeTableRecord
  2
BYLAYER
 70
0
  3

 72
65
 73
0
 40
0.0
  0
LTYPE
  5
16
100
AcDbSymbolTableRecord
100
AcDbLinetypeTableRecord
  2
CONTINUOUS
 70
64
  3
Solid line
 72
65
 73
0
 40
0.0
  0
LTYPE
  5
1F5
100
AcDbSymbolTableRecord
100
AcDbLinetypeTableRecord
  2
CENTER
 70
64
  3
____ _ ____ _ ____ _ ____ _ ____ _ ____ _ ____
 72
65
 73
4
 40
0.6
 49
0.375
 74
0
 49
-0.075
 74
0
 49
0.075
 74
0
 49
-0.075
 74
0
  0
LTYPE
  5
1F6
100
AcDbSymbolTableRecord
100
AcDbLinetypeTableRecord
  2
HIDDEN
 70
64
  3
- - - - - - - - - - - - - - - - - - - -
 72
65
 73
2
 40
0.2
 49
0.1
 74
0
 49
-0.1
 74
0
  0
LTYPE
  5
1F7
100
AcDbSymbolTableRecord
100
AcDbLinetypeTableRecord
  2
PHANTOM
 70
64
  3
_____ _ _ _____ _ _ _____ _ _ _____
 72
65
 73
6
 40
0.8
 49
0.45
 74
0
 49
-0.05
 74
0
 49
0.1
 74
0
 49
-0.05
 74
0
 49
0.1
 74
0
 49
-0.05
 74
0
  0
LTYPE
  5
1F8
100
AcDbSymbolTableRecord
100
AcDbLinetypeTableRecord
  2
DOT
 70
64
  3
. . . . . . . . . . . . . . . . . . . .
 72
65
 73
2
 40
0.2
 49
0.1
 74
0
 49
-0.1
 74
0
  0
LTYPE
  5
1F9
100
AcDbSymbolTableRecord
100
AcDbLinetypeTableRecord
  2
DASHED
 70
64
  3
- - - - - - - - - - - - - - - - - - - -
 72
65
 73
2
 40
0.2
 49
0.1
 74
0
 49
-0.1
 74
0
  0
ENDTAB
  0
TABLE
  2
LAYER
  5
2
100
AcDbSymbolTable
 70
36
  0
LAYER
  5
10
100
AcDbSymbolTableRecord
100
AcDbLayerTableRecord
  2
0
 70
0
 62
7
  6
CONTINUOUS
370
-3
390
F
  0
LAYER
  5
1FA
100
AcDbSymbolTableRecord
100
AcDbLayerTableRecord
  2
DEFAULT_1
 70
0
 62
7
  6
CENTER
370
-3
390
F
  0
LAYER
  5
1FB
100
AcDbSymbolTableRecord
100
AcDbLayerTableRecord
  2
DEFAULT_2
 70
0
 62
8
  6
HIDDEN
370
-3
390
F
  0
LAYER
  5
1FC
100
AcDbSymbolTableRecord
100
AcDbLayerTableRecord
  2
DEFAULT_3
 70
0
 62
7
  6
PHANTOM
370
-3
390
F
  0
LAYER
  5
1FD
100
AcDbSymbolTableRecord
100
AcDbLayerTableRecord
  2
ADT_PHO
 70
0
 62
7
  6
CONTINUOUS
370
-3
390
F
  0
LAYER
  5
1FE
100
AcDbSymbolTableRecord
100
AcDbLayerTableRecord
  2
ART01_PHO
 70
0
 62
7
  6
CONTINUOUS
370
-3
390
F
  0
LAYER
  5
1FF
100
AcDbSymbolTableRecord
100
AcDbLayerTableRecord
  2
DFN0102_DRL
 70
0
 62
7
  6
CONTINUOUS
370
-3
390
F
  0
LAYER
  5
200
100
AcDbSymbolTableRecord
100
AcDbLayerTableRecord
  2
DFP0102_DRL
 70
0
 62
7
  6
CONTINUOUS
370
-3
390
F
  0
ENDTAB
  0
TABLE
  2
STYLE
  5
3
100
AcDbSymbolTable
 70
1
  0
STYLE
  5
11
100
AcDbSymbolTableRecord
100
AcDbTextStyleTableRecord
  2
STANDARD
 70
0
 40
0.0
 41
0.8
 50
0.0
 71
0
 42
0.2
  3
txt
  4

  0
STYLE
  5
201
100
AcDbSymbolTableRecord
100
AcDbTextStyleTableRecord
  2
TEXTSTYLE_1
 70
0
 40
0.0
 41
0.8
 50
0.0
 71
0
 42
0.2
  3
gdt
  4

  0
ENDTAB
  0
TABLE
  2
VIEW
  5
6
100
AcDbSymbolTable
 70
0
  0
ENDTAB
  0
TABLE
  2
UCS
  5
7
100
AcDbSymbolTable
 70
0
  0
ENDTAB
  0
TABLE
  2
APPID
  5
9
100
AcDbSymbolTable
 70
1
  0
APPID
  5
202
100
AcDbSymbolTableRecord
100
AcDbRegAppTableRecord
  2
ACAD
 70
0
  0
ENDTAB
  0
TABLE
  2
BLOCK_RECORD
  5
1
100
AcDbSymbolTable
 70
0
  0
BLOCK_RECORD
  5
203
100
AcDbSymbolTableRecord
100
AcDbBlockTableRecord
  2
*Model_Space
  0
BLOCK_RECORD
  5
204
100
AcDbSymbolTableRecord
100
AcDbBlockTableRecord
  2
*Paper_Space
  0
BLOCK_RECORD
  5
205
100
AcDbSymbolTableRecord
100
AcDbBlockTableRecord
  2
_CLOSED
  0
BLOCK_RECORD
  5
206
100
AcDbSymbolTableRecord
100
AcDbBlockTableRecord
  2
*D0
  0
BLOCK_RECORD
  5
207
100
AcDbSymbolTableRecord
100
AcDbBlockTableRecord
  2
*D1
  0
ENDTAB
  0
TABLE
  2
DIMSTYLE
  5
A
100
AcDbSymbolTable
 70
1
100
AcDbDimStyleTable
 71
0
  0
DIMSTYLE
105
208
100
AcDbSymbolTableRecord
100
AcDbDimStyleTableRecord
  2
STANDARD
 70
0
  3

  4

 40
1.0
 41
0.1875
 42
0.0625
 43
0.38
 44
0.18
 45
0.0
 46
0.0
 47
0.01
 48
0.01
140
0.125
141
0.09
142
0.0
143
25.4
144
1.0
145
0.0
146
1.0
147
0.09
 71
0.0
 72
0.0
 73
1
 74
1
 75
0
 76
0
 77
0
 78
4
170
0
171
2
172
0
173
0
174
0
175
0
176
0
177
0
178
0
270
2
271
2
272
2
273
2
274
2
275
0
280
0
281
0
282
0
283
1
284
4
285
0
286
0
287
3
288
0
340
11
341
205
342
205
343
205
344
205
  0
DIMSTYLE
105
209
100
AcDbSymbolTableRecord
100
AcDbDimStyleTableRecord
  2
DIMSTYLE_1
 70
0
  3

  4

 40
1.0
 41
0.1875
 42
0.0625
 43
0.38
 44
0.18
 45
0.0
 46
0.0
 47
0.0
 48
0.0
140
0.125
141
0.09
142
0.0
143
25.4
144
1.0
145
0.0
146
1.0
147
0.09
 71
0.0
 72
0.0
 73
1
 74
1
 75
0
 76
0
 77
0
 78
4
170
0
171
2
172
0
173
0
174
0
175
0
176
0
177
0
178
0
270
2
271
2
272
2
273
2
274
2
275
0
280
0
281
0
282
0
283
1
284
4
285
0
286
0
287
3
288
0
340
11
341
205
342
205
343
205
344
205
  0
ENDTAB
  0
ENDSEC
  0
SECTION
  2
BLOCKS
  0
BLOCK
  5
20
100
AcDbEntity
  8
0
100
AcDbBlockBegin
  2
*Model_Space
 70
0
 10
0.0
 20
0.0
 30
0.0
  3
*Model_Space
  1

  0
ENDBLK
  5
21
100
AcDbEntity
  8
0
100
AcDbBlockEnd
  0
BLOCK
  5
1C
100
AcDbEntity
  8
0
100
AcDbBlockBegin
  2
*Paper_Space
 70
0
 10
0.0
 20
0.0
 30
0.0
  3
*Paper_Space
  1

  0
ENDBLK
  5
1D
100
AcDbEntity
  8
0
100
AcDbBlockEnd
  0
BLOCK
  5
20A
100
AcDbEntity
  8
0
100
AcDbBlockBegin
  2
_CLOSED
 70
64
 10
0.0
 20
0.0
  3
_CLOSED
  1

  0
LINE
  5
20B
100
AcDbEntity
  8
0
  6
BYBLOCK
 62
0
100
AcDbLine
 10
0.0
 20
0.0
 11
-1.0
 21
0.1666666667
  0
LINE
  5
20C
100
AcDbEntity
  8
0
  6
BYBLOCK
 62
0
100
AcDbLine
 10
-1.0
 20
0.1666666667
 11
-1.0
 21
-0.1666666667
  0
LINE
  5
20D
100
AcDbEntity
  8
0
  6
BYBLOCK
 62
0
100
AcDbLine
 10
-1.0
 20
-0.1666666667
 11
0.0
 21
0.0
  0
LINE
  5
20E
100
AcDbEntity
  8
0
  6
BYBLOCK
 62
0
100
AcDbLine
 10
-1.0
 20
0.0
 11
0.0
 21
0.0
  0
ENDBLK
  5
20F
100
AcDbEntity
  8
0
  6
BYBLOCK
 62
0
100
AcDbBlockEnd
  0
BLOCK
  5
210
100
AcDbEntity
  8
0
100
AcDbBlockBegin
 62
2
  6
CONTINUOUS
  2
*D0
 70
65
 10
0.0
 20
0.0
  3
*D0
  1

  0
MTEXT
  5
211
100
AcDbEntity
  8
0
100
AcDbMText
 62
2
  6
CONTINUOUS
  7
STANDARD
 71
2
 72
1
 10
3.986770342
 20
4.9254127358
 30
0.0
 11
1.0
 21
0.0
 31
0.0
 44
0.9
  1
5.50
 40
0.125
 41
0.4
  0
LINE
  5
212
100
AcDbEntity
  8
0
100
AcDbLine
 62
2
  6
CONTINUOUS
 10
1.236770342
 20
4.5821049528
 11
1.236770342
 21
4.9879127358
  0
LINE
  5
213
100
AcDbEntity
  8
0
100
AcDbLine
 62
2
  6
CONTINUOUS
 10
6.736770342
 20
4.5821049528
 11
6.736770342
 21
4.9879127358
  0
LINE
  5
214
100
AcDbEntity
  8
0
100
AcDbLine
 62
2
  6
CONTINUOUS
 10
1.236770342
 20
4.8629127358
 11
3.724270342
 21
4.8629127358
  0
LINE
  5
215
100
AcDbEntity
  8
0
100
AcDbLine
 62
2
  6
CONTINUOUS
 10
6.736770342
 20
4.8629127358
 11
4.249270342
 21
4.8629127358
  0
INSERT
  5
216
100
AcDbEntity
  8
0
100
AcDbBlockReference
 62
2
  6
CONTINUOUS
  2
_CLOSED
 10
1.236770342
 20
4.8629127358
 41
0.1875
 42
0.1875
 43
0.1875
 50
180.0
  0
INSERT
  5
217
100
AcDbEntity
  8
0
100
AcDbBlockReference
 62
2
  6
CONTINUOUS
  2
_CLOSED
 10
6.736770342
 20
4.8629127358
 41
0.1875
 42
0.1875
 43
0.1875
  0
ENDBLK
  5
218
100
AcDbEntity
  8
0
  6
BYBLOCK
 62
0
100
AcDbBlockEnd
  0
BLOCK
  5
219
100
AcDbEntity
  8
0
100
AcDbBlockBegin
 62
2
  6
CONTINUOUS
  2
*D1
 70
65
 10
0.0
 20
0.0
  3
*D1
  1

  0
MTEXT
  5
21A
100
AcDbEntity
  8
0
100
AcDbMText
 62
2
  6
CONTINUOUS
  7
STANDARD
 71
2
 72
1
 10
7.1581478479
 20
2.9571049528
 30
0.0
 11
1.0
 21
0.0
 31
0.0
 44
0.9
  1
3.25
 40
0.125
 41
0.4
  0
LINE
  5
21B
100
AcDbEntity
  8
0
100
AcDbLine
 62
2
  6
CONTINUOUS
 10
6.799270342
 20
4.5196049528
 11
7.2831478479
 21
4.5196049528
  0
LINE
  5
21C
100
AcDbEntity
  8
0
100
AcDbLine
 62
2
  6
CONTINUOUS
 10
6.799270342
 20
1.2696049528
 11
7.2831478479
 21
1.2696049528
  0
LINE
  5
21D
100
AcDbEntity
  8
0
100
AcDbLine
 62
2
  6
CONTINUOUS
 10
7.1581478479
 20
4.5196049528
 11
7.1581478479
 21
3.0196049528
  0
LINE
  5
21E
100
AcDbEntity
  8
0
100
AcDbLine
 62
2
  6
CONTINUOUS
 10
7.1581478479
 20
1.2696049528
 11
7.1581478479
 21
2.7696049528
  0
INSERT
  5
21F
100
AcDbEntity
  8
0
100
AcDbBlockReference
 62
2
  6
CONTINUOUS
  2
_CLOSED
 10
7.1581478479
 20
4.5196049528
 41
0.1875
 42
0.1875
 43
0.1875
 50
90.0
  0
INSERT
  5
220
100
AcDbEntity
  8
0
100
AcDbBlockReference
 62
2
  6
CONTINUOUS
  2
_CLOSED
 10
7.1581478479
 20
1.2696049528
 41
0.1875
 42
0.1875
 43
0.1875
 50
270.0
  0
ENDBLK
  5
221
100
AcDbEntity
  8
0
  6
BYBLOCK
 62
0
100
AcDbBlockEnd
  0
ENDSEC
  0
SECTION
  2
ENTITIES
  0
DIMENSION
  5
222
100
AcDbEntity
  8
0
100
AcDbDimension
 62
2
  6
CONTINUOUS
  2
*D0
 10
6.736770342
 20
4.8629127358
 11
3.786770342
 21
4.8629127358
 70
160
 71
2
 42
5.5
  3
DIMSTYLE_1
100
AcDbAlignedDimension
 13
1.236770342
 23
4.5821049528
 14
6.736770342
 24
4.5821049528
100
AcDbRotatedDimension
  0
DIMENSION
  5
223
100
AcDbEntity
  8
0
100
AcDbDimension
 62
2
  6
CONTINUOUS
  2
*D1
 10
7.1581478479
 20
1.2696049528
 11
6.9581478479
 21
2.8946049528
 70
160
 71
2
 42
3.25
  3
DIMSTYLE_1
100
AcDbAlignedDimension
 13
6.799270342
 23
4.5196049528
 14
6.799270342
 24
1.2696049528
 50
270.0
100
AcDbRotatedDimension
  0
LINE
  5
224
100
AcDbEntity
  8
ART01_PHO
100
AcDbLine
 62
7
  6
CONTINUOUS
 10
1.9135813656
 20
1.3139750316
 11
1.9181089247
 21
1.3077151891
  0
LINE
  5
225
100
AcDbEntity
  8
ART01_PHO
100
AcDbLine
 62
7
  6
CONTINUOUS
 10
1.9408254601
 20
1.3608254253
 11
1.936297901
 21
1.3670852678
  0
LINE
  5
226
100
AcDbEntity
  8
ART01_PHO
100
AcDbLine
 62
7
  6
CONTINUOUS
 10
1.5935813656
 20
1.4870852678
 11
1.5958254601
 21
1.4839750316
  0
LINE
  5
227
100
AcDbEntity
  8
ART01_PHO
100
AcDbLine
 62
7
  6
CONTINUOUS
 10
1.5958254601
 20
1.4839750316
 11
1.5981089247
 21
1.4777151891
  0
LINE
  5
228
100
AcDbEntity
  8
ADT_PHO
100
AcDbLine
 62
7
  6
CONTINUOUS
 10
1.236770342
 20
4.5196049528
 11
1.236770342
 21
1.2696049528
  0
LINE
  5
229
100
AcDbEntity
  8
ART01_PHO
100
AcDbLine
 62
7
  6
CONTINUOUS
 10
1.5890144365
 20
1.490195504
 11
1.5935813656
 21
1.4870852678
  0
LINE
  5
22A
100
AcDbEntity
  8
ART01_PHO
100
AcDbLine
 62
7
  6
CONTINUOUS
 10
1.9181089247
 20
1.3077151891
 11
1.9226758538
 21
1.3046049528
  0
LINE
  5
22B
100
AcDbEntity
  8
ART01_PHO
100
AcDbLine
 62
7
  6
CONTINUOUS
 10
2.2999199483
 20
1.3358254253
 11
2.3044868774
 21
1.3327151891
  0
LINE
  5
22C
100
AcDbEntity
  8
ART01_PHO
100
AcDbLine
 62
7
  6
CONTINUOUS
 10
2.1808254601
 20
1.4277151891
 11
2.1853923892
 21
1.4246049528
  0
LINE
  5
22D
100
AcDbEntity
  8
ART01_PHO
100
AcDbLine
 62
7
  6
CONTINUOUS
 10
1.936297901
 20
1.3670852678
 11
1.931770342
 21
1.370195504
  0
LINE
  5
22E
100
AcDbEntity
  8
ART01_PHO
100
AcDbLine
 62
7
  6
CONTINUOUS
 10
2.281770342
 20
1.345195504
 11
2.286297901
 21
1.3420852678
  0
LINE
  5
22F
100
AcDbEntity
  8
ART01_PHO
100
AcDbLine
 62
7
  6
CONTINUOUS
 10
2.1999199483
 20
1.3358254253
 11
2.2022034128
 21
1.3327151891
  0
LINE
  5
230
100
AcDbEntity
  8
ART01_PHO
100
AcDbLine
 62
7
  6
CONTINUOUS
 10
2.1999199483
 20
1.3670852678
 11
2.2022034128
 21
1.3639750316
  0
LINE
  5
231
100
AcDbEntity
  8
ART01_PHO
100
AcDbLine
 62
7
  6
CONTINUOUS
 10
2.3044868774
 20
1.3327151891
 11
2.306770342
 21
1.3296049528
  0
LINE
  5
232
100
AcDbEntity
  8
ART01_PHO
100
AcDbLine
 62
7
  6
CONTINUOUS
 10
2.2272034128
 20
1.3139750316
 11
2.231770342
 21
1.3077151891
  0
LINE
  5
233
100
AcDbEntity
  8
ART01_PHO
100
AcDbLine
 62
7
  6
CONTINUOUS
 10
2.281770342
 20
1.3077151891
 11
2.2772034128
 21
1.3139750316
  0
LINE
  5
234
100
AcDbEntity
  8
ART01_PHO
100
AcDbLine
 62
7
  6
CONTINUOUS
 10
2.2308254601
 20
1.4339750316
 11
2.2353923892
 21
1.4277151891
  0
LINE
  5
235
100
AcDbEntity
  8
ART01_PHO
100
AcDbLine
 62
7
  6
CONTINUOUS
 10
2.2035813656
 20
1.4808254253
 11
2.1990144365
 21
1.4870852678
  0
LINE
  5
236
100
AcDbEntity
  8
ART01_PHO
100
AcDbLine
 62
7
  6
CONTINUOUS
 10
2.2794868774
 20
1.3483451103
 11
2.281770342
 21
1.345195504
  0
LINE
  5
237
100
AcDbEntity
  8
ART01_PHO
100
AcDbLine
 62
7
  6
CONTINUOUS
 10
2.176297901
 20
1.4339750316
 11
2.1808254601
 21
1.4277151891
  0
LINE
  5
238
100
AcDbEntity
  8
ART01_PHO
100
AcDbLine
 62
7
  6
CONTINUOUS
 10
2.3090144365
 20
1.3608254253
 11
2.3044868774
 21
1.3670852678
  0
LINE
  5
239
100
AcDbEntity
  8
ART01_PHO
100
AcDbLine
 62
7
  6
CONTINUOUS
 10
1.9658254601
 20
1.370195504
 11
1.9976758538
 21
1.3046049528
  0
LINE
  5
23A
100
AcDbEntity
  8
ART01_PHO
100
AcDbLine
 62
7
  6
CONTINUOUS
 10
1.9072034128
 20
1.490195504
 11
1.9390144365
 21
1.4246049528
  0
LINE
  5
23B
100
AcDbEntity
  8
ART01_PHO
100
AcDbLine
 62
7
  6
CONTINUOUS
 10
2.0681089247
 20
1.370195504
 11
2.0999199483
 21
1.3046049528
  0
LINE
  5
23C
100
AcDbEntity
  8
ART01_PHO
100
AcDbLine
 62
7
  6
CONTINUOUS
 10
1.911297901
 20
1.320195504
 11
1.9135813656
 21
1.3139750316
  0
LINE
  5
23D
100
AcDbEntity
  8
ART01_PHO
100
AcDbLine
 62
7
  6
CONTINUOUS
 10
1.9431089247
 20
1.3546049528
 11
1.9408254601
 21
1.3608254253
  0
LINE
  5
23E
100
AcDbEntity
  8
ART01_PHO
100
AcDbLine
 62
7
  6
CONTINUOUS
 10
1.6208254601
 20
1.490195504
 11
1.6390144365
 21
1.4246049528
  0
LINE
  5
23F
100
AcDbEntity
  8
ART01_PHO
100
AcDbLine
 62
7
  6
CONTINUOUS
 10
1.9090144365
 20
1.3296049528
 11
1.911297901
 21
1.320195504
  0
LINE
  5
240
100
AcDbEntity
  8
ADT_PHO
100
AcDbLine
 62
7
  6
CONTINUOUS
 10
1.396770342
 20
2.0196049528
 11
1.396770342
 21
1.5296049528
  0
LINE
  5
241
100
AcDbEntity
  8
ADT_PHO
100
AcDbLine
 62
7
  6
CONTINUOUS
 10
1.421770342
 20
3.0346049528
 11
1.421770342
 21
3.2346049528
  0
LINE
  5
242
100
AcDbEntity
  8
ADT_PHO
100
AcDbLine
 62
7
  6
CONTINUOUS
 10
1.421770342
 20
3.3146049528
 11
1.421770342
 21
3.5146049528
  0
LINE
  5
243
100
AcDbEntity
  8
ADT_PHO
100
AcDbLine
 62
7
  6
CONTINUOUS
 10
1.456770342
 20
2.7696049528
 11
1.456770342
 21
2.8396049528
  0
LINE
  5
244
100
AcDbEntity
  8
ADT_PHO
100
AcDbLine
 62
7
  6
CONTINUOUS
 10
1.481770342
 20
4.0296049528
 11
1.481770342
 21
4.0996049528
  0
LINE
  5
245
100
AcDbEntity
  8
ADT_PHO
100
AcDbLine
 62
7
  6
CONTINUOUS
 10
1.491770342
 20
3.5146049528
 11
1.491770342
 21
3.3146049528
  0
LINE
  5
246
100
AcDbEntity
  8
ADT_PHO
100
AcDbLine
 62
7
  6
CONTINUOUS
 10
1.491770342
 20
3.2346049528
 11
1.491770342
 21
3.0346049528
  0
LINE
  5
247
100
AcDbEntity
  8
ADT_PHO
100
AcDbLine
 62
7
  6
CONTINUOUS
 10
1.496770342
 20
2.4246049528
 11
1.496770342
 21
2.1746049528
  0
LINE
  5
248
100
AcDbEntity
  8
ADT_PHO
100
AcDbLine
 62
7
  6
CONTINUOUS
 10
1.511770342
 20
3.5946049528
 11
1.511770342
 21
3.6646049528
  0
LINE
  5
249
100
AcDbEntity
  8
ADT_PHO
100
AcDbLine
 62
7
  6
CONTINUOUS
 10
1.526770342
 20
3.3046049528
 11
1.526770342
 21
3.1796049528
  0
LINE
  5
24A
100
AcDbEntity
  8
ADT_PHO
100
AcDbLine
 62
7
  6
CONTINUOUS
 10
1.526770342
 20
3.1496049528
 11
1.526770342
 21
3.0246049528
  0
LINE
  5
24B
100
AcDbEntity
  8
ADT_PHO
100
AcDbLine
 62
7
  6
CONTINUOUS
 10
1.536770342
 20
3.6896049528
 11
1.536770342
 21
3.9696049528
  0
LINE
  5
24C
100
AcDbEntity
  8
ADT_PHO
100
AcDbLine
 62
7
  6
CONTINUOUS
 10
1.546770342
 20
2.7296049528
 11
1.546770342
 21
2.6496049528
  0
LINE
  5
24D
100
AcDbEntity
  8
ADT_PHO
100
AcDbLine
 62
7
  6
CONTINUOUS
 10
1.546770342
 20
2.5446049528
 11
1.546770342
 21
2.6146049528
  0
LINE
  5
24E
100
AcDbEntity
  8
ART01_PHO
100
AcDbLine
 62
7
  6
CONTINUOUS
 10
1.5481089247
 20
1.490195504
 11
1.5481089247
 21
1.4246049528
  0
LINE
  5
24F
100
AcDbEntity
  8
ADT_PHO
100
AcDbLine
 62
7
  6
CONTINUOUS
 10
1.551770342
 20
2.6496049528
 11
1.551770342
 21
2.7296049528
  0
LINE
  5
250
100
AcDbEntity
  8
ADT_PHO
100
AcDbLine
 62
7
  6
CONTINUOUS
 10
1.556770342
 20
3.1796049528
 11
1.556770342
 21
3.1496049528
  0
LINE
  5
251
100
AcDbEntity
  8
ADT_PHO
100
AcDbLine
 62
7
  6
CONTINUOUS
 10
1.556770342
 20
2.6496049528
 11
1.556770342
 21
2.7296049528
  0
LINE
  5
252
100
AcDbEntity
  8
ADT_PHO
100
AcDbLine
 62
7
  6
CONTINUOUS
 10
1.561770342
 20
2.7296049528
 11
1.561770342
 21
2.6496049528
  0
LINE
  5
253
100
AcDbEntity
  8
ADT_PHO
100
AcDbLine
 62
7
  6
CONTINUOUS
 10
1.566770342
 20
2.7296049528
 11
1.566770342
 21
2.6496049528
  0
LINE
  5
254
100
AcDbEntity
  8
ART01_PHO
100
AcDbLine
 62
7
  6
CONTINUOUS
 10
1.5708254601
 20
1.4746049528
 11
1.5708254601
 21
1.4777151891
  0
LINE
  5
255
100
AcDbEntity
  8
ADT_PHO
100
AcDbLine
 62
7
  6
CONTINUOUS
 10
1.571770342
 20
2.7296049528
 11
1.571770342
 21
2.6496049528
  0
LINE
  5
256
100
AcDbEntity
  8
ADT_PHO
100
AcDbLine
 62
7
  6
CONTINUOUS
 10
1.586770342
 20
1.6946049528
 11
1.586770342
 21
1.8446049528
  0
LINE
  5
257
100
AcDbEntity
  8
ADT_PHO
100
AcDbLine
 62
7
  6
CONTINUOUS
 10
1.596770342
 20
2.1746049528
 11
1.596770342
 21
2.4246049528
  0
LINE
  5
258
100
AcDbEntity
  8
ART01_PHO
100
AcDbLine
 62
7
  6
CONTINUOUS
 10
1.5981089247
 20
1.4777151891
 11
1.5981089247
 21
1.4714553465
  0
LINE
  5
259
100
AcDbEntity
  8
ADT_PHO
100
AcDbLine
 62
7
  6
CONTINUOUS
 10
1.631770342
 20
4.0996049528
 11
1.631770342
 21
4.0296049528
  0
LINE
  5
25A
100
AcDbEntity
  8
ADT_PHO
100
AcDbLine
 62
7
  6
CONTINUOUS
 10
1.646770342
 20
2.0396049528
 11
1.646770342
 21
2.4196049528
  0
LINE
  5
25B
100
AcDbEntity
  8
ADT_PHO
100
AcDbLine
 62
7
  6
CONTINUOUS
 10
1.656770342
 20
3.9696049528
 11
1.656770342
 21
3.6896049528
  0
LINE
  5
25C
100
AcDbEntity
  8
ADT_PHO
100
AcDbLine
 62
7
  6
CONTINUOUS
 10
1.656770342
 20
2.8396049528
 11
1.656770342
 21
2.7696049528
  0
LINE
  5
25D
100
AcDbEntity
  8
ADT_PHO
100
AcDbLine
 62
7
  6
CONTINUOUS
 10
1.661770342
 20
3.6646049528
 11
1.661770342
 21
3.5946049528
  0
LINE
  5
25E
100
AcDbEntity
  8
ADT_PHO
100
AcDbLine
 62
7
  6
CONTINUOUS
 10
1.666770342
 20
4.0246049528
 11
1.666770342
 21
4.0946049528
  0
LINE
  5
25F
100
AcDbEntity
  8
ADT_PHO
100
AcDbLine
 62
7
  6
CONTINUOUS
 10
1.691770342
 20
2.7696049528
 11
1.691770342
 21
2.8396049528
  0
LINE
  5
260
100
AcDbEntity
  8
ART01_PHO
100
AcDbLine
 62
7
  6
CONTINUOUS
 10
2.231770342
 20
1.3077151891
 11
2.2385813656
 21
1.3046049528
  0
LINE
  5
261
100
AcDbEntity
  8
ART01_PHO
100
AcDbLine
 62
7
  6
CONTINUOUS
 10
2.2885813656
 20
1.3046049528
 11
2.281770342
 21
1.3077151891
  0
LINE
  5
262
100
AcDbEntity
  8
ART01_PHO
100
AcDbLine
 62
7
  6
CONTINUOUS
 10
2.1931089247
 20
1.370195504
 11
2.1999199483
 21
1.3670852678
  0
LINE
  5
263
100
AcDbEntity
  8
ART01_PHO
100
AcDbLine
 62
7
  6
CONTINUOUS
 10
2.3044868774
 20
1.3670852678
 11
2.2976758538
 21
1.370195504
  0
LINE
  5
264
100
AcDbEntity
  8
ART01_PHO
100
AcDbLine
 62
7
  6
CONTINUOUS
 10
2.2353923892
 20
1.4277151891
 11
2.2422034128
 21
1.4246049528
  0
LINE
  5
265
100
AcDbEntity
  8
ART01_PHO
100
AcDbLine
 62
7
  6
CONTINUOUS
 10
2.286297901
 20
1.3420852678
 11
2.2999199483
 21
1.3358254253
  0
LINE
  5
266
100
AcDbEntity
  8
ART01_PHO
100
AcDbLine
 62
7
  6
CONTINUOUS
 10
2.1931089247
 20
1.3389750316
 11
2.1999199483
 21
1.3358254253
  0
LINE
  5
267
100
AcDbEntity
  8
ART01_PHO
100
AcDbLine
 62
7
  6
CONTINUOUS
 10
2.5108254601
 20
1.4277151891
 11
2.5153923892
 21
1.4246049528
  0
LINE
  5
268
100
AcDbEntity
  8
ART01_PHO
100
AcDbLine
 62
7
  6
CONTINUOUS
 10
2.1990144365
 20
1.4870852678
 11
2.1944868774
 21
1.490195504
  0
LINE
  5
269
100
AcDbEntity
  8
ART01_PHO
100
AcDbLine
 62
7
  6
CONTINUOUS
 10
2.5290144365
 20
1.4870852678
 11
2.5244868774
 21
1.490195504
  0
LINE
  5
26A
100
AcDbEntity
  8
ART01_PHO
100
AcDbLine
 62
7
  6
CONTINUOUS
 10
2.5335813656
 20
1.4808254253
 11
2.5290144365
 21
1.4870852678
  0
LINE
  5
26B
100
AcDbEntity
  8
ART01_PHO
100
AcDbLine
 62
7
  6
CONTINUOUS
 10
2.506297901
 20
1.4339750316
 11
2.5108254601
 21
1.4277151891
  0
LINE
  5
26C
100
AcDbEntity
  8
ART01_PHO
100
AcDbLine
 62
7
  6
CONTINUOUS
 10
2.631297901
 20
1.4870852678
 11
2.6358254601
 21
1.4808254253
  0
LINE
  5
26D
100
AcDbEntity
  8
ART01_PHO
100
AcDbLine
 62
7
  6
CONTINUOUS
 10
2.556297901
 20
1.490195504
 11
2.5881089247
 21
1.4246049528
  0
LINE
  5
26E
100
AcDbEntity
  8
ART01_PHO
100
AcDbLine
 62
7
  6
CONTINUOUS
 10
2.1740144365
 20
1.440195504
 11
2.176297901
 21
1.4339750316
  0
LINE
  5
26F
100
AcDbEntity
  8
ART01_PHO
100
AcDbLine
 62
7
  6
CONTINUOUS
 10
2.2022034128
 20
1.3327151891
 11
2.2044868774
 21
1.3264553465
  0
LINE
  5
270
100
AcDbEntity
  8
ART01_PHO
100
AcDbLine
 62
7
  6
CONTINUOUS
 10
2.2022034128
 20
1.3639750316
 11
2.2044868774
 21
1.3577151891
  0
LINE
  5
271
100
AcDbEntity
  8
ART01_PHO
100
AcDbLine
 62
7
  6
CONTINUOUS
 10
2.2772034128
 20
1.3546049528
 11
2.2794868774
 21
1.3483451103
  0
LINE
  5
272
100
AcDbEntity
  8
ART01_PHO
100
AcDbLine
 62
7
  6
CONTINUOUS
 10
2.2058254601
 20
1.4746049528
 11
2.2035813656
 21
1.4808254253
  0
LINE
  5
273
100
AcDbEntity
  8
ART01_PHO
100
AcDbLine
 62
7
  6
CONTINUOUS
 10
2.306770342
 20
1.3296049528
 11
2.3090144365
 21
1.3233451103
  0
LINE
  5
274
100
AcDbEntity
  8
ART01_PHO
100
AcDbLine
 62
7
  6
CONTINUOUS
 10
2.2249199483
 20
1.3233451103
 11
2.2272034128
 21
1.3139750316
  0
LINE
  5
275
100
AcDbEntity
  8
ART01_PHO
100
AcDbLine
 62
7
  6
CONTINUOUS
 10
1.9453923892
 20
1.345195504
 11
1.9431089247
 21
1.3546049528
  0
LINE
  5
276
100
AcDbEntity
  8
ART01_PHO
100
AcDbLine
 62
7
  6
CONTINUOUS
 10
2.2081089247
 20
1.465195504
 11
2.2058254601
 21
1.4746049528
  0
LINE
  5
277
100
AcDbEntity
  8
ART01_PHO
100
AcDbLine
 62
7
  6
CONTINUOUS
 10
2.2285813656
 20
1.4433451103
 11
2.2308254601
 21
1.4339750316
  0
LINE
  5
278
100
AcDbEntity
  8
ART01_PHO
100
AcDbLine
 62
7
  6
CONTINUOUS
 10
2.171770342
 20
1.4496049528
 11
2.1740144365
 21
1.440195504
  0
LINE
  5
279
100
AcDbEntity
  8
ADT_PHO
100
AcDbLine
 62
7
  6
CONTINUOUS
 10
1.726770342
 20
3.7646049528
 11
1.726770342
 21
3.9646049528
  0
LINE
  5
27A
100
AcDbEntity
  8
ADT_PHO
100
AcDbLine
 62
7
  6
CONTINUOUS
 10
1.731770342
 20
3.4496049528
 11
1.731770342
 21
3.5196049528
  0
LINE
  5
27B
100
AcDbEntity
  8
ADT_PHO
100
AcDbLine
 62
7
  6
CONTINUOUS
 10
1.736770342
 20
3.5546049528
 11
1.736770342
 21
3.6246049528
  0
LINE
  5
27C
100
AcDbEntity
  8
ADT_PHO
100
AcDbLine
 62
7
  6
CONTINUOUS
 10
1.736770342
 20
3.6646049528
 11
1.736770342
 21
3.7346049528
  0
LINE
  5
27D
100
AcDbEntity
  8
ADT_PHO
100
AcDbLine
 62
7
  6
CONTINUOUS
 10
1.746770342
 20
2.6146049528
 11
1.746770342
 21
2.5446049528
  0
LINE
  5
27E
100
AcDbEntity
  8
ADT_PHO
100
AcDbLine
 62
7
  6
CONTINUOUS
 10
1.746770342
 20
2.6496049528
 11
1.746770342
 21
2.7296049528
  0
LINE
  5
27F
100
AcDbEntity
  8
ADT_PHO
100
AcDbLine
 62
7
  6
CONTINUOUS
 10
1.751770342
 20
1.5296049528
 11
1.751770342
 21
2.0196049528
  0
LINE
  5
280
100
AcDbEntity
  8
ADT_PHO
100
AcDbLine
 62
7
  6
CONTINUOUS
 10
1.796770342
 20
3.9646049528
 11
1.796770342
 21
3.7646049528
  0
LINE
  5
281
100
AcDbEntity
  8
ADT_PHO
100
AcDbLine
 62
7
  6
CONTINUOUS
 10
1.826770342
 20
2.6496049528
 11
1.826770342
 21
2.7196049528
  0
LINE
  5
282
100
AcDbEntity
  8
ADT_PHO
100
AcDbLine
 62
7
  6
CONTINUOUS
 10
1.866770342
 20
4.0946049528
 11
1.866770342
 21
4.0246049528
  0
LINE
  5
283
100
AcDbEntity
  8
ADT_PHO
100
AcDbLine
 62
7
  6
CONTINUOUS
 10
1.866770342
 20
2.4196049528
 11
1.866770342
 21
2.0396049528
  0
LINE
  5
284
100
AcDbEntity
  8
ADT_PHO
100
AcDbLine
 62
7
  6
CONTINUOUS
 10
1.886770342
 20
3.6246049528
 11
1.886770342
 21
3.5546049528
  0
LINE
  5
285
100
AcDbEntity
  8
ART01_PHO
100
AcDbLine
 62
7
  6
CONTINUOUS
 10
1.886770342
 20
1.490195504
 11
1.886770342
 21
1.4246049528
  0
LINE
  5
286
100
AcDbEntity
  8
ADT_PHO
100
AcDbLine
 62
7
  6
CONTINUOUS
 10
1.891770342
 20
2.8396049528
 11
1.891770342
 21
2.7696049528
  0
LINE
  5
287
100
AcDbEntity
  8
ADT_PHO
100
AcDbLine
 62
7
  6
CONTINUOUS
 10
1.896770342
 20
2.0396049528
 11
1.896770342
 21
2.4196049528
  0
LINE
  5
288
100
AcDbEntity
  8
ART01_PHO
100
AcDbLine
 62
7
  6
CONTINUOUS
 10
1.9072034128
 20
1.490195504
 11
1.9072034128
 21
1.4246049528
  0
LINE
  5
289
100
AcDbEntity
  8
ART01_PHO
100
AcDbLine
 62
7
  6
CONTINUOUS
 10
1.9090144365
 20
1.345195504
 11
1.9090144365
 21
1.3296049528
  0
LINE
  5
28A
100
AcDbEntity
  8
ADT_PHO
100
AcDbLine
 62
7
  6
CONTINUOUS
 10
1.911770342
 20
1.6946049528
 11
1.911770342
 21
1.8446049528
  0
LINE
  5
28B
100
AcDbEntity
  8
ADT_PHO
100
AcDbLine
 62
7
  6
CONTINUOUS
 10
1.931770342
 20
3.5196049528
 11
1.931770342
 21
3.4496049528
  0
LINE
  5
28C
100
AcDbEntity
  8
ADT_PHO
100
AcDbLine
 62
7
  6
CONTINUOUS
 10
1.936770342
 20
3.7346049528
 11
1.936770342
 21
3.6646049528
  0
LINE
  5
28D
100
AcDbEntity
  8
ART01_PHO
100
AcDbLine
 62
7
  6
CONTINUOUS
 10
1.9390144365
 20
1.490195504
 11
1.9390144365
 21
1.4246049528
  0
LINE
  5
28E
100
AcDbEntity
  8
ART01_PHO
100
AcDbLine
 62
7
  6
CONTINUOUS
 10
1.9453923892
 20
1.3296049528
 11
1.9453923892
 21
1.345195504
  0
LINE
  5
28F
100
AcDbEntity
  8
ART01_PHO
100
AcDbLine
 62
7
  6
CONTINUOUS
 10
1.9658254601
 20
1.370195504
 11
1.9658254601
 21
1.3046049528
  0
LINE
  5
290
100
AcDbEntity
  8
ADT_PHO
100
AcDbLine
 62
7
  6
CONTINUOUS
 10
1.986770342
 20
4.1246049528
 11
1.986770342
 21
3.7846049528
  0
LINE
  5
291
100
AcDbEntity
  8
ADT_PHO
100
AcDbLine
 62
7
  6
CONTINUOUS
 10
1.996770342
 20
3.0246049528
 11
1.996770342
 21
3.3046049528
  0
LINE
  5
292
100
AcDbEntity
  8
ART01_PHO
100
AcDbLine
 62
7
  6
CONTINUOUS
 10
1.9976758538
 20
1.370195504
 11
1.9976758538
 21
1.3046049528
  0
LINE
  5
293
100
AcDbEntity
  8
ADT_PHO
100
AcDbLine
 62
7
  6
CONTINUOUS
 10
2.011770342
 20
4.1646049528
 11
2.011770342
 21
4.2346049528
  0
LINE
  5
294
100
AcDbEntity
  8
ART01_PHO
100
AcDbLine
 62
7
  6
CONTINUOUS
 10
2.0181089247
 20
1.370195504
 11
2.0181089247
 21
1.3046049528
  0
LINE
  5
295
100
AcDbEntity
  8
ADT_PHO
100
AcDbLine
 62
7
  6
CONTINUOUS
 10
2.026770342
 20
2.7196049528
 11
2.026770342
 21
2.6496049528
  0
LINE
  5
296
100
AcDbEntity
  8
ADT_PHO
100
AcDbLine
 62
7
  6
CONTINUOUS
 10
2.026770342
 20
3.7846049528
 11
2.026770342
 21
3.8146049528
  0
LINE
  5
297
100
AcDbEntity
  8
ADT_PHO
100
AcDbLine
 62
7
  6
CONTINUOUS
 10
2.031770342
 20
2.7646049528
 11
2.031770342
 21
2.9646049528
  0
LINE
  5
298
100
AcDbEntity
  8
ADT_PHO
100
AcDbLine
 62
7
  6
CONTINUOUS
 10
2.031770342
 20
2.9846049528
 11
2.031770342
 21
3.1846049528
  0
LINE
  5
299
100
AcDbEntity
  8
ADT_PHO
100
AcDbLine
 62
7
  6
CONTINUOUS
 10
2.076770342
 20
3.8146049528
 11
2.076770342
 21
3.7846049528
  0
LINE
  5
29A
100
AcDbEntity
  8
ADT_PHO
100
AcDbLine
 62
7
  6
CONTINUOUS
 10
2.076770342
 20
1.5296049528
 11
2.076770342
 21
2.0196049528
  0
LINE
  5
29B
100
AcDbEntity
  8
ADT_PHO
100
AcDbLine
 62
7
  6
CONTINUOUS
 10
2.091770342
 20
3.4246049528
 11
2.091770342
 21
3.6246049528
  0
LINE
  5
29C
100
AcDbEntity
  8
ART01_PHO
100
AcDbLine
 62
7
  6
CONTINUOUS
 10
3.221297901
 20
1.4319277875
 11
3.2264160113
 21
1.4296049528
  0
LINE
  5
29D
100
AcDbEntity
  8
ART01_PHO
100
AcDbLine
 62
7
  6
CONTINUOUS
 10
2.6244868774
 20
1.490195504
 11
2.631297901
 21
1.4870852678
  0
LINE
  5
29E
100
AcDbEntity
  8
ART01_PHO
100
AcDbLine
 62
7
  6
CONTINUOUS
 10
3.1953923892
 20
1.3096049528
 11
3.1885813656
 21
1.3127151891
  0
LINE
  5
29F
100
AcDbEntity
  8
ART01_PHO
100
AcDbLine
 62
7
  6
CONTINUOUS
 10
2.9026758538
 20
1.495195504
 11
2.9094868774
 21
1.4920852678
  0
LINE
  5
2A0
100
AcDbEntity
  8
ART01_PHO
100
AcDbLine
 62
7
  6
CONTINUOUS
 10
3.211297901
 20
1.3720852678
 11
3.2044868774
 21
1.375195504
  0
LINE
  5
2A1
100
AcDbEntity
  8
ART01_PHO
100
AcDbLine
 62
7
  6
CONTINUOUS
 10
3.4672034128
 20
1.375195504
 11
3.4740144365
 21
1.3720852678
  0
LINE
  5
2A2
100
AcDbEntity
  8
ART01_PHO
100
AcDbLine
 62
7
  6
CONTINUOUS
 10
3.576297901
 20
1.375195504
 11
3.5831089247
 21
1.3720852678
  0
LINE
  5
2A3
100
AcDbEntity
  8
ART01_PHO
100
AcDbLine
 62
7
  6
CONTINUOUS
 10
3.1931089247
 20
1.3470852678
 11
3.206770342
 21
1.3408254253
  0
LINE
  5
2A4
100
AcDbEntity
  8
ART01_PHO
100
AcDbLine
 62
7
  6
CONTINUOUS
 10
3.5081089247
 20
1.3127151891
 11
3.5126758538
 21
1.3096049528
  0
LINE
  5
2A5
100
AcDbEntity
  8
ART01_PHO
100
AcDbLine
 62
7
  6
CONTINUOUS
 10
3.1885813656
 20
1.350195504
 11
3.1931089247
 21
1.3470852678
  0
LINE
  5
2A6
100
AcDbEntity
  8
ART01_PHO
100
AcDbLine
 62
7
  6
CONTINUOUS
 10
3.206770342
 20
1.3408254253
 11
3.211297901
 21
1.3377151891
  0
LINE
  5
2A7
100
AcDbEntity
  8
ART01_PHO
100
AcDbLine
 62
7
  6
CONTINUOUS
 10
3.526297901
 20
1.3720852678
 11
3.521770342
 21
1.375195504
  0
LINE
  5
2A8
100
AcDbEntity
  8
ART01_PHO
100
AcDbLine
 62
7
  6
CONTINUOUS
 10
3.5603923892
 20
1.4327151891
 11
3.5649199483
 21
1.4296049528
  0
LINE
  5
2A9
100
AcDbEntity
  8
ART01_PHO
100
AcDbLine
 62
7
  6
CONTINUOUS
 10
2.9094868774
 20
1.4920852678
 11
2.911770342
 21
1.4889750316
  0
LINE
  5
2AA
100
AcDbEntity
  8
ART01_PHO
100
AcDbLine
 62
7
  6
CONTINUOUS
 10
3.211297901
 20
1.3377151891
 11
3.2135813656
 21
1.3346049528
  0
LINE
  5
2AB
100
AcDbEntity
  8
ART01_PHO
100
AcDbLine
 62
7
  6
CONTINUOUS
 10
3.2178727042
 20
1.4366128268
 11
3.221297901
 21
1.4319277875
  0
LINE
  5
2AC
100
AcDbEntity
  8
ART01_PHO
100
AcDbLine
 62
7
  6
CONTINUOUS
 10
3.1885813656
 20
1.3127151891
 11
3.1840144365
 21
1.3189750316
  0
LINE
  5
2AD
100
AcDbEntity
  8
ART01_PHO
100
AcDbLine
 62
7
  6
CONTINUOUS
 10
3.186297901
 20
1.3533451103
 11
3.1885813656
 21
1.350195504
  0
LINE
  5
2AE
100
AcDbEntity
  8
ART01_PHO
100
AcDbLine
 62
7
  6
CONTINUOUS
 10
3.2158254601
 20
1.3658254253
 11
3.211297901
 21
1.3720852678
  0
LINE
  5
2AF
100
AcDbEntity
  8
ART01_PHO
100
AcDbLine
 62
7
  6
CONTINUOUS
 10
2.9885813656
 20
1.3470852678
 11
3.0090144365
 21
1.3096049528
  0
LINE
  5
2B0
100
AcDbEntity
  8
ART01_PHO
100
AcDbLine
 62
7
  6
CONTINUOUS
 10
2.8981089247
 20
1.4639750316
 11
2.9140144365
 21
1.4296049528
  0
LINE
  5
2B1
100
AcDbEntity
  8
ART01_PHO
100
AcDbLine
 62
7
  6
CONTINUOUS
 10
2.5040144365
 20
1.440195504
 11
2.506297901
 21
1.4339750316
  0
LINE
  5
2B2
100
AcDbEntity
  8
ART01_PHO
100
AcDbLine
 62
7
  6
CONTINUOUS
 10
2.6358254601
 20
1.4808254253
 11
2.6381089247
 21
1.4746049528
  0
LINE
  5
2B3
100
AcDbEntity
  8
ART01_PHO
100
AcDbLine
 62
7
  6
CONTINUOUS
 10
2.5358254601
 20
1.4746049528
 11
2.5335813656
 21
1.4808254253
  0
LINE
  5
2B4
100
AcDbEntity
  8
ART01_PHO
100
AcDbLine
 62
7
  6
CONTINUOUS
 10
2.6381089247
 20
1.4746049528
 11
2.6403923892
 21
1.465195504
  0
LINE
  5
2B5
100
AcDbEntity
  8
ART01_PHO
100
AcDbLine
 62
7
  6
CONTINUOUS
 10
2.501770342
 20
1.4496049528
 11
2.5040144365
 21
1.440195504
  0
LINE
  5
2B6
100
AcDbEntity
  8
ADT_PHO
100
AcDbLine
 62
7
  6
CONTINUOUS
 10
2.101770342
 20
3.1846049528
 11
2.101770342
 21
2.9846049528
  0
LINE
  5
2B7
100
AcDbEntity
  8
ADT_PHO
100
AcDbLine
 62
7
  6
CONTINUOUS
 10
2.101770342
 20
2.9646049528
 11
2.101770342
 21
2.7646049528
  0
LINE
  5
2B8
100
AcDbEntity
  8
ADT_PHO
100
AcDbLine
 62
7
  6
CONTINUOUS
 10
2.116770342
 20
2.4196049528
 11
2.116770342
 21
2.0396049528
  0
LINE
  5
2B9
100
AcDbEntity
  8
ADT_PHO
100
AcDbLine
 62
7
  6
CONTINUOUS
 10
2.116770342
 20
3.7846049528
 11
2.116770342
 21
4.1246049528
  0
LINE
  5
2BA
100
AcDbEntity
  8
ADT_PHO
100
AcDbLine
 62
7
  6
CONTINUOUS
 10
2.131770342
 20
2.5896049528
 11
2.131770342
 21
2.6796049528
  0
LINE
  5
2BB
100
AcDbEntity
  8
ADT_PHO
100
AcDbLine
 62
7
  6
CONTINUOUS
 10
2.136770342
 20
2.7196049528
 11
2.136770342
 21
2.7896049528
  0
LINE
  5
2BC
100
AcDbEntity
  8
ADT_PHO
100
AcDbLine
 62
7
  6
CONTINUOUS
 10
2.146770342
 20
2.0396049528
 11
2.146770342
 21
2.4196049528
  0
LINE
  5
2BD
100
AcDbEntity
  8
ADT_PHO
100
AcDbLine
 62
7
  6
CONTINUOUS
 10
2.161770342
 20
3.6246049528
 11
2.161770342
 21
3.4246049528
  0
LINE
  5
2BE
100
AcDbEntity
  8
ART01_PHO
100
AcDbLine
 62
7
  6
CONTINUOUS
 10
2.171770342
 20
1.465195504
 11
2.171770342
 21
1.4496049528
  0
LINE
  5
2BF
100
AcDbEntity
  8
ART01_PHO
100
AcDbLine
 62
7
  6
CONTINUOUS
 10
2.1726758538
 20
1.370195504
 11
2.1726758538
 21
1.3046049528
  0
LINE
  5
2C0
100
AcDbEntity
  8
ADT_PHO
100
AcDbLine
 62
7
  6
CONTINUOUS
 10
2.191770342
 20
2.8396049528
 11
2.191770342
 21
3.0396049528
  0
LINE
  5
2C1
100
AcDbEntity
  8
ADT_PHO
100
AcDbLine
 62
7
  6
CONTINUOUS
 10
2.191770342
 20
3.4646049528
 11
2.191770342
 21
3.6146049528
  0
LINE
  5
2C2
100
AcDbEntity
  8
ART01_PHO
100
AcDbLine
 62
7
  6
CONTINUOUS
 10
2.2044868774
 20
1.3577151891
 11
2.2044868774
 21
1.3514553465
  0
LINE
  5
2C3
100
AcDbEntity
  8
ART01_PHO
100
AcDbLine
 62
7
  6
CONTINUOUS
 10
2.2044868774
 20
1.3264553465
 11
2.2044868774
 21
1.3170852678
  0
LINE
  5
2C4
100
AcDbEntity
  8
ART01_PHO
100
AcDbLine
 62
7
  6
CONTINUOUS
 10
2.2081089247
 20
1.4496049528
 11
2.2081089247
 21
1.465195504
  0
LINE
  5
2C5
100
AcDbEntity
  8
ADT_PHO
100
AcDbLine
 62
7
  6
CONTINUOUS
 10
2.211770342
 20
4.2346049528
 11
2.211770342
 21
4.1646049528
  0
LINE
  5
2C6
100
AcDbEntity
  8
ART01_PHO
100
AcDbLine
 62
7
  6
CONTINUOUS
 10
2.2249199483
 20
1.370195504
 11
2.2249199483
 21
1.3233451103
  0
LINE
  5
2C7
100
AcDbEntity
  8
ART01_PHO
100
AcDbLine
 62
7
  6
CONTINUOUS
 10
2.2285813656
 20
1.490195504
 11
2.2285813656
 21
1.4433451103
  0
LINE
  5
2C8
100
AcDbEntity
  8
ADT_PHO
100
AcDbLine
 62
7
  6
CONTINUOUS
 10
2.236770342
 20
1.6946049528
 11
2.236770342
 21
1.8446049528
  0
LINE
  5
2C9
100
AcDbEntity
  8
ART01_PHO
100
AcDbLine
 62
7
  6
CONTINUOUS
 10
2.256770342
 20
1.3233451103
 11
2.256770342
 21
1.370195504
  0
LINE
  5
2CA
100
AcDbEntity
  8
ADT_PHO
100
AcDbLine
 62
7
  6
CONTINUOUS
 10
2.256770342
 20
4.0346049528
 11
2.256770342
 21
4.2346049528
  0
LINE
  5
2CB
100
AcDbEntity
  8
ART01_PHO
100
AcDbLine
 62
7
  6
CONTINUOUS
 10
2.2603923892
 20
1.4433451103
 11
2.2603923892
 21
1.490195504
  0
LINE
  5
2CC
100
AcDbEntity
  8
ADT_PHO
100
AcDbLine
 62
7
  6
CONTINUOUS
 10
2.261770342
 20
3.6146049528
 11
2.261770342
 21
3.4646049528
  0
LINE
  5
2CD
100
AcDbEntity
  8
ADT_PHO
100
AcDbLine
 62
7
  6
CONTINUOUS
 10
2.261770342
 20
3.0396049528
 11
2.261770342
 21
2.8396049528
  0
LINE
  5
2CE
100
AcDbEntity
  8
ART01_PHO
100
AcDbLine
 62
7
  6
CONTINUOUS
 10
2.2772034128
 20
1.3608254253
 11
2.2772034128
 21
1.3546049528
  0
LINE
  5
2CF
100
AcDbEntity
  8
ART01_PHO
100
AcDbLine
 62
7
  6
CONTINUOUS
 10
2.296770342
 20
1.490195504
 11
2.296770342
 21
1.4246049528
  0
LINE
  5
2D0
100
AcDbEntity
  8
ART01_PHO
100
AcDbLine
 62
7
  6
CONTINUOUS
 10
2.3090144365
 20
1.3233451103
 11
2.3090144365
 21
1.3139750316
  0
LINE
  5
2D1
100
AcDbEntity
  8
ADT_PHO
100
AcDbLine
 62
7
  6
CONTINUOUS
 10
2.321770342
 20
2.6796049528
 11
2.321770342
 21
2.5896049528
  0
LINE
  5
2D2
100
AcDbEntity
  8
ADT_PHO
100
AcDbLine
 62
7
  6
CONTINUOUS
 10
2.326770342
 20
4.2346049528
 11
2.326770342
 21
4.0346049528
  0
LINE
  5
2D3
100
AcDbEntity
  8
ADT_PHO
100
AcDbLine
 62
7
  6
CONTINUOUS
 10
2.336770342
 20
2.7896049528
 11
2.336770342
 21
2.7196049528
  0
LINE
  5
2D4
100
AcDbEntity
  8
ADT_PHO
100
AcDbLine
 62
7
  6
CONTINUOUS
 10
2.366770342
 20
3.7946049528
 11
2.366770342
 21
3.0846049528
  0
LINE
  5
2D5
100
AcDbEntity
  8
ADT_PHO
100
AcDbLine
 62
7
  6
CONTINUOUS
 10
2.366770342
 20
2.4196049528
 11
2.366770342
 21
2.0396049528
  0
LINE
  5
2D6
100
AcDbEntity
  8
ADT_PHO
100
AcDbLine
 62
7
  6
CONTINUOUS
 10
2.376770342
 20
2.9446049528
 11
2.376770342
 21
3.0146049528
  0
LINE
  5
2D7
100
AcDbEntity
  8
ADT_PHO
100
AcDbLine
 62
7
  6
CONTINUOUS
 10
2.401770342
 20
1.5296049528
 11
2.401770342
 21
2.0196049528
  0
LINE
  5
2D8
100
AcDbEntity
  8
ADT_PHO
100
AcDbLine
 62
7
  6
CONTINUOUS
 10
2.456770342
 20
2.0396049528
 11
2.456770342
 21
2.2396049528
  0
LINE
  5
2D9
100
AcDbEntity
  8
ADT_PHO
100
AcDbLine
 62
7
  6
CONTINUOUS
 10
2.466770342
 20
2.3646049528
 11
2.466770342
 21
2.4346049528
  0
LINE
  5
2DA
100
AcDbEntity
  8
ADT_PHO
100
AcDbLine
 62
7
  6
CONTINUOUS
 10
2.471770342
 20
2.5396049528
 11
2.471770342
 21
2.4596049528
  0
LINE
  5
2DB
100
AcDbEntity
  8
ADT_PHO
100
AcDbLine
 62
7
  6
CONTINUOUS
 10
2.471770342
 20
2.5896049528
 11
2.471770342
 21
2.6596049528
  0
LINE
  5
2DC
100
AcDbEntity
  8
ADT_PHO
100
AcDbLine
 62
7
  6
CONTINUOUS
 10
2.476770342
 20
2.4596049528
 11
2.476770342
 21
2.5396049528
  0
LINE
  5
2DD
100
AcDbEntity
  8
ART01_PHO
100
AcDbLine
 62
7
  6
CONTINUOUS
 10
3.4672034128
 20
1.495195504
 11
3.4740144365
 21
1.4920852678
  0
LINE
  5
2DE
100
AcDbEntity
  8
ART01_PHO
100
AcDbLine
 62
7
  6
CONTINUOUS
 10
3.5194868774
 20
1.495195504
 11
3.526297901
 21
1.4920852678
  0
LINE
  5
2DF
100
AcDbEntity
  8
ART01_PHO
100
AcDbLine
 62
7
  6
CONTINUOUS
 10
3.9972034128
 20
1.375195504
 11
4.0040144365
 21
1.3720852678
  0
LINE
  5
2E0
100
AcDbEntity
  8
ART01_PHO
100
AcDbLine
 62
7
  6
CONTINUOUS
 10
4.2222034128
 20
1.375195504
 11
4.2290144365
 21
1.3720852678
  0
LINE
  5
2E1
100
AcDbEntity
  8
ART01_PHO
100
AcDbLine
 62
7
  6
CONTINUOUS
 10
4.6303923892
 20
1.3127151891
 11
4.6372034128
 21
1.3096049528
  0
LINE
  5
2E2
100
AcDbEntity
  8
ART01_PHO
100
AcDbLine
 62
7
  6
CONTINUOUS
 10
3.6172034128
 20
1.4327151891
 11
3.621770342
 21
1.4296049528
  0
LINE
  5
2E3
100
AcDbEntity
  8
ART01_PHO
100
AcDbLine
 62
7
  6
CONTINUOUS
 10
3.5785813656
 20
1.4920852678
 11
3.5740144365
 21
1.495195504
  0
LINE
  5
2E4
100
AcDbEntity
  8
ART01_PHO
100
AcDbLine
 62
7
  6
CONTINUOUS
 10
3.6353923892
 20
1.4920852678
 11
3.6308254601
 21
1.495195504
  0
LINE
  5
2E5
100
AcDbEntity
  8
ART01_PHO
100
AcDbLine
 62
7
  6
CONTINUOUS
 10
4.0381089247
 20
1.3127151891
 11
4.0426758538
 21
1.3096049528
  0
LINE
  5
2E6
100
AcDbEntity
  8
ART01_PHO
100
AcDbLine
 62
7
  6
CONTINUOUS
 10
4.056297901
 20
1.3720852678
 11
4.051770342
 21
1.375195504
  0
LINE
  5
2E7
100
AcDbEntity
  8
ART01_PHO
100
AcDbLine
 62
7
  6
CONTINUOUS
 10
3.4740144365
 20
1.3720852678
 11
3.476297901
 21
1.3689750316
  0
LINE
  5
2E8
100
AcDbEntity
  8
ART01_PHO
100
AcDbLine
 62
7
  6
CONTINUOUS
 10
3.4740144365
 20
1.4920852678
 11
3.476297901
 21
1.4889750316
  0
LINE
  5
2E9
100
AcDbEntity
  8
ART01_PHO
100
AcDbLine
 62
7
  6
CONTINUOUS
 10
3.5831089247
 20
1.3720852678
 11
3.5853923892
 21
1.3689750316
  0
LINE
  5
2EA
100
AcDbEntity
  8
ART01_PHO
100
AcDbLine
 62
7
  6
CONTINUOUS
 10
3.526297901
 20
1.4920852678
 11
3.5285813656
 21
1.4889750316
  0
LINE
  5
2EB
100
AcDbEntity
  8
ART01_PHO
100
AcDbLine
 62
7
  6
CONTINUOUS
 10
3.5558254601
 20
1.4389750316
 11
3.5603923892
 21
1.4327151891
  0
LINE
  5
2EC
100
AcDbEntity
  8
ART01_PHO
100
AcDbLine
 62
7
  6
CONTINUOUS
 10
3.5035813656
 20
1.3189750316
 11
3.5081089247
 21
1.3127151891
  0
LINE
  5
2ED
100
AcDbEntity
  8
ART01_PHO
100
AcDbLine
 62
7
  6
CONTINUOUS
 10
3.5308254601
 20
1.3658254253
 11
3.526297901
 21
1.3720852678
  0
LINE
  5
2EE
100
AcDbEntity
  8
ART01_PHO
100
AcDbLine
 62
7
  6
CONTINUOUS
 10
3.6126758538
 20
1.4389750316
 11
3.6172034128
 21
1.4327151891
  0
LINE
  5
2EF
100
AcDbEntity
  8
ART01_PHO
100
AcDbLine
 62
7
  6
CONTINUOUS
 10
3.5831089247
 20
1.4858254253
 11
3.5785813656
 21
1.4920852678
  0
LINE
  5
2F0
100
AcDbEntity
  8
ART01_PHO
100
AcDbLine
 62
7
  6
CONTINUOUS
 10
3.6399199483
 20
1.4858254253
 11
3.6353923892
 21
1.4920852678
  0
LINE
  5
2F1
100
AcDbEntity
  8
ART01_PHO
100
AcDbLine
 62
7
  6
CONTINUOUS
 10
3.1769671924
 20
1.4788175513
 11
3.2008254601
 21
1.4296049528
  0
LINE
  5
2F2
100
AcDbEntity
  8
ART01_PHO
100
AcDbLine
 62
7
  6
CONTINUOUS
 10
3.1840144365
 20
1.3596049528
 11
3.186297901
 21
1.3533451103
  0
LINE
  5
2F3
100
AcDbEntity
  8
ART01_PHO
100
AcDbLine
 62
7
  6
CONTINUOUS
 10
2.911770342
 20
1.4889750316
 11
2.9140144365
 21
1.4827151891
  0
LINE
  5
2F4
100
AcDbEntity
  8
ART01_PHO
100
AcDbLine
 62
7
  6
CONTINUOUS
 10
3.2135813656
 20
1.3346049528
 11
3.2158254601
 21
1.3283451103
  0
LINE
  5
2F5
100
AcDbEntity
  8
ART01_PHO
100
AcDbLine
 62
7
  6
CONTINUOUS
 10
2.8908254601
 20
1.375195504
 11
2.9090144365
 21
1.3096049528
  0
LINE
  5
2F6
100
AcDbEntity
  8
ART01_PHO
100
AcDbLine
 62
7
  6
CONTINUOUS
 10
3.091770342
 20
1.4788175513
 11
3.1053923892
 21
1.4296049528
  0
LINE
  5
2F7
100
AcDbEntity
  8
ART01_PHO
100
AcDbLine
 62
7
  6
CONTINUOUS
 10
2.806770342
 20
1.375195504
 11
2.8181089247
 21
1.3096049528
  0
LINE
  5
2F8
100
AcDbEntity
  8
ART01_PHO
100
AcDbLine
 62
7
  6
CONTINUOUS
 10
2.8294868774
 20
1.375195504
 11
2.8408254601
 21
1.3096049528
  0
LINE
  5
2F9
100
AcDbEntity
  8
ADT_PHO
100
AcDbLine
 62
7
  6
CONTINUOUS
 10
2.481770342
 20
3.7496049528
 11
2.481770342
 21
3.1296049528
  0
LINE
  5
2FA
100
AcDbEntity
  8
ADT_PHO
100
AcDbLine
 62
7
  6
CONTINUOUS
 10
2.481770342
 20
2.4596049528
 11
2.481770342
 21
2.5396049528
  0
LINE
  5
2FB
100
AcDbEntity
  8
ADT_PHO
100
AcDbLine
 62
7
  6
CONTINUOUS
 10
2.486770342
 20
2.5396049528
 11
2.486770342
 21
2.4596049528
  0
LINE
  5
2FC
100
AcDbEntity
  8
ADT_PHO
100
AcDbLine
 62
7
  6
CONTINUOUS
 10
2.491770342
 20
2.5396049528
 11
2.491770342
 21
2.4596049528
  0
LINE
  5
2FD
100
AcDbEntity
  8
ADT_PHO
100
AcDbLine
 62
7
  6
CONTINUOUS
 10
2.496770342
 20
2.5396049528
 11
2.496770342
 21
2.4596049528
  0
LINE
  5
2FE
100
AcDbEntity
  8
ART01_PHO
100
AcDbLine
 62
7
  6
CONTINUOUS
 10
2.501770342
 20
1.465195504
 11
2.501770342
 21
1.4496049528
  0
LINE
  5
2FF
100
AcDbEntity
  8
ADT_PHO
100
AcDbLine
 62
7
  6
CONTINUOUS
 10
2.526770342
 20
2.2396049528
 11
2.526770342
 21
2.0396049528
  0
LINE
  5
300
100
AcDbEntity
  8
ART01_PHO
100
AcDbLine
 62
7
  6
CONTINUOUS
 10
2.5358254601
 20
1.440195504
 11
2.5358254601
 21
1.4496049528
  0
LINE
  5
301
100
AcDbEntity
  8
ART01_PHO
100
AcDbLine
 62
7
  6
CONTINUOUS
 10
2.556297901
 20
1.490195504
 11
2.556297901
 21
1.4246049528
  0
LINE
  5
302
100
AcDbEntity
  8
ADT_PHO
100
AcDbLine
 62
7
  6
CONTINUOUS
 10
2.556770342
 20
2.1196049528
 11
2.556770342
 21
2.1696049528
  0
LINE
  5
303
100
AcDbEntity
  8
ADT_PHO
100
AcDbLine
 62
7
  6
CONTINUOUS
 10
2.5573215231
 20
4.091179756
 11
2.5573215231
 21
3.8676364489
  0
LINE
  5
304
100
AcDbEntity
  8
ADT_PHO
100
AcDbLine
 62
7
  6
CONTINUOUS
 10
2.561770342
 20
1.6946049528
 11
2.561770342
 21
1.8446049528
  0
LINE
  5
305
100
AcDbEntity
  8
ADT_PHO
100
AcDbLine
 62
7
  6
CONTINUOUS
 10
2.576770342
 20
3.0146049528
 11
2.576770342
 21
2.9446049528
  0
LINE
  5
306
100
AcDbEntity
  8
ADT_PHO
100
AcDbLine
 62
7
  6
CONTINUOUS
 10
2.581770342
 20
3.1296049528
 11
2.581770342
 21
3.1746049528
  0
LINE
  5
307
100
AcDbEntity
  8
ADT_PHO
100
AcDbLine
 62
7
  6
CONTINUOUS
 10
2.581770342
 20
4.1546049528
 11
2.581770342
 21
4.2246049528
  0
LINE
  5
308
100
AcDbEntity
  8
ART01_PHO
100
AcDbLine
 62
7
  6
CONTINUOUS
 10
2.5881089247
 20
1.490195504
 11
2.5881089247
 21
1.4246049528
  0
LINE
  5
309
100
AcDbEntity
  8
ADT_PHO
100
AcDbLine
 62
7
  6
CONTINUOUS
 10
2.596770342
 20
2.1696049528
 11
2.596770342
 21
2.2146049528
  0
LINE
  5
30A
100
AcDbEntity
  8
ADT_PHO
100
AcDbLine
 62
7
  6
CONTINUOUS
 10
2.6023215231
 20
3.8676364489
 11
2.6023215231
 21
3.8876364489
  0
LINE
  5
30B
100
AcDbEntity
  8
ART01_PHO
100
AcDbLine
 62
7
  6
CONTINUOUS
 10
2.6085813656
 20
1.490195504
 11
2.6085813656
 21
1.4246049528
  0
LINE
  5
30C
100
AcDbEntity
  8
ADT_PHO
100
AcDbLine
 62
7
  6
CONTINUOUS
 10
2.611770342
 20
3.1746049528
 11
2.611770342
 21
3.1296049528
  0
LINE
  5
30D
100
AcDbEntity
  8
ADT_PHO
100
AcDbLine
 62
7
  6
CONTINUOUS
 10
2.631770342
 20
2.1196049528
 11
2.631770342
 21
2.0746049528
  0
LINE
  5
30E
100
AcDbEntity
  8
ART01_PHO
100
AcDbLine
 62
7
  6
CONTINUOUS
 10
2.6403923892
 20
1.465195504
 11
2.6403923892
 21
1.4496049528
  0
LINE
  5
30F
100
AcDbEntity
  8
ADT_PHO
100
AcDbLine
 62
7
  6
CONTINUOUS
 10
2.6423215231
 20
3.8876364489
 11
2.6423215231
 21
3.8676364489
  0
LINE
  5
310
100
AcDbEntity
  8
ADT_PHO
100
AcDbLine
 62
7
  6
CONTINUOUS
 10
2.666770342
 20
2.4346049528
 11
2.666770342
 21
2.3646049528
  0
LINE
  5
311
100
AcDbEntity
  8
ADT_PHO
100
AcDbLine
 62
7
  6
CONTINUOUS
 10
2.666770342
 20
2.1696049528
 11
2.666770342
 21
2.2146049528
  0
LINE
  5
312
100
AcDbEntity
  8
ADT_PHO
100
AcDbLine
 62
7
  6
CONTINUOUS
 10
2.671770342
 20
2.6596049528
 11
2.671770342
 21
2.5896049528
  0
LINE
  5
313
100
AcDbEntity
  8
ADT_PHO
100
AcDbLine
 62
7
  6
CONTINUOUS
 10
2.671770342
 20
2.4596049528
 11
2.671770342
 21
2.5396049528
  0
LINE
  5
314
100
AcDbEntity
  8
ADT_PHO
100
AcDbLine
 62
7
  6
CONTINUOUS
 10
2.6873215231
 20
3.8676364489
 11
2.6873215231
 21
4.091179756
  0
LINE
  5
315
100
AcDbEntity
  8
ADT_PHO
100
AcDbLine
 62
7
  6
CONTINUOUS
 10
2.706770342
 20
2.1696049528
 11
2.706770342
 21
2.1196049528
  0
LINE
  5
316
100
AcDbEntity
  8
ADT_PHO
100
AcDbLine
 62
7
  6
CONTINUOUS
 10
2.711770342
 20
3.1296049528
 11
2.711770342
 21
3.7496049528
  0
LINE
  5
317
100
AcDbEntity
  8
ART01_PHO
100
AcDbLine
 62
7
  6
CONTINUOUS
 10
2.721770342
 20
1.5046049528
 11
2.721770342
 21
1.2996049528
  0
LINE
  5
318
100
AcDbEntity
  8
ADT_PHO
100
AcDbLine
 62
7
  6
CONTINUOUS
 10
2.721770342
 20
1.5296049528
 11
2.721770342
 21
2.0196049528
  0
LINE
  5
319
100
AcDbEntity
  8
ADT_PHO
100
AcDbLine
 62
7
  6
CONTINUOUS
 10
2.726770342
 20
2.9396049528
 11
2.726770342
 21
3.0196049528
  0
LINE
  5
31A
100
AcDbEntity
  8
ADT_PHO
100
AcDbLine
 62
7
  6
CONTINUOUS
 10
2.776770342
 20
2.0396049528
 11
2.776770342
 21
2.2396049528
  0
LINE
  5
31B
100
AcDbEntity
  8
ADT_PHO
100
AcDbLine
 62
7
  6
CONTINUOUS
 10
2.781770342
 20
4.2246049528
 11
2.781770342
 21
4.1546049528
  0
LINE
  5
31C
100
AcDbEntity
  8
ART01_PHO
100
AcDbLine
 62
7
  6
CONTINUOUS
 10
2.811770342
 20
1.495195504
 11
2.811770342
 21
1.4296049528
  0
LINE
  5
31D
100
AcDbEntity
  8
ADT_PHO
100
AcDbLine
 62
7
  6
CONTINUOUS
 10
2.816770342
 20
3.0196049528
 11
2.816770342
 21
2.9396049528
  0
LINE
  5
31E
100
AcDbEntity
  8
ADT_PHO
100
AcDbLine
 62
7
  6
CONTINUOUS
 10
2.826770342
 20
3.0846049528
 11
2.826770342
 21
3.7946049528
  0
LINE
  5
31F
100
AcDbEntity
  8
ADT_PHO
100
AcDbLine
 62
7
  6
CONTINUOUS
 10
2.836770342
 20
3.8396049528
 11
2.836770342
 21
4.0396049528
  0
LINE
  5
320
100
AcDbEntity
  8
ADT_PHO
100
AcDbLine
 62
7
  6
CONTINUOUS
 10
2.846770342
 20
2.2396049528
 11
2.846770342
 21
2.0396049528
  0
LINE
  5
321
100
AcDbEntity
  8
ART01_PHO
100
AcDbLine
 62
7
  6
CONTINUOUS
 10
2.861770342
 20
1.495195504
 11
2.861770342
 21
1.4296049528
  0
LINE
  5
322
100
AcDbEntity
  8
ART01_PHO
100
AcDbLine
 62
7
  6
CONTINUOUS
 10
1.911297901
 20
1.3546049528
 11
1.9090144365
 21
1.345195504
  0
LINE
  5
323
100
AcDbEntity
  8
ART01_PHO
100
AcDbLine
 62
7
  6
CONTINUOUS
 10
1.9431089247
 20
1.320195504
 11
1.9453923892
 21
1.3296049528
  0
LINE
  5
324
100
AcDbEntity
  8
ART01_PHO
100
AcDbLine
 62
7
  6
CONTINUOUS
 10
1.6572034128
 20
1.490195504
 11
1.6390144365
 21
1.4246049528
  0
LINE
  5
325
100
AcDbEntity
  8
ART01_PHO
100
AcDbLine
 62
7
  6
CONTINUOUS
 10
1.5708254601
 20
1.4777151891
 11
1.5731089247
 21
1.4839750316
  0
LINE
  5
326
100
AcDbEntity
  8
ART01_PHO
100
AcDbLine
 62
7
  6
CONTINUOUS
 10
1.5981089247
 20
1.4714553465
 11
1.5958254601
 21
1.465195504
  0
LINE
  5
327
100
AcDbEntity
  8
ADT_PHO
100
AcDbLine
 62
7
  6
CONTINUOUS
 10
1.236770342
 20
1.2696049528
 11
6.736770342
 21
1.2696049528
  0
LINE
  5
328
100
AcDbEntity
  8
ART01_PHO
100
AcDbLine
 62
7
  6
CONTINUOUS
 10
2.2976758538
 20
1.3046049528
 11
2.2885813656
 21
1.3046049528
  0
LINE
  5
329
100
AcDbEntity
  8
ART01_PHO
100
AcDbLine
 62
7
  6
CONTINUOUS
 10
2.1931089247
 20
1.3046049528
 11
2.1726758538
 21
1.3046049528
  0
LINE
  5
32A
100
AcDbEntity
  8
ART01_PHO
100
AcDbLine
 62
7
  6
CONTINUOUS
 10
1.856770342
 20
1.3046049528
 11
1.8885813656
 21
1.3046049528
  0
LINE
  5
32B
100
AcDbEntity
  8
ART01_PHO
100
AcDbLine
 62
7
  6
CONTINUOUS
 10
1.9226758538
 20
1.3046049528
 11
1.931770342
 21
1.3046049528
  0
LINE
  5
32C
100
AcDbEntity
  8
ART01_PHO
100
AcDbLine
 62
7
  6
CONTINUOUS
 10
2.0181089247
 20
1.3046049528
 11
2.0476758538
 21
1.3046049528
  0
LINE
  5
32D
100
AcDbEntity
  8
ART01_PHO
100
AcDbLine
 62
7
  6
CONTINUOUS
 10
2.2385813656
 20
1.3046049528
 11
2.2431089247
 21
1.3046049528
  0
LINE
  5
32E
100
AcDbEntity
  8
ART01_PHO
100
AcDbLine
 62
7
  6
CONTINUOUS
 10
6.3249199483
 20
1.3096049528
 11
6.3044868774
 21
1.3096049528
  0
LINE
  5
32F
100
AcDbEntity
  8
ART01_PHO
100
AcDbLine
 62
7
  6
CONTINUOUS
 10
6.2203923892
 20
1.3096049528
 11
6.211297901
 21
1.3096049528
  0
LINE
  5
330
100
AcDbEntity
  8
ART01_PHO
100
AcDbLine
 62
7
  6
CONTINUOUS
 10
6.1158254601
 20
1.3096049528
 11
6.0953923892
 21
1.3096049528
  0
LINE
  5
331
100
AcDbEntity
  8
ART01_PHO
100
AcDbLine
 62
7
  6
CONTINUOUS
 10
5.631770342
 20
1.3096049528
 11
5.611297901
 21
1.3096049528
  0
LINE
  5
332
100
AcDbEntity
  8
ART01_PHO
100
AcDbLine
 62
7
  6
CONTINUOUS
 10
4.9053923892
 20
1.3096049528
 11
4.896297901
 21
1.3096049528
  0
LINE
  5
333
100
AcDbEntity
  8
ART01_PHO
100
AcDbLine
 62
7
  6
CONTINUOUS
 10
4.8008254601
 20
1.3096049528
 11
4.7803923892
 21
1.3096049528
  0
LINE
  5
334
100
AcDbEntity
  8
ART01_PHO
100
AcDbLine
 62
7
  6
CONTINUOUS
 10
3.2044868774
 20
1.3096049528
 11
3.1953923892
 21
1.3096049528
  0
LINE
  5
335
100
AcDbEntity
  8
ART01_PHO
100
AcDbLine
 62
7
  6
CONTINUOUS
 10
2.9294868774
 20
1.3096049528
 11
2.956770342
 21
1.3096049528
  0
LINE
  5
336
100
AcDbEntity
  8
ART01_PHO
100
AcDbLine
 62
7
  6
CONTINUOUS
 10
3.1340144365
 20
1.3096049528
 11
3.1635813656
 21
1.3096049528
  0
LINE
  5
337
100
AcDbEntity
  8
ART01_PHO
100
AcDbLine
 62
7
  6
CONTINUOUS
 10
3.5126758538
 20
1.3096049528
 11
3.521770342
 21
1.3096049528
  0
LINE
  5
338
100
AcDbEntity
  8
ART01_PHO
100
AcDbLine
 62
7
  6
CONTINUOUS
 10
4.0426758538
 20
1.3096049528
 11
4.051770342
 21
1.3096049528
  0
LINE
  5
339
100
AcDbEntity
  8
ART01_PHO
100
AcDbLine
 62
7
  6
CONTINUOUS
 10
4.151770342
 20
1.3096049528
 11
4.181297901
 21
1.3096049528
  0
LINE
  5
33A
100
AcDbEntity
  8
ART01_PHO
100
AcDbLine
 62
7
  6
CONTINUOUS
 10
4.6372034128
 20
1.3096049528
 11
4.641770342
 21
1.3096049528
  0
LINE
  5
33B
100
AcDbEntity
  8
ART01_PHO
100
AcDbLine
 62
7
  6
CONTINUOUS
 10
4.846297901
 20
1.3096049528
 11
4.8508254601
 21
1.3096049528
  0
LINE
  5
33C
100
AcDbEntity
  8
ART01_PHO
100
AcDbLine
 62
7
  6
CONTINUOUS
 10
5.3476758538
 20
1.3096049528
 11
5.356770342
 21
1.3096049528
  0
LINE
  5
33D
100
AcDbEntity
  8
ART01_PHO
100
AcDbLine
 62
7
  6
CONTINUOUS
 10
5.456770342
 20
1.3096049528
 11
5.486297901
 21
1.3096049528
  0
LINE
  5
33E
100
AcDbEntity
  8
ART01_PHO
100
AcDbLine
 62
7
  6
CONTINUOUS
 10
5.9522034128
 20
1.3096049528
 11
5.956770342
 21
1.3096049528
  0
LINE
  5
33F
100
AcDbEntity
  8
ART01_PHO
100
AcDbLine
 62
7
  6
CONTINUOUS
 10
6.161297901
 20
1.3096049528
 11
6.1658254601
 21
1.3096049528
  0
LINE
  5
340
100
AcDbEntity
  8
ART01_PHO
100
AcDbLine
 62
7
  6
CONTINUOUS
 10
2.8794868774
 20
1.3314553465
 11
2.9022034128
 21
1.3314553465
  0
LINE
  5
341
100
AcDbEntity
  8
ART01_PHO
100
AcDbLine
 62
7
  6
CONTINUOUS
 10
4.3131089247
 20
1.3314553465
 11
4.3358254601
 21
1.3314553465
  0
LINE
  5
342
100
AcDbEntity
  8
ART01_PHO
100
AcDbLine
 62
7
  6
CONTINUOUS
 10
4.996297901
 20
1.3314553465
 11
5.0190144365
 21
1.3314553465
  0
LINE
  5
343
100
AcDbEntity
  8
ART01_PHO
100
AcDbLine
 62
7
  6
CONTINUOUS
 10
2.0181089247
 20
1.3389750316
 11
2.036297901
 21
1.3389750316
  0
LINE
  5
344
100
AcDbEntity
  8
ART01_PHO
100
AcDbLine
 62
7
  6
CONTINUOUS
 10
2.1726758538
 20
1.3389750316
 11
2.1931089247
 21
1.3389750316
  0
LINE
  5
345
100
AcDbEntity
  8
ART01_PHO
100
AcDbLine
 62
7
  6
CONTINUOUS
 10
5.3022034128
 20
1.3408254253
 11
5.281770342
 21
1.3408254253
  0
LINE
  5
346
100
AcDbEntity
  8
ART01_PHO
100
AcDbLine
 62
7
  6
CONTINUOUS
 10
3.9972034128
 20
1.3408254253
 11
3.976770342
 21
1.3408254253
  0
LINE
  5
347
100
AcDbEntity
  8
ART01_PHO
100
AcDbLine
 62
7
  6
CONTINUOUS
 10
3.4672034128
 20
1.3408254253
 11
3.446770342
 21
1.3408254253
  0
LINE
  5
348
100
AcDbEntity
  8
ART01_PHO
100
AcDbLine
 62
7
  6
CONTINUOUS
 10
5.5272034128
 20
1.3439750316
 11
5.506770342
 21
1.3439750316
  0
LINE
  5
349
100
AcDbEntity
  8
ART01_PHO
100
AcDbLine
 62
7
  6
CONTINUOUS
 10
4.2222034128
 20
1.3439750316
 11
4.201770342
 21
1.3439750316
  0
LINE
  5
34A
100
AcDbEntity
  8
ART01_PHO
100
AcDbLine
 62
7
  6
CONTINUOUS
 10
3.576297901
 20
1.3439750316
 11
3.5558254601
 21
1.3439750316
  0
LINE
  5
34B
100
AcDbEntity
  8
ART01_PHO
100
AcDbLine
 62
7
  6
CONTINUOUS
 10
3.1340144365
 20
1.3439750316
 11
3.1522034128
 21
1.3439750316
  0
LINE
  5
34C
100
AcDbEntity
  8
ART01_PHO
100
AcDbLine
 62
7
  6
CONTINUOUS
 10
4.151770342
 20
1.3439750316
 11
4.1699199483
 21
1.3439750316
  0
LINE
  5
34D
100
AcDbEntity
  8
ART01_PHO
100
AcDbLine
 62
7
  6
CONTINUOUS
 10
4.7803923892
 20
1.3439750316
 11
4.8008254601
 21
1.3439750316
  0
LINE
  5
34E
100
AcDbEntity
  8
ART01_PHO
100
AcDbLine
 62
7
  6
CONTINUOUS
 10
5.456770342
 20
1.3439750316
 11
5.4749199483
 21
1.3439750316
  0
LINE
  5
34F
100
AcDbEntity
  8
ART01_PHO
100
AcDbLine
 62
7
  6
CONTINUOUS
 10
5.611297901
 20
1.3439750316
 11
5.631770342
 21
1.3439750316
  0
LINE
  5
350
100
AcDbEntity
  8
ART01_PHO
100
AcDbLine
 62
7
  6
CONTINUOUS
 10
6.0953923892
 20
1.3439750316
 11
6.1158254601
 21
1.3439750316
  0
LINE
  5
351
100
AcDbEntity
  8
ART01_PHO
100
AcDbLine
 62
7
  6
CONTINUOUS
 10
6.3044868774
 20
1.3439750316
 11
6.3249199483
 21
1.3439750316
  0
LINE
  5
352
100
AcDbEntity
  8
ART01_PHO
100
AcDbLine
 62
7
  6
CONTINUOUS
 10
2.2976758538
 20
1.370195504
 11
2.2885813656
 21
1.370195504
  0
LINE
  5
353
100
AcDbEntity
  8
ART01_PHO
100
AcDbLine
 62
7
  6
CONTINUOUS
 10
1.931770342
 20
1.370195504
 11
1.9226758538
 21
1.370195504
  0
LINE
  5
354
100
AcDbEntity
  8
ART01_PHO
100
AcDbLine
 62
7
  6
CONTINUOUS
 10
1.856770342
 20
1.370195504
 11
1.8885813656
 21
1.370195504
  0
LINE
  5
355
100
AcDbEntity
  8
ART01_PHO
100
AcDbLine
 62
7
  6
CONTINUOUS
 10
2.0181089247
 20
1.370195504
 11
2.0476758538
 21
1.370195504
  0
LINE
  5
356
100
AcDbEntity
  8
ART01_PHO
100
AcDbLine
 62
7
  6
CONTINUOUS
 10
2.1726758538
 20
1.370195504
 11
2.1931089247
 21
1.370195504
  0
LINE
  5
357
100
AcDbEntity
  8
ART01_PHO
100
AcDbLine
 62
7
  6
CONTINUOUS
 10
6.2203923892
 20
1.375195504
 11
6.211297901
 21
1.375195504
  0
LINE
  5
358
100
AcDbEntity
  8
ART01_PHO
100
AcDbLine
 62
7
  6
CONTINUOUS
 10
5.356770342
 20
1.375195504
 11
5.3476758538
 21
1.375195504
  0
LINE
  5
359
100
AcDbEntity
  8
ART01_PHO
100
AcDbLine
 62
7
  6
CONTINUOUS
 10
4.9053923892
 20
1.375195504
 11
4.896297901
 21
1.375195504
  0
LINE
  5
35A
100
AcDbEntity
  8
ART01_PHO
100
AcDbLine
 62
7
  6
CONTINUOUS
 10
4.051770342
 20
1.375195504
 11
4.0426758538
 21
1.375195504
  0
LINE
  5
35B
100
AcDbEntity
  8
ART01_PHO
100
AcDbLine
 62
7
  6
CONTINUOUS
 10
3.521770342
 20
1.375195504
 11
3.5126758538
 21
1.375195504
  0
LINE
  5
35C
100
AcDbEntity
  8
ART01_PHO
100
AcDbLine
 62
7
  6
CONTINUOUS
 10
3.2044868774
 20
1.375195504
 11
3.1953923892
 21
1.375195504
  0
LINE
  5
35D
100
AcDbEntity
  8
ART01_PHO
100
AcDbLine
 62
7
  6
CONTINUOUS
 10
3.081770342
 20
1.375195504
 11
3.1135813656
 21
1.375195504
  0
LINE
  5
35E
100
AcDbEntity
  8
ART01_PHO
100
AcDbLine
 62
7
  6
CONTINUOUS
 10
3.1340144365
 20
1.375195504
 11
3.1635813656
 21
1.375195504
  0
LINE
  5
35F
100
AcDbEntity
  8
ART01_PHO
100
AcDbLine
 62
7
  6
CONTINUOUS
 10
3.236297901
 20
1.375195504
 11
3.2681089247
 21
1.375195504
  0
LINE
  5
360
100
AcDbEntity
  8
ART01_PHO
100
AcDbLine
 62
7
  6
CONTINUOUS
 10
3.446770342
 20
1.375195504
 11
3.4672034128
 21
1.375195504
  0
LINE
  5
361
100
AcDbEntity
  8
ART01_PHO
100
AcDbLine
 62
7
  6
CONTINUOUS
 10
3.5558254601
 20
1.375195504
 11
3.576297901
 21
1.375195504
  0
LINE
  5
362
100
AcDbEntity
  8
ART01_PHO
100
AcDbLine
 62
7
  6
CONTINUOUS
 10
3.6081089247
 20
1.375195504
 11
3.6399199483
 21
1.375195504
  0
LINE
  5
363
100
AcDbEntity
  8
ART01_PHO
100
AcDbLine
 62
7
  6
CONTINUOUS
 10
3.976770342
 20
1.375195504
 11
3.9972034128
 21
1.375195504
  0
LINE
  5
364
100
AcDbEntity
  8
ART01_PHO
100
AcDbLine
 62
7
  6
CONTINUOUS
 10
4.151770342
 20
1.375195504
 11
4.181297901
 21
1.375195504
  0
LINE
  5
365
100
AcDbEntity
  8
ART01_PHO
100
AcDbLine
 62
7
  6
CONTINUOUS
 10
4.201770342
 20
1.375195504
 11
4.2222034128
 21
1.375195504
  0
LINE
  5
366
100
AcDbEntity
  8
ART01_PHO
100
AcDbLine
 62
7
  6
CONTINUOUS
 10
4.7803923892
 20
1.375195504
 11
4.8008254601
 21
1.375195504
  0
LINE
  5
367
100
AcDbEntity
  8
ART01_PHO
100
AcDbLine
 62
7
  6
CONTINUOUS
 10
5.281770342
 20
1.375195504
 11
5.3022034128
 21
1.375195504
  0
LINE
  5
368
100
AcDbEntity
  8
ART01_PHO
100
AcDbLine
 62
7
  6
CONTINUOUS
 10
5.456770342
 20
1.375195504
 11
5.486297901
 21
1.375195504
  0
LINE
  5
369
100
AcDbEntity
  8
ART01_PHO
100
AcDbLine
 62
7
  6
CONTINUOUS
 10
5.506770342
 20
1.375195504
 11
5.5272034128
 21
1.375195504
  0
LINE
  5
36A
100
AcDbEntity
  8
ART01_PHO
100
AcDbLine
 62
7
  6
CONTINUOUS
 10
5.611297901
 20
1.375195504
 11
5.631770342
 21
1.375195504
  0
LINE
  5
36B
100
AcDbEntity
  8
ART01_PHO
100
AcDbLine
 62
7
  6
CONTINUOUS
 10
6.0953923892
 20
1.375195504
 11
6.1158254601
 21
1.375195504
  0
LINE
  5
36C
100
AcDbEntity
  8
ART01_PHO
100
AcDbLine
 62
7
  6
CONTINUOUS
 10
6.3044868774
 20
1.375195504
 11
6.3249199483
 21
1.375195504
  0
LINE
  5
36D
100
AcDbEntity
  8
ART01_PHO
100
AcDbLine
 62
7
  6
CONTINUOUS
 10
2.6244868774
 20
1.4246049528
 11
2.6085813656
 21
1.4246049528
  0
LINE
  5
36E
100
AcDbEntity
  8
ART01_PHO
100
AcDbLine
 62
7
  6
CONTINUOUS
 10
1.5685813656
 20
1.4246049528
 11
1.6003923892
 21
1.4246049528
  0
LINE
  5
36F
100
AcDbEntity
  8
ART01_PHO
100
AcDbLine
 62
7
  6
CONTINUOUS
 10
2.1853923892
 20
1.4246049528
 11
2.1944868774
 21
1.4246049528
  0
LINE
  5
370
100
AcDbEntity
  8
ART01_PHO
100
AcDbLine
 62
7
  6
CONTINUOUS
 10
2.2422034128
 20
1.4246049528
 11
2.246770342
 21
1.4246049528
  0
LINE
  5
371
100
AcDbEntity
  8
ART01_PHO
100
AcDbLine
 62
7
  6
CONTINUOUS
 10
2.5153923892
 20
1.4246049528
 11
2.5244868774
 21
1.4246049528
  0
LINE
  5
372
100
AcDbEntity
  8
ART01_PHO
100
AcDbLine
 62
7
  6
CONTINUOUS
 10
2.9344868774
 20
1.4296049528
 11
2.9640144365
 21
1.4296049528
  0
LINE
  5
373
100
AcDbEntity
  8
ART01_PHO
100
AcDbLine
 62
7
  6
CONTINUOUS
 10
3.2264160113
 20
1.4296049528
 11
3.229801838
 21
1.4296049528
  0
LINE
  5
374
100
AcDbEntity
  8
ART01_PHO
100
AcDbLine
 62
7
  6
CONTINUOUS
 10
3.2979908144
 20
1.4296049528
 11
3.3184632554
 21
1.4296049528
  0
LINE
  5
375
100
AcDbEntity
  8
ART01_PHO
100
AcDbLine
 62
7
  6
CONTINUOUS
 10
3.5649199483
 20
1.4296049528
 11
3.5740144365
 21
1.4296049528
  0
LINE
  5
376
100
AcDbEntity
  8
ART01_PHO
100
AcDbLine
 62
7
  6
CONTINUOUS
 10
3.621770342
 20
1.4296049528
 11
3.6308254601
 21
1.4296049528
  0
LINE
  5
377
100
AcDbEntity
  8
ART01_PHO
100
AcDbLine
 62
7
  6
CONTINUOUS
 10
3.1394868774
 20
1.4459829056
 11
3.1565341215
 21
1.4459829056
  0
LINE
  5
378
100
AcDbEntity
  8
ART01_PHO
100
AcDbLine
 62
7
  6
CONTINUOUS
 10
3.2605104995
 20
1.4459829056
 11
3.2775577436
 21
1.4459829056
  0
LINE
  5
379
100
AcDbEntity
  8
ART01_PHO
100
AcDbLine
 62
7
  6
CONTINUOUS
 10
2.5244868774
 20
1.4496049528
 11
2.5358254601
 21
1.4496049528
  0
LINE
  5
37A
100
AcDbEntity
  8
ART01_PHO
100
AcDbLine
 62
7
  6
CONTINUOUS
 10
3.6308254601
 20
1.4546049528
 11
3.6422034128
 21
1.4546049528
  0
LINE
  5
37B
100
AcDbEntity
  8
ART01_PHO
100
AcDbLine
 62
7
  6
CONTINUOUS
 10
3.4672034128
 20
1.4608254253
 11
3.446770342
 21
1.4608254253
  0
LINE
  5
37C
100
AcDbEntity
  8
ART01_PHO
100
AcDbLine
 62
7
  6
CONTINUOUS
 10
3.5194868774
 20
1.4639750316
 11
3.4990144365
 21
1.4639750316
  0
LINE
  5
37D
100
AcDbEntity
  8
ART01_PHO
100
AcDbLine
 62
7
  6
CONTINUOUS
 10
2.9026758538
 20
1.4639750316
 11
2.8822034128
 21
1.4639750316
  0
LINE
  5
37E
100
AcDbEntity
  8
ART01_PHO
100
AcDbLine
 62
7
  6
CONTINUOUS
 10
2.811770342
 20
1.4639750316
 11
2.8299199483
 21
1.4639750316
  0
LINE
  5
37F
100
AcDbEntity
  8
ART01_PHO
100
AcDbLine
 62
7
  6
CONTINUOUS
 10
2.9344868774
 20
1.4639750316
 11
2.9526758538
 21
1.4639750316
  0
LINE
  5
380
100
AcDbEntity
  8
ART01_PHO
100
AcDbLine
 62
7
  6
CONTINUOUS
 10
4.296770342
 20
1.4646049528
 11
4.356770342
 21
1.4646049528
  0
LINE
  5
381
100
AcDbEntity
  8
ART01_PHO
100
AcDbLine
 62
7
  6
CONTINUOUS
 10
4.941770342
 20
1.4646049528
 11
5.001770342
 21
1.4646049528
  0
LINE
  5
382
100
AcDbEntity
  8
ART01_PHO
100
AcDbLine
 62
7
  6
CONTINUOUS
 10
3.966770342
 20
1.4696049528
 11
4.026770342
 21
1.4696049528
  0
LINE
  5
383
100
AcDbEntity
  8
ART01_PHO
100
AcDbLine
 62
7
  6
CONTINUOUS
 10
4.616770342
 20
1.4696049528
 11
4.676770342
 21
1.4696049528
  0
LINE
  5
384
100
AcDbEntity
  8
ART01_PHO
100
AcDbLine
 62
7
  6
CONTINUOUS
 10
5.271770342
 20
1.4746049528
 11
5.331770342
 21
1.4746049528
  0
LINE
  5
385
100
AcDbEntity
  8
ART01_PHO
100
AcDbLine
 62
7
  6
CONTINUOUS
 10
5.591770342
 20
1.4746049528
 11
5.651770342
 21
1.4746049528
  0
LINE
  5
386
100
AcDbEntity
  8
ART01_PHO
100
AcDbLine
 62
7
  6
CONTINUOUS
 10
5.921770342
 20
1.4746049528
 11
5.981770342
 21
1.4746049528
  0
LINE
  5
387
100
AcDbEntity
  8
ART01_PHO
100
AcDbLine
 62
7
  6
CONTINUOUS
 10
6.241770342
 20
1.4746049528
 11
6.301770342
 21
1.4746049528
  0
LINE
  5
388
100
AcDbEntity
  8
ART01_PHO
100
AcDbLine
 62
7
  6
CONTINUOUS
 10
2.5244868774
 20
1.490195504
 11
2.5153923892
 21
1.490195504
  0
LINE
  5
389
100
AcDbEntity
  8
ART01_PHO
100
AcDbLine
 62
7
  6
CONTINUOUS
 10
2.1944868774
 20
1.490195504
 11
2.1853923892
 21
1.490195504
  0
LINE
  5
38A
100
AcDbEntity
  8
ART01_PHO
100
AcDbLine
 62
7
  6
CONTINUOUS
 10
1.5799199483
 20
1.490195504
 11
1.5890144365
 21
1.490195504
  0
LINE
  5
38B
100
AcDbEntity
  8
ART01_PHO
100
AcDbLine
 62
7
  6
CONTINUOUS
 10
2.2808254601
 20
1.490195504
 11
2.3126758538
 21
1.490195504
  0
LINE
  5
38C
100
AcDbEntity
  8
ART01_PHO
100
AcDbLine
 62
7
  6
CONTINUOUS
 10
2.6085813656
 20
1.490195504
 11
2.6244868774
 21
1.490195504
  0
LINE
  5
38D
100
AcDbEntity
  8
ART01_PHO
100
AcDbLine
 62
7
  6
CONTINUOUS
 10
3.6308254601
 20
1.495195504
 11
3.621770342
 21
1.495195504
  0
LINE
  5
38E
100
AcDbEntity
  8
ART01_PHO
100
AcDbLine
 62
7
  6
CONTINUOUS
 10
3.5740144365
 20
1.495195504
 11
3.5649199483
 21
1.495195504
  0
LINE
  5
38F
100
AcDbEntity
  8
ART01_PHO
100
AcDbLine
 62
7
  6
CONTINUOUS
 10
2.811770342
 20
1.495195504
 11
2.841297901
 21
1.495195504
  0
LINE
  5
390
100
AcDbEntity
  8
ART01_PHO
100
AcDbLine
 62
7
  6
CONTINUOUS
 10
2.8822034128
 20
1.495195504
 11
2.9026758538
 21
1.495195504
  0
LINE
  5
391
100
AcDbEntity
  8
ART01_PHO
100
AcDbLine
 62
7
  6
CONTINUOUS
 10
2.9344868774
 20
1.495195504
 11
2.9640144365
 21
1.495195504
  0
LINE
  5
392
100
AcDbEntity
  8
ART01_PHO
100
AcDbLine
 62
7
  6
CONTINUOUS
 10
3.446770342
 20
1.495195504
 11
3.4672034128
 21
1.495195504
  0
LINE
  5
393
100
AcDbEntity
  8
ART01_PHO
100
AcDbLine
 62
7
  6
CONTINUOUS
 10
3.4990144365
 20
1.495195504
 11
3.5194868774
 21
1.495195504
  0
LINE
  5
394
100
AcDbEntity
  8
ADT_PHO
100
AcDbLine
 62
7
  6
CONTINUOUS
 10
3.311770342
 20
1.5146049528
 11
3.121770342
 21
1.5146049528
  0
LINE
  5
395
100
AcDbEntity
  8
ADT_PHO
100
AcDbLine
 62
7
  6
CONTINUOUS
 10
3.351770342
 20
1.5196049528
 11
3.741770342
 21
1.5196049528
  0
LINE
  5
396
100
AcDbEntity
  8
ADT_PHO
100
AcDbLine
 62
7
  6
CONTINUOUS
 10
6.471770342
 20
1.5246049528
 11
3.796770342
 21
1.5246049528
  0
LINE
  5
397
100
AcDbEntity
  8
ADT_PHO
100
AcDbLine
 62
7
  6
CONTINUOUS
 10
1.396770342
 20
1.5296049528
 11
3.076770342
 21
1.5296049528
  0
LINE
  5
398
100
AcDbEntity
  8
ADT_PHO
100
AcDbLine
 62
7
  6
CONTINUOUS
 10
3.121770342
 20
1.6046049528
 11
3.311770342
 21
1.6046049528
  0
LINE
  5
399
100
AcDbEntity
  8
ART01_PHO
100
AcDbLine
 62
7
  6
CONTINUOUS
 10
4.8008254601
 20
1.375195504
 11
4.8076758538
 21
1.3720852678
  0
LINE
  5
39A
100
AcDbEntity
  8
ART01_PHO
100
AcDbLine
 62
7
  6
CONTINUOUS
 10
4.8394868774
 20
1.3127151891
 11
4.846297901
 21
1.3096049528
  0
LINE
  5
39B
100
AcDbEntity
  8
ART01_PHO
100
AcDbLine
 62
7
  6
CONTINUOUS
 10
4.896297901
 20
1.3096049528
 11
4.8894868774
 21
1.3127151891
  0
LINE
  5
39C
100
AcDbEntity
  8
ART01_PHO
100
AcDbLine
 62
7
  6
CONTINUOUS
 10
4.9122034128
 20
1.3720852678
 11
4.9053923892
 21
1.375195504
  0
LINE
  5
39D
100
AcDbEntity
  8
ART01_PHO
100
AcDbLine
 62
7
  6
CONTINUOUS
 10
5.3022034128
 20
1.375195504
 11
5.3090144365
 21
1.3720852678
  0
LINE
  5
39E
100
AcDbEntity
  8
ART01_PHO
100
AcDbLine
 62
7
  6
CONTINUOUS
 10
4.8940144365
 20
1.3470852678
 11
4.9076758538
 21
1.3408254253
  0
LINE
  5
39F
100
AcDbEntity
  8
ART01_PHO
100
AcDbLine
 62
7
  6
CONTINUOUS
 10
4.8008254601
 20
1.3439750316
 11
4.8076758538
 21
1.3408254253
  0
LINE
  5
3A0
100
AcDbEntity
  8
ART01_PHO
100
AcDbLine
 62
7
  6
CONTINUOUS
 10
4.8894868774
 20
1.350195504
 11
4.8940144365
 21
1.3470852678
  0
LINE
  5
3A1
100
AcDbEntity
  8
ART01_PHO
100
AcDbLine
 62
7
  6
CONTINUOUS
 10
4.9076758538
 20
1.3408254253
 11
4.9122034128
 21
1.3377151891
  0
LINE
  5
3A2
100
AcDbEntity
  8
ART01_PHO
100
AcDbLine
 62
7
  6
CONTINUOUS
 10
4.0040144365
 20
1.3720852678
 11
4.006297901
 21
1.3689750316
  0
LINE
  5
3A3
100
AcDbEntity
  8
ART01_PHO
100
AcDbLine
 62
7
  6
CONTINUOUS
 10
4.2290144365
 20
1.3720852678
 11
4.231297901
 21
1.3689750316
  0
LINE
  5
3A4
100
AcDbEntity
  8
ART01_PHO
100
AcDbLine
 62
7
  6
CONTINUOUS
 10
4.0335813656
 20
1.3189750316
 11
4.0381089247
 21
1.3127151891
  0
LINE
  5
3A5
100
AcDbEntity
  8
ART01_PHO
100
AcDbLine
 62
7
  6
CONTINUOUS
 10
4.0608254601
 20
1.3658254253
 11
4.056297901
 21
1.3720852678
  0
LINE
  5
3A6
100
AcDbEntity
  8
ART01_PHO
100
AcDbLine
 62
7
  6
CONTINUOUS
 10
3.5149199483
 20
1.4639750316
 11
3.5308254601
 21
1.4296049528
  0
LINE
  5
3A7
100
AcDbEntity
  8
ART01_PHO
100
AcDbLine
 62
7
  6
CONTINUOUS
 10
3.571770342
 20
1.3439750316
 11
3.5876758538
 21
1.3096049528
  0
LINE
  5
3A8
100
AcDbEntity
  8
ART01_PHO
100
AcDbLine
 62
7
  6
CONTINUOUS
 10
3.501297901
 20
1.325195504
 11
3.5035813656
 21
1.3189750316
  0
LINE
  5
3A9
100
AcDbEntity
  8
ART01_PHO
100
AcDbLine
 62
7
  6
CONTINUOUS
 10
3.5331089247
 20
1.3596049528
 11
3.5308254601
 21
1.3658254253
  0
LINE
  5
3AA
100
AcDbEntity
  8
ART01_PHO
100
AcDbLine
 62
7
  6
CONTINUOUS
 10
3.5853923892
 20
1.4796049528
 11
3.5831089247
 21
1.4858254253
  0
LINE
  5
3AB
100
AcDbEntity
  8
ART01_PHO
100
AcDbLine
 62
7
  6
CONTINUOUS
 10
3.6103923892
 20
1.445195504
 11
3.6126758538
 21
1.4389750316
  0
LINE
  5
3AC
100
AcDbEntity
  8
ART01_PHO
100
AcDbLine
 62
7
  6
CONTINUOUS
 10
3.6422034128
 20
1.4796049528
 11
3.6399199483
 21
1.4858254253
  0
LINE
  5
3AD
100
AcDbEntity
  8
ART01_PHO
100
AcDbLine
 62
7
  6
CONTINUOUS
 10
3.476297901
 20
1.3689750316
 11
3.4785813656
 21
1.3627151891
  0
LINE
  5
3AE
100
AcDbEntity
  8
ART01_PHO
100
AcDbLine
 62
7
  6
CONTINUOUS
 10
3.476297901
 20
1.4889750316
 11
3.4785813656
 21
1.4827151891
  0
LINE
  5
3AF
100
AcDbEntity
  8
ART01_PHO
100
AcDbLine
 62
7
  6
CONTINUOUS
 10
3.5853923892
 20
1.3689750316
 11
3.5876758538
 21
1.3627151891
  0
LINE
  5
3B0
100
AcDbEntity
  8
ART01_PHO
100
AcDbLine
 62
7
  6
CONTINUOUS
 10
3.5535813656
 20
1.445195504
 11
3.5558254601
 21
1.4389750316
  0
LINE
  5
3B1
100
AcDbEntity
  8
ART01_PHO
100
AcDbLine
 62
7
  6
CONTINUOUS
 10
3.5285813656
 20
1.4889750316
 11
3.5308254601
 21
1.4827151891
  0
LINE
  5
3B2
100
AcDbEntity
  8
ART01_PHO
100
AcDbLine
 62
7
  6
CONTINUOUS
 10
3.1479908144
 20
1.4788175513
 11
3.1616522317
 21
1.4296049528
  0
LINE
  5
3B3
100
AcDbEntity
  8
ART01_PHO
100
AcDbLine
 62
7
  6
CONTINUOUS
 10
3.2690144365
 20
1.4788175513
 11
3.2826758538
 21
1.4296049528
  0
LINE
  5
3B4
100
AcDbEntity
  8
ART01_PHO
100
AcDbLine
 62
7
  6
CONTINUOUS
 10
3.2161797908
 20
1.4436600709
 11
3.2178727042
 21
1.4366128268
  0
LINE
  5
3B5
100
AcDbEntity
  8
ART01_PHO
100
AcDbLine
 62
7
  6
CONTINUOUS
 10
2.8822034128
 20
1.495195504
 11
2.8822034128
 21
1.4296049528
  0
LINE
  5
3B6
100
AcDbEntity
  8
ADT_PHO
100
AcDbLine
 62
7
  6
CONTINUOUS
 10
2.886770342
 20
1.6946049528
 11
2.886770342
 21
1.8446049528
  0
LINE
  5
3B7
100
AcDbEntity
  8
ADT_PHO
100
AcDbLine
 62
7
  6
CONTINUOUS
 10
2.901770342
 20
2.0396049528
 11
2.901770342
 21
2.2396049528
  0
LINE
  5
3B8
100
AcDbEntity
  8
ADT_PHO
100
AcDbLine
 62
7
  6
CONTINUOUS
 10
2.906770342
 20
4.0396049528
 11
2.906770342
 21
3.8396049528
  0
LINE
  5
3B9
100
AcDbEntity
  8
ART01_PHO
100
AcDbLine
 62
7
  6
CONTINUOUS
 10
2.9140144365
 20
1.4827151891
 11
2.9140144365
 21
1.4764553465
  0
LINE
  5
3BA
100
AcDbEntity
  8
ART01_PHO
100
AcDbLine
 62
7
  6
CONTINUOUS
 10
2.9294868774
 20
1.375195504
 11
2.9294868774
 21
1.3096049528
  0
LINE
  5
3BB
100
AcDbEntity
  8
ART01_PHO
100
AcDbLine
 62
7
  6
CONTINUOUS
 10
2.9344868774
 20
1.495195504
 11
2.9344868774
 21
1.4296049528
  0
LINE
  5
3BC
100
AcDbEntity
  8
ADT_PHO
100
AcDbLine
 62
7
  6
CONTINUOUS
 10
2.946770342
 20
3.8396049528
 11
2.946770342
 21
4.0396049528
  0
LINE
  5
3BD
100
AcDbEntity
  8
ADT_PHO
100
AcDbLine
 62
7
  6
CONTINUOUS
 10
2.951770342
 20
2.8396049528
 11
2.951770342
 21
2.9896049528
  0
LINE
  5
3BE
100
AcDbEntity
  8
ADT_PHO
100
AcDbLine
 62
7
  6
CONTINUOUS
 10
2.971770342
 20
2.2396049528
 11
2.971770342
 21
2.0396049528
  0
LINE
  5
3BF
100
AcDbEntity
  8
ART01_PHO
100
AcDbLine
 62
7
  6
CONTINUOUS
 10
2.9772034128
 20
1.375195504
 11
2.9772034128
 21
1.3096049528
  0
LINE
  5
3C0
100
AcDbEntity
  8
ADT_PHO
100
AcDbLine
 62
7
  6
CONTINUOUS
 10
3.016770342
 20
4.0396049528
 11
3.016770342
 21
3.8396049528
  0
LINE
  5
3C1
100
AcDbEntity
  8
ADT_PHO
100
AcDbLine
 62
7
  6
CONTINUOUS
 10
3.021770342
 20
2.9896049528
 11
3.021770342
 21
2.8396049528
  0
LINE
  5
3C2
100
AcDbEntity
  8
ADT_PHO
100
AcDbLine
 62
7
  6
CONTINUOUS
 10
3.051770342
 20
2.8296049528
 11
3.051770342
 21
3.0296049528
  0
LINE
  5
3C3
100
AcDbEntity
  8
ADT_PHO
100
AcDbLine
 62
7
  6
CONTINUOUS
 10
3.061770342
 20
3.8396049528
 11
3.061770342
 21
4.0396049528
  0
LINE
  5
3C4
100
AcDbEntity
  8
ADT_PHO
100
AcDbLine
 62
7
  6
CONTINUOUS
 10
3.066770342
 20
3.5746049528
 11
3.066770342
 21
3.7746049528
  0
LINE
  5
3C5
100
AcDbEntity
  8
ADT_PHO
100
AcDbLine
 62
7
  6
CONTINUOUS
 10
3.076770342
 20
1.5296049528
 11
3.076770342
 21
2.0196049528
  0
LINE
  5
3C6
100
AcDbEntity
  8
ART01_PHO
100
AcDbLine
 62
7
  6
CONTINUOUS
 10
3.091770342
 20
1.4788175513
 11
3.091770342
 21
1.4296049528
  0
LINE
  5
3C7
100
AcDbEntity
  8
ADT_PHO
100
AcDbLine
 62
7
  6
CONTINUOUS
 10
3.091770342
 20
2.0496049528
 11
3.091770342
 21
2.1996049528
  0
LINE
  5
3C8
100
AcDbEntity
  8
ART01_PHO
100
AcDbLine
 62
7
  6
CONTINUOUS
 10
3.0976758538
 20
1.375195504
 11
3.0976758538
 21
1.3096049528
  0
LINE
  5
3C9
100
AcDbEntity
  8
ADT_PHO
100
AcDbLine
 62
7
  6
CONTINUOUS
 10
3.111770342
 20
1.6346049528
 11
3.111770342
 21
2.0146049528
  0
LINE
  5
3CA
100
AcDbEntity
  8
ART01_PHO
100
AcDbLine
 62
7
  6
CONTINUOUS
 10
3.1190144365
 20
1.4788175513
 11
3.1190144365
 21
1.4296049528
  0
LINE
  5
3CB
100
AcDbEntity
  8
ADT_PHO
100
AcDbLine
 62
7
  6
CONTINUOUS
 10
3.121770342
 20
3.0296049528
 11
3.121770342
 21
2.8296049528
  0
LINE
  5
3CC
100
AcDbEntity
  8
ADT_PHO
100
AcDbLine
 62
7
  6
CONTINUOUS
 10
3.121770342
 20
1.5146049528
 11
3.121770342
 21
1.6046049528
  0
LINE
  5
3CD
100
AcDbEntity
  8
ADT_PHO
100
AcDbLine
 62
7
  6
CONTINUOUS
 10
3.131770342
 20
4.0396049528
 11
3.131770342
 21
3.8396049528
  0
LINE
  5
3CE
100
AcDbEntity
  8
ART01_PHO
100
AcDbLine
 62
7
  6
CONTINUOUS
 10
3.1340144365
 20
1.375195504
 11
3.1340144365
 21
1.3096049528
  0
LINE
  5
3CF
100
AcDbEntity
  8
ADT_PHO
100
AcDbLine
 62
7
  6
CONTINUOUS
 10
3.136770342
 20
3.7746049528
 11
3.136770342
 21
3.5746049528
  0
LINE
  5
3D0
100
AcDbEntity
  8
ADT_PHO
100
AcDbLine
 62
7
  6
CONTINUOUS
 10
3.161770342
 20
2.1996049528
 11
3.161770342
 21
2.0496049528
  0
LINE
  5
3D1
100
AcDbEntity
  8
ADT_PHO
100
AcDbLine
 62
7
  6
CONTINUOUS
 10
3.166770342
 20
2.7996049528
 11
3.166770342
 21
2.9996049528
  0
LINE
  5
3D2
100
AcDbEntity
  8
ART01_PHO
100
AcDbLine
 62
7
  6
CONTINUOUS
 10
3.1769671924
 20
1.4788175513
 11
3.1769671924
 21
1.4296049528
  0
LINE
  5
3D3
100
AcDbEntity
  8
ART01_PHO
100
AcDbLine
 62
7
  6
CONTINUOUS
 10
3.1840144365
 20
1.3658254253
 11
3.1840144365
 21
1.3596049528
  0
LINE
  5
3D4
100
AcDbEntity
  8
ADT_PHO
100
AcDbLine
 62
7
  6
CONTINUOUS
 10
3.191770342
 20
2.0346049528
 11
3.191770342
 21
2.2346049528
  0
LINE
  5
3D5
100
AcDbEntity
  8
ADT_PHO
100
AcDbLine
 62
7
  6
CONTINUOUS
 10
3.191770342
 20
3.7546049528
 11
3.191770342
 21
3.9546049528
  0
LINE
  5
3D6
100
AcDbEntity
  8
ART01_PHO
100
AcDbLine
 62
7
  6
CONTINUOUS
 10
3.2008254601
 20
1.4788175513
 11
3.2008254601
 21
1.4296049528
  0
LINE
  5
3D7
100
AcDbEntity
  8
ART01_PHO
100
AcDbLine
 62
7
  6
CONTINUOUS
 10
3.2158254601
 20
1.3283451103
 11
3.2158254601
 21
1.3189750316
  0
LINE
  5
3D8
100
AcDbEntity
  8
ART01_PHO
100
AcDbLine
 62
7
  6
CONTINUOUS
 10
3.2161797908
 20
1.4788175513
 11
3.2161797908
 21
1.4436600709
  0
LINE
  5
3D9
100
AcDbEntity
  8
ADT_PHO
100
AcDbLine
 62
7
  6
CONTINUOUS
 10
3.236770342
 20
2.9996049528
 11
3.236770342
 21
2.7996049528
  0
LINE
  5
3DA
100
AcDbEntity
  8
ART01_PHO
100
AcDbLine
 62
7
  6
CONTINUOUS
 10
3.2400380585
 20
1.4436600709
 11
3.2400380585
 21
1.4788175513
  0
LINE
  5
3DB
100
AcDbEntity
  8
ADT_PHO
100
AcDbLine
 62
7
  6
CONTINUOUS
 10
3.241770342
 20
2.2646049528
 11
3.241770342
 21
2.4646049528
  0
LINE
  5
3DC
100
AcDbEntity
  8
ART01_PHO
100
AcDbLine
 62
7
  6
CONTINUOUS
 10
2.1740144365
 20
1.4746049528
 11
2.171770342
 21
1.465195504
  0
LINE
  5
3DD
100
AcDbEntity
  8
ART01_PHO
100
AcDbLine
 62
7
  6
CONTINUOUS
 10
2.5040144365
 20
1.4746049528
 11
2.501770342
 21
1.465195504
  0
LINE
  5
3DE
100
AcDbEntity
  8
ART01_PHO
100
AcDbLine
 62
7
  6
CONTINUOUS
 10
2.2058254601
 20
1.440195504
 11
2.2081089247
 21
1.4496049528
  0
LINE
  5
3DF
100
AcDbEntity
  8
ART01_PHO
100
AcDbLine
 62
7
  6
CONTINUOUS
 10
2.2581089247
 20
1.4339750316
 11
2.2603923892
 21
1.4433451103
  0
LINE
  5
3E0
100
AcDbEntity
  8
ART01_PHO
100
AcDbLine
 62
7
  6
CONTINUOUS
 10
2.2544868774
 20
1.3139750316
 11
2.256770342
 21
1.3233451103
  0
LINE
  5
3E1
100
AcDbEntity
  8
ART01_PHO
100
AcDbLine
 62
7
  6
CONTINUOUS
 10
1.9135813656
 20
1.3608254253
 11
1.911297901
 21
1.3546049528
  0
LINE
  5
3E2
100
AcDbEntity
  8
ART01_PHO
100
AcDbLine
 62
7
  6
CONTINUOUS
 10
1.9408254601
 20
1.3139750316
 11
1.9431089247
 21
1.320195504
  0
LINE
  5
3E3
100
AcDbEntity
  8
ART01_PHO
100
AcDbLine
 62
7
  6
CONTINUOUS
 10
1.5958254601
 20
1.465195504
 11
1.591297901
 21
1.4558254253
  0
LINE
  5
3E4
100
AcDbEntity
  8
ADT_PHO
100
AcDbLine
 62
7
  6
CONTINUOUS
 10
3.331770342
 20
1.6346049528
 11
3.111770342
 21
1.6346049528
  0
LINE
  5
3E5
100
AcDbEntity
  8
ADT_PHO
100
AcDbLine
 62
7
  6
CONTINUOUS
 10
3.696770342
 20
1.7246049528
 11
3.396770342
 21
1.7246049528
  0
LINE
  5
3E6
100
AcDbEntity
  8
ADT_PHO
100
AcDbLine
 62
7
  6
CONTINUOUS
 10
3.396770342
 20
1.7496049528
 11
3.696770342
 21
1.7496049528
  0
LINE
  5
3E7
100
AcDbEntity
  8
ADT_PHO
100
AcDbLine
 62
7
  6
CONTINUOUS
 10
3.741770342
 20
1.7596049528
 11
3.351770342
 21
1.7596049528
  0
LINE
  5
3E8
100
AcDbEntity
  8
ADT_PHO
100
AcDbLine
 62
7
  6
CONTINUOUS
 10
3.771770342
 20
1.7846049528
 11
3.701770342
 21
1.7846049528
  0
LINE
  5
3E9
100
AcDbEntity
  8
ADT_PHO
100
AcDbLine
 62
7
  6
CONTINUOUS
 10
3.666770342
 20
1.7846049528
 11
3.596770342
 21
1.7846049528
  0
LINE
  5
3EA
100
AcDbEntity
  8
ADT_PHO
100
AcDbLine
 62
7
  6
CONTINUOUS
 10
3.561770342
 20
1.7846049528
 11
3.491770342
 21
1.7846049528
  0
LINE
  5
3EB
100
AcDbEntity
  8
ADT_PHO
100
AcDbLine
 62
7
  6
CONTINUOUS
 10
3.446770342
 20
1.7846049528
 11
3.376770342
 21
1.7846049528
  0
LINE
  5
3EC
100
AcDbEntity
  8
ADT_PHO
100
AcDbLine
 62
7
  6
CONTINUOUS
 10
3.376770342
 20
1.9846049528
 11
3.446770342
 21
1.9846049528
  0
LINE
  5
3ED
100
AcDbEntity
  8
ADT_PHO
100
AcDbLine
 62
7
  6
CONTINUOUS
 10
3.491770342
 20
1.9846049528
 11
3.561770342
 21
1.9846049528
  0
LINE
  5
3EE
100
AcDbEntity
  8
ADT_PHO
100
AcDbLine
 62
7
  6
CONTINUOUS
 10
3.596770342
 20
1.9846049528
 11
3.666770342
 21
1.9846049528
  0
LINE
  5
3EF
100
AcDbEntity
  8
ADT_PHO
100
AcDbLine
 62
7
  6
CONTINUOUS
 10
3.701770342
 20
1.9846049528
 11
3.771770342
 21
1.9846049528
  0
LINE
  5
3F0
100
AcDbEntity
  8
ART01_PHO
100
AcDbLine
 62
7
  6
CONTINUOUS
 10
6.1158254601
 20
1.375195504
 11
6.1226758538
 21
1.3720852678
  0
LINE
  5
3F1
100
AcDbEntity
  8
ART01_PHO
100
AcDbLine
 62
7
  6
CONTINUOUS
 10
6.3249199483
 20
1.375195504
 11
6.331770342
 21
1.3720852678
  0
LINE
  5
3F2
100
AcDbEntity
  8
ART01_PHO
100
AcDbLine
 62
7
  6
CONTINUOUS
 10
5.5272034128
 20
1.375195504
 11
5.5340144365
 21
1.3720852678
  0
LINE
  5
3F3
100
AcDbEntity
  8
ART01_PHO
100
AcDbLine
 62
7
  6
CONTINUOUS
 10
5.631770342
 20
1.375195504
 11
5.6385813656
 21
1.3720852678
  0
LINE
  5
3F4
100
AcDbEntity
  8
ART01_PHO
100
AcDbLine
 62
7
  6
CONTINUOUS
 10
5.9453923892
 20
1.3127151891
 11
5.9522034128
 21
1.3096049528
  0
LINE
  5
3F5
100
AcDbEntity
  8
ART01_PHO
100
AcDbLine
 62
7
  6
CONTINUOUS
 10
6.1544868774
 20
1.3127151891
 11
6.161297901
 21
1.3096049528
  0
LINE
  5
3F6
100
AcDbEntity
  8
ART01_PHO
100
AcDbLine
 62
7
  6
CONTINUOUS
 10
6.211297901
 20
1.3096049528
 11
6.2044868774
 21
1.3127151891
  0
LINE
  5
3F7
100
AcDbEntity
  8
ART01_PHO
100
AcDbLine
 62
7
  6
CONTINUOUS
 10
6.2272034128
 20
1.3720852678
 11
6.2203923892
 21
1.375195504
  0
LINE
  5
3F8
100
AcDbEntity
  8
ART01_PHO
100
AcDbLine
 62
7
  6
CONTINUOUS
 10
6.2090144365
 20
1.3470852678
 11
6.2226758538
 21
1.3408254253
  0
LINE
  5
3F9
100
AcDbEntity
  8
ART01_PHO
100
AcDbLine
 62
7
  6
CONTINUOUS
 10
6.1158254601
 20
1.3439750316
 11
6.1226758538
 21
1.3408254253
  0
LINE
  5
3FA
100
AcDbEntity
  8
ART01_PHO
100
AcDbLine
 62
7
  6
CONTINUOUS
 10
6.3249199483
 20
1.3439750316
 11
6.331770342
 21
1.3408254253
  0
LINE
  5
3FB
100
AcDbEntity
  8
ART01_PHO
100
AcDbLine
 62
7
  6
CONTINUOUS
 10
5.631770342
 20
1.3439750316
 11
5.6385813656
 21
1.3408254253
  0
LINE
  5
3FC
100
AcDbEntity
  8
ART01_PHO
100
AcDbLine
 62
7
  6
CONTINUOUS
 10
5.3431089247
 20
1.3127151891
 11
5.3476758538
 21
1.3096049528
  0
LINE
  5
3FD
100
AcDbEntity
  8
ART01_PHO
100
AcDbLine
 62
7
  6
CONTINUOUS
 10
5.361297901
 20
1.3720852678
 11
5.356770342
 21
1.375195504
  0
LINE
  5
3FE
100
AcDbEntity
  8
ART01_PHO
100
AcDbLine
 62
7
  6
CONTINUOUS
 10
4.6258254601
 20
1.3189750316
 11
4.6303923892
 21
1.3127151891
  0
LINE
  5
3FF
100
AcDbEntity
  8
ART01_PHO
100
AcDbLine
 62
7
  6
CONTINUOUS
 10
4.8349199483
 20
1.3189750316
 11
4.8394868774
 21
1.3127151891
  0
LINE
  5
400
100
AcDbEntity
  8
ART01_PHO
100
AcDbLine
 62
7
  6
CONTINUOUS
 10
4.8076758538
 20
1.3408254253
 11
4.8099199483
 21
1.3377151891
  0
LINE
  5
401
100
AcDbEntity
  8
ART01_PHO
100
AcDbLine
 62
7
  6
CONTINUOUS
 10
4.2176758538
 20
1.3439750316
 11
4.2335813656
 21
1.3096049528
  0
LINE
  5
402
100
AcDbEntity
  8
ART01_PHO
100
AcDbLine
 62
7
  6
CONTINUOUS
 10
4.031297901
 20
1.325195504
 11
4.0335813656
 21
1.3189750316
  0
LINE
  5
403
100
AcDbEntity
  8
ART01_PHO
100
AcDbLine
 62
7
  6
CONTINUOUS
 10
4.0631089247
 20
1.3596049528
 11
4.0608254601
 21
1.3658254253
  0
LINE
  5
404
100
AcDbEntity
  8
ART01_PHO
100
AcDbLine
 62
7
  6
CONTINUOUS
 10
4.006297901
 20
1.3689750316
 11
4.0085813656
 21
1.3627151891
  0
LINE
  5
405
100
AcDbEntity
  8
ART01_PHO
100
AcDbLine
 62
7
  6
CONTINUOUS
 10
3.4990144365
 20
1.3346049528
 11
3.501297901
 21
1.325195504
  0
LINE
  5
406
100
AcDbEntity
  8
ART01_PHO
100
AcDbLine
 62
7
  6
CONTINUOUS
 10
3.5353923892
 20
1.350195504
 11
3.5331089247
 21
1.3596049528
  0
LINE
  5
407
100
AcDbEntity
  8
ART01_PHO
100
AcDbLine
 62
7
  6
CONTINUOUS
 10
3.551297901
 20
1.4546049528
 11
3.5535813656
 21
1.445195504
  0
LINE
  5
408
100
AcDbEntity
  8
ART01_PHO
100
AcDbLine
 62
7
  6
CONTINUOUS
 10
3.5876758538
 20
1.470195504
 11
3.5853923892
 21
1.4796049528
  0
LINE
  5
409
100
AcDbEntity
  8
ART01_PHO
100
AcDbLine
 62
7
  6
CONTINUOUS
 10
3.6081089247
 20
1.4546049528
 11
3.6103923892
 21
1.445195504
  0
LINE
  5
40A
100
AcDbEntity
  8
ART01_PHO
100
AcDbLine
 62
7
  6
CONTINUOUS
 10
3.2522034128
 20
1.375195504
 11
3.2522034128
 21
1.3096049528
  0
LINE
  5
40B
100
AcDbEntity
  8
ADT_PHO
100
AcDbLine
 62
7
  6
CONTINUOUS
 10
3.261770342
 20
3.9546049528
 11
3.261770342
 21
3.7546049528
  0
LINE
  5
40C
100
AcDbEntity
  8
ADT_PHO
100
AcDbLine
 62
7
  6
CONTINUOUS
 10
3.261770342
 20
2.2346049528
 11
3.261770342
 21
2.0346049528
  0
LINE
  5
40D
100
AcDbEntity
  8
ADT_PHO
100
AcDbLine
 62
7
  6
CONTINUOUS
 10
3.291770342
 20
4.0446049528
 11
3.291770342
 21
4.2246049528
  0
LINE
  5
40E
100
AcDbEntity
  8
ADT_PHO
100
AcDbLine
 62
7
  6
CONTINUOUS
 10
3.296770342
 20
2.7996049528
 11
3.296770342
 21
2.9996049528
  0
LINE
  5
40F
100
AcDbEntity
  8
ART01_PHO
100
AcDbLine
 62
7
  6
CONTINUOUS
 10
3.2979908144
 20
1.4788175513
 11
3.2979908144
 21
1.4296049528
  0
LINE
  5
410
100
AcDbEntity
  8
ADT_PHO
100
AcDbLine
 62
7
  6
CONTINUOUS
 10
3.301770342
 20
2.0346049528
 11
3.301770342
 21
2.2346049528
  0
LINE
  5
411
100
AcDbEntity
  8
ADT_PHO
100
AcDbLine
 62
7
  6
CONTINUOUS
 10
3.311770342
 20
2.4646049528
 11
3.311770342
 21
2.2646049528
  0
LINE
  5
412
100
AcDbEntity
  8
ADT_PHO
100
AcDbLine
 62
7
  6
CONTINUOUS
 10
3.311770342
 20
1.6046049528
 11
3.311770342
 21
1.5146049528
  0
LINE
  5
413
100
AcDbEntity
  8
ADT_PHO
100
AcDbLine
 62
7
  6
CONTINUOUS
 10
3.321770342
 20
3.0696049528
 11
3.321770342
 21
3.1396049528
  0
LINE
  5
414
100
AcDbEntity
  8
ADT_PHO
100
AcDbLine
 62
7
  6
CONTINUOUS
 10
3.331770342
 20
2.0146049528
 11
3.331770342
 21
1.6346049528
  0
LINE
  5
415
100
AcDbEntity
  8
ADT_PHO
100
AcDbLine
 62
7
  6
CONTINUOUS
 10
3.351770342
 20
1.7596049528
 11
3.351770342
 21
1.5196049528
  0
LINE
  5
416
100
AcDbEntity
  8
ART01_PHO
100
AcDbLine
 62
7
  6
CONTINUOUS
 10
3.351770342
 20
1.4946049528
 11
3.351770342
 21
1.2996049528
  0
LINE
  5
417
100
AcDbEntity
  8
ADT_PHO
100
AcDbLine
 62
7
  6
CONTINUOUS
 10
3.361770342
 20
2.2596049528
 11
3.361770342
 21
2.3296049528
  0
LINE
  5
418
100
AcDbEntity
  8
ADT_PHO
100
AcDbLine
 62
7
  6
CONTINUOUS
 10
3.3623215231
 20
3.426179756
 11
3.3623215231
 21
3.2026364489
  0
LINE
  5
419
100
AcDbEntity
  8
ADT_PHO
100
AcDbLine
 62
7
  6
CONTINUOUS
 10
3.366770342
 20
2.9996049528
 11
3.366770342
 21
2.7996049528
  0
LINE
  5
41A
100
AcDbEntity
  8
ADT_PHO
100
AcDbLine
 62
7
  6
CONTINUOUS
 10
3.371770342
 20
2.2346049528
 11
3.371770342
 21
2.0346049528
  0
LINE
  5
41B
100
AcDbEntity
  8
ADT_PHO
100
AcDbLine
 62
7
  6
CONTINUOUS
 10
3.376770342
 20
1.7846049528
 11
3.376770342
 21
1.9846049528
  0
LINE
  5
41C
100
AcDbEntity
  8
ADT_PHO
100
AcDbLine
 62
7
  6
CONTINUOUS
 10
3.391770342
 20
4.0646049528
 11
3.391770342
 21
4.2646049528
  0
LINE
  5
41D
100
AcDbEntity
  8
ADT_PHO
100
AcDbLine
 62
7
  6
CONTINUOUS
 10
3.396770342
 20
1.7246049528
 11
3.396770342
 21
1.7496049528
  0
LINE
  5
41E
100
AcDbEntity
  8
ADT_PHO
100
AcDbLine
 62
7
  6
CONTINUOUS
 10
3.401770342
 20
2.7996049528
 11
3.401770342
 21
2.9996049528
  0
LINE
  5
41F
100
AcDbEntity
  8
ADT_PHO
100
AcDbLine
 62
7
  6
CONTINUOUS
 10
3.4073215231
 20
3.2026364489
 11
3.4073215231
 21
3.2226364489
  0
LINE
  5
420
100
AcDbEntity
  8
ADT_PHO
100
AcDbLine
 62
7
  6
CONTINUOUS
 10
3.411770342
 20
2.0346049528
 11
3.411770342
 21
2.2346049528
  0
LINE
  5
421
100
AcDbEntity
  8
ADT_PHO
100
AcDbLine
 62
7
  6
CONTINUOUS
 10
3.446770342
 20
2.7096049528
 11
3.446770342
 21
2.3696049528
  0
LINE
  5
422
100
AcDbEntity
  8
ADT_PHO
100
AcDbLine
 62
7
  6
CONTINUOUS
 10
3.446770342
 20
1.9846049528
 11
3.446770342
 21
1.7846049528
  0
LINE
  5
423
100
AcDbEntity
  8
ART01_PHO
100
AcDbLine
 62
7
  6
CONTINUOUS
 10
3.446770342
 20
1.495195504
 11
3.446770342
 21
1.4296049528
  0
LINE
  5
424
100
AcDbEntity
  8
ART01_PHO
100
AcDbLine
 62
7
  6
CONTINUOUS
 10
3.446770342
 20
1.375195504
 11
3.446770342
 21
1.3096049528
  0
LINE
  5
425
100
AcDbEntity
  8
ADT_PHO
100
AcDbLine
 62
7
  6
CONTINUOUS
 10
3.4473215231
 20
3.2226364489
 11
3.4473215231
 21
3.2026364489
  0
LINE
  5
426
100
AcDbEntity
  8
ADT_PHO
100
AcDbLine
 62
7
  6
CONTINUOUS
 10
3.461770342
 20
4.2646049528
 11
3.461770342
 21
4.0646049528
  0
LINE
  5
427
100
AcDbEntity
  8
ADT_PHO
100
AcDbLine
 62
7
  6
CONTINUOUS
 10
3.471770342
 20
2.9996049528
 11
3.471770342
 21
2.7996049528
  0
LINE
  5
428
100
AcDbEntity
  8
ART01_PHO
100
AcDbLine
 62
7
  6
CONTINUOUS
 10
3.4785813656
 20
1.4827151891
 11
3.4785813656
 21
1.4733451103
  0
LINE
  5
429
100
AcDbEntity
  8
ART01_PHO
100
AcDbLine
 62
7
  6
CONTINUOUS
 10
3.4785813656
 20
1.3627151891
 11
3.4785813656
 21
1.3533451103
  0
LINE
  5
42A
100
AcDbEntity
  8
ADT_PHO
100
AcDbLine
 62
7
  6
CONTINUOUS
 10
3.481770342
 20
2.2346049528
 11
3.481770342
 21
2.0346049528
  0
LINE
  5
42B
100
AcDbEntity
  8
ADT_PHO
100
AcDbLine
 62
7
  6
CONTINUOUS
 10
3.486770342
 20
2.6796049528
 11
3.486770342
 21
2.7096049528
  0
LINE
  5
42C
100
AcDbEntity
  8
ADT_PHO
100
AcDbLine
 62
7
  6
CONTINUOUS
 10
3.491770342
 20
1.7846049528
 11
3.491770342
 21
1.9846049528
  0
LINE
  5
42D
100
AcDbEntity
  8
ADT_PHO
100
AcDbLine
 62
7
  6
CONTINUOUS
 10
3.4923215231
 20
3.2026364489
 11
3.4923215231
 21
3.426179756
  0
LINE
  5
42E
100
AcDbEntity
  8
ART01_PHO
100
AcDbLine
 62
7
  6
CONTINUOUS
 10
3.4990144365
 20
1.495195504
 11
3.4990144365
 21
1.4296049528
  0
LINE
  5
42F
100
AcDbEntity
  8
ART01_PHO
100
AcDbLine
 62
7
  6
CONTINUOUS
 10
3.4990144365
 20
1.350195504
 11
3.4990144365
 21
1.3346049528
  0
LINE
  5
430
100
AcDbEntity
  8
ADT_PHO
100
AcDbLine
 62
7
  6
CONTINUOUS
 10
3.506770342
 20
2.7996049528
 11
3.506770342
 21
2.9996049528
  0
LINE
  5
431
100
AcDbEntity
  8
ADT_PHO
100
AcDbLine
 62
7
  6
CONTINUOUS
 10
3.521770342
 20
3.1396049528
 11
3.521770342
 21
3.0696049528
  0
LINE
  5
432
100
AcDbEntity
  8
ART01_PHO
100
AcDbLine
 62
7
  6
CONTINUOUS
 10
3.5308254601
 20
1.4827151891
 11
3.5308254601
 21
1.4764553465
  0
LINE
  5
433
100
AcDbEntity
  8
ART01_PHO
100
AcDbLine
 62
7
  6
CONTINUOUS
 10
3.5353923892
 20
1.3346049528
 11
3.5353923892
 21
1.350195504
  0
LINE
  5
434
100
AcDbEntity
  8
ADT_PHO
100
AcDbLine
 62
7
  6
CONTINUOUS
 10
3.536770342
 20
2.7096049528
 11
3.536770342
 21
2.6796049528
  0
LINE
  5
435
100
AcDbEntity
  8
ART01_PHO
100
AcDbLine
 62
7
  6
CONTINUOUS
 10
3.551297901
 20
1.470195504
 11
3.551297901
 21
1.4546049528
  0
LINE
  5
436
100
AcDbEntity
  8
ART01_PHO
100
AcDbLine
 62
7
  6
CONTINUOUS
 10
3.5558254601
 20
1.375195504
 11
3.5558254601
 21
1.3096049528
  0
LINE
  5
437
100
AcDbEntity
  8
ADT_PHO
100
AcDbLine
 62
7
  6
CONTINUOUS
 10
3.561770342
 20
2.3296049528
 11
3.561770342
 21
2.2596049528
  0
LINE
  5
438
100
AcDbEntity
  8
ADT_PHO
100
AcDbLine
 62
7
  6
CONTINUOUS
 10
3.561770342
 20
1.9846049528
 11
3.561770342
 21
1.7846049528
  0
LINE
  5
439
100
AcDbEntity
  8
ADT_PHO
100
AcDbLine
 62
7
  6
CONTINUOUS
 10
3.576770342
 20
2.9996049528
 11
3.576770342
 21
2.7996049528
  0
LINE
  5
43A
100
AcDbEntity
  8
ADT_PHO
100
AcDbLine
 62
7
  6
CONTINUOUS
 10
3.576770342
 20
2.3696049528
 11
3.576770342
 21
2.7096049528
  0
LINE
  5
43B
100
AcDbEntity
  8
ART01_PHO
100
AcDbLine
 62
7
  6
CONTINUOUS
 10
3.5876758538
 20
1.3627151891
 11
3.5876758538
 21
1.3564553465
  0
LINE
  5
43C
100
AcDbEntity
  8
ART01_PHO
100
AcDbLine
 62
7
  6
CONTINUOUS
 10
3.5876758538
 20
1.4546049528
 11
3.5876758538
 21
1.470195504
  0
LINE
  5
43D
100
AcDbEntity
  8
ADT_PHO
100
AcDbLine
 62
7
  6
CONTINUOUS
 10
3.596770342
 20
1.7846049528
 11
3.596770342
 21
1.9846049528
  0
LINE
  5
43E
100
AcDbEntity
  8
ADT_PHO
100
AcDbLine
 62
7
  6
CONTINUOUS
 10
3.601770342
 20
2.0446049528
 11
3.601770342
 21
2.1146049528
  0
LINE
  5
43F
100
AcDbEntity
  8
ADT_PHO
100
AcDbLine
 62
7
  6
CONTINUOUS
 10
3.601770342
 20
2.1496049528
 11
3.601770342
 21
2.2196049528
  0
LINE
  5
440
100
AcDbEntity
  8
ART01_PHO
100
AcDbLine
 62
7
  6
CONTINUOUS
 10
3.6081089247
 20
1.470195504
 11
3.6081089247
 21
1.4546049528
  0
LINE
  5
441
100
AcDbEntity
  8
ADT_PHO
100
AcDbLine
 62
7
  6
CONTINUOUS
 10
3.611770342
 20
2.7996049528
 11
3.611770342
 21
2.9996049528
  0
LINE
  5
442
100
AcDbEntity
  8
ART01_PHO
100
AcDbLine
 62
7
  6
CONTINUOUS
 10
3.6240144365
 20
1.375195504
 11
3.6240144365
 21
1.3096049528
  0
LINE
  5
443
100
AcDbEntity
  8
ADT_PHO
100
AcDbLine
 62
7
  6
CONTINUOUS
 10
3.626770342
 20
3.4746049528
 11
3.626770342
 21
3.5446049528
  0
LINE
  5
444
100
AcDbEntity
  8
ART01_PHO
100
AcDbLine
 62
7
  6
CONTINUOUS
 10
2.8294868774
 20
1.375195504
 11
2.8181089247
 21
1.3096049528
  0
LINE
  5
445
100
AcDbEntity
  8
ART01_PHO
100
AcDbLine
 62
7
  6
CONTINUOUS
 10
2.8522034128
 20
1.375195504
 11
2.8408254601
 21
1.3096049528
  0
LINE
  5
446
100
AcDbEntity
  8
ART01_PHO
100
AcDbLine
 62
7
  6
CONTINUOUS
 10
2.6403923892
 20
1.4496049528
 11
2.6381089247
 21
1.440195504
  0
LINE
  5
447
100
AcDbEntity
  8
ART01_PHO
100
AcDbLine
 62
7
  6
CONTINUOUS
 10
2.2035813656
 20
1.4339750316
 11
2.2058254601
 21
1.440195504
  0
LINE
  5
448
100
AcDbEntity
  8
ART01_PHO
100
AcDbLine
 62
7
  6
CONTINUOUS
 10
2.2044868774
 20
1.3514553465
 11
2.2022034128
 21
1.345195504
  0
LINE
  5
449
100
AcDbEntity
  8
ART01_PHO
100
AcDbLine
 62
7
  6
CONTINUOUS
 10
2.2044868774
 20
1.3170852678
 11
2.2022034128
 21
1.3108254253
  0
LINE
  5
44A
100
AcDbEntity
  8
ART01_PHO
100
AcDbLine
 62
7
  6
CONTINUOUS
 10
2.176297901
 20
1.4808254253
 11
2.1740144365
 21
1.4746049528
  0
LINE
  5
44B
100
AcDbEntity
  8
ART01_PHO
100
AcDbLine
 62
7
  6
CONTINUOUS
 10
1.8885813656
 20
1.370195504
 11
1.856770342
 21
1.3046049528
  0
LINE
  5
44C
100
AcDbEntity
  8
ADT_PHO
100
AcDbLine
 62
7
  6
CONTINUOUS
 10
3.111770342
 20
2.0146049528
 11
3.331770342
 21
2.0146049528
  0
LINE
  5
44D
100
AcDbEntity
  8
ADT_PHO
100
AcDbLine
 62
7
  6
CONTINUOUS
 10
3.076770342
 20
2.0196049528
 11
1.396770342
 21
2.0196049528
  0
LINE
  5
44E
100
AcDbEntity
  8
ADT_PHO
100
AcDbLine
 62
7
  6
CONTINUOUS
 10
3.796770342
 20
2.0246049528
 11
6.466770342
 21
2.0246049528
  0
LINE
  5
44F
100
AcDbEntity
  8
ADT_PHO
100
AcDbLine
 62
7
  6
CONTINUOUS
 10
3.481770342
 20
2.0346049528
 11
3.411770342
 21
2.0346049528
  0
LINE
  5
450
100
AcDbEntity
  8
ADT_PHO
100
AcDbLine
 62
7
  6
CONTINUOUS
 10
3.371770342
 20
2.0346049528
 11
3.301770342
 21
2.0346049528
  0
LINE
  5
451
100
AcDbEntity
  8
ADT_PHO
100
AcDbLine
 62
7
  6
CONTINUOUS
 10
3.261770342
 20
2.0346049528
 11
3.191770342
 21
2.0346049528
  0
LINE
  5
452
100
AcDbEntity
  8
ADT_PHO
100
AcDbLine
 62
7
  6
CONTINUOUS
 10
2.971770342
 20
2.0396049528
 11
2.901770342
 21
2.0396049528
  0
LINE
  5
453
100
AcDbEntity
  8
ADT_PHO
100
AcDbLine
 62
7
  6
CONTINUOUS
 10
2.846770342
 20
2.0396049528
 11
2.776770342
 21
2.0396049528
  0
LINE
  5
454
100
AcDbEntity
  8
ADT_PHO
100
AcDbLine
 62
7
  6
CONTINUOUS
 10
2.526770342
 20
2.0396049528
 11
2.456770342
 21
2.0396049528
  0
LINE
  5
455
100
AcDbEntity
  8
ADT_PHO
100
AcDbLine
 62
7
  6
CONTINUOUS
 10
2.366770342
 20
2.0396049528
 11
2.146770342
 21
2.0396049528
  0
LINE
  5
456
100
AcDbEntity
  8
ADT_PHO
100
AcDbLine
 62
7
  6
CONTINUOUS
 10
2.116770342
 20
2.0396049528
 11
1.896770342
 21
2.0396049528
  0
LINE
  5
457
100
AcDbEntity
  8
ADT_PHO
100
AcDbLine
 62
7
  6
CONTINUOUS
 10
1.866770342
 20
2.0396049528
 11
1.646770342
 21
2.0396049528
  0
LINE
  5
458
100
AcDbEntity
  8
ADT_PHO
100
AcDbLine
 62
7
  6
CONTINUOUS
 10
6.581770342
 20
2.0446049528
 11
6.361770342
 21
2.0446049528
  0
LINE
  5
459
100
AcDbEntity
  8
ADT_PHO
100
AcDbLine
 62
7
  6
CONTINUOUS
 10
5.981770342
 20
2.0446049528
 11
5.911770342
 21
2.0446049528
  0
LINE
  5
45A
100
AcDbEntity
  8
ADT_PHO
100
AcDbLine
 62
7
  6
CONTINUOUS
 10
5.886770342
 20
2.0446049528
 11
5.816770342
 21
2.0446049528
  0
LINE
  5
45B
100
AcDbEntity
  8
ADT_PHO
100
AcDbLine
 62
7
  6
CONTINUOUS
 10
5.686770342
 20
2.0446049528
 11
5.616770342
 21
2.0446049528
  0
LINE
  5
45C
100
AcDbEntity
  8
ADT_PHO
100
AcDbLine
 62
7
  6
CONTINUOUS
 10
5.586770342
 20
2.0446049528
 11
5.516770342
 21
2.0446049528
  0
LINE
  5
45D
100
AcDbEntity
  8
ADT_PHO
100
AcDbLine
 62
7
  6
CONTINUOUS
 10
5.486770342
 20
2.0446049528
 11
5.416770342
 21
2.0446049528
  0
LINE
  5
45E
100
AcDbEntity
  8
ADT_PHO
100
AcDbLine
 62
7
  6
CONTINUOUS
 10
5.371770342
 20
2.0446049528
 11
5.251770342
 21
2.0446049528
  0
LINE
  5
45F
100
AcDbEntity
  8
ADT_PHO
100
AcDbLine
 62
7
  6
CONTINUOUS
 10
5.231770342
 20
2.0446049528
 11
5.011770342
 21
2.0446049528
  0
LINE
  5
460
100
AcDbEntity
  8
ADT_PHO
100
AcDbLine
 62
7
  6
CONTINUOUS
 10
4.986770342
 20
2.0446049528
 11
4.916770342
 21
2.0446049528
  0
LINE
  5
461
100
AcDbEntity
  8
ADT_PHO
100
AcDbLine
 62
7
  6
CONTINUOUS
 10
4.891770342
 20
2.0446049528
 11
4.781770342
 21
2.0446049528
  0
LINE
  5
462
100
AcDbEntity
  8
ADT_PHO
100
AcDbLine
 62
7
  6
CONTINUOUS
 10
4.756770342
 20
2.0446049528
 11
4.646770342
 21
2.0446049528
  0
LINE
  5
463
100
AcDbEntity
  8
ADT_PHO
100
AcDbLine
 62
7
  6
CONTINUOUS
 10
4.621770342
 20
2.0446049528
 11
4.551770342
 21
2.0446049528
  0
LINE
  5
464
100
AcDbEntity
  8
ADT_PHO
100
AcDbLine
 62
7
  6
CONTINUOUS
 10
4.246770342
 20
2.0446049528
 11
4.026770342
 21
2.0446049528
  0
LINE
  5
465
100
AcDbEntity
  8
ADT_PHO
100
AcDbLine
 62
7
  6
CONTINUOUS
 10
4.006770342
 20
2.0446049528
 11
3.786770342
 21
2.0446049528
  0
LINE
  5
466
100
AcDbEntity
  8
ADT_PHO
100
AcDbLine
 62
7
  6
CONTINUOUS
 10
3.751770342
 20
2.0446049528
 11
3.601770342
 21
2.0446049528
  0
LINE
  5
467
100
AcDbEntity
  8
ADT_PHO
100
AcDbLine
 62
7
  6
CONTINUOUS
 10
6.341770342
 20
2.0496049528
 11
6.231770342
 21
2.0496049528
  0
LINE
  5
468
100
AcDbEntity
  8
ADT_PHO
100
AcDbLine
 62
7
  6
CONTINUOUS
 10
4.381770342
 20
2.0496049528
 11
4.271770342
 21
2.0496049528
  0
LINE
  5
469
100
AcDbEntity
  8
ADT_PHO
100
AcDbLine
 62
7
  6
CONTINUOUS
 10
3.161770342
 20
2.0496049528
 11
3.091770342
 21
2.0496049528
  0
LINE
  5
46A
100
AcDbEntity
  8
ADT_PHO
100
AcDbLine
 62
7
  6
CONTINUOUS
 10
6.206770342
 20
2.0546049528
 11
6.136770342
 21
2.0546049528
  0
LINE
  5
46B
100
AcDbEntity
  8
ADT_PHO
100
AcDbLine
 62
7
  6
CONTINUOUS
 10
6.116770342
 20
2.0546049528
 11
6.006770342
 21
2.0546049528
  0
LINE
  5
46C
100
AcDbEntity
  8
ADT_PHO
100
AcDbLine
 62
7
  6
CONTINUOUS
 10
5.786770342
 20
2.0896049528
 11
5.716770342
 21
2.0896049528
  0
LINE
  5
46D
100
AcDbEntity
  8
ADT_PHO
100
AcDbLine
 62
7
  6
CONTINUOUS
 10
4.476770342
 20
2.0896049528
 11
4.406770342
 21
2.0896049528
  0
LINE
  5
46E
100
AcDbEntity
  8
ADT_PHO
100
AcDbLine
 62
7
  6
CONTINUOUS
 10
3.601770342
 20
2.1146049528
 11
3.751770342
 21
2.1146049528
  0
LINE
  5
46F
100
AcDbEntity
  8
ADT_PHO
100
AcDbLine
 62
7
  6
CONTINUOUS
 10
2.706770342
 20
2.1196049528
 11
2.556770342
 21
2.1196049528
  0
LINE
  5
470
100
AcDbEntity
  8
ADT_PHO
100
AcDbLine
 62
7
  6
CONTINUOUS
 10
3.751770342
 20
2.1496049528
 11
3.601770342
 21
2.1496049528
  0
LINE
  5
471
100
AcDbEntity
  8
ADT_PHO
100
AcDbLine
 62
7
  6
CONTINUOUS
 10
2.556770342
 20
2.1696049528
 11
2.706770342
 21
2.1696049528
  0
LINE
  5
472
100
AcDbEntity
  8
ADT_PHO
100
AcDbLine
 62
7
  6
CONTINUOUS
 10
1.496770342
 20
2.1746049528
 11
1.596770342
 21
2.1746049528
  0
LINE
  5
473
100
AcDbEntity
  8
ADT_PHO
100
AcDbLine
 62
7
  6
CONTINUOUS
 10
3.091770342
 20
2.1996049528
 11
3.161770342
 21
2.1996049528
  0
LINE
  5
474
100
AcDbEntity
  8
ADT_PHO
100
AcDbLine
 62
7
  6
CONTINUOUS
 10
6.136770342
 20
2.2046049528
 11
6.206770342
 21
2.2046049528
  0
LINE
  5
475
100
AcDbEntity
  8
ADT_PHO
100
AcDbLine
 62
7
  6
CONTINUOUS
 10
3.601770342
 20
2.2196049528
 11
3.751770342
 21
2.2196049528
  0
LINE
  5
476
100
AcDbEntity
  8
ADT_PHO
100
AcDbLine
 62
7
  6
CONTINUOUS
 10
3.191770342
 20
2.2346049528
 11
3.261770342
 21
2.2346049528
  0
LINE
  5
477
100
AcDbEntity
  8
ADT_PHO
100
AcDbLine
 62
7
  6
CONTINUOUS
 10
3.301770342
 20
2.2346049528
 11
3.371770342
 21
2.2346049528
  0
LINE
  5
478
100
AcDbEntity
  8
ADT_PHO
100
AcDbLine
 62
7
  6
CONTINUOUS
 10
3.411770342
 20
2.2346049528
 11
3.481770342
 21
2.2346049528
  0
LINE
  5
479
100
AcDbEntity
  8
ADT_PHO
100
AcDbLine
 62
7
  6
CONTINUOUS
 10
2.456770342
 20
2.2396049528
 11
2.526770342
 21
2.2396049528
  0
LINE
  5
47A
100
AcDbEntity
  8
ADT_PHO
100
AcDbLine
 62
7
  6
CONTINUOUS
 10
2.776770342
 20
2.2396049528
 11
2.846770342
 21
2.2396049528
  0
LINE
  5
47B
100
AcDbEntity
  8
ADT_PHO
100
AcDbLine
 62
7
  6
CONTINUOUS
 10
2.901770342
 20
2.2396049528
 11
2.971770342
 21
2.2396049528
  0
LINE
  5
47C
100
AcDbEntity
  8
ADT_PHO
100
AcDbLine
 62
7
  6
CONTINUOUS
 10
4.406770342
 20
2.2396049528
 11
4.476770342
 21
2.2396049528
  0
LINE
  5
47D
100
AcDbEntity
  8
ADT_PHO
100
AcDbLine
 62
7
  6
CONTINUOUS
 10
5.716770342
 20
2.2396049528
 11
5.786770342
 21
2.2396049528
  0
LINE
  5
47E
100
AcDbEntity
  8
ADT_PHO
100
AcDbLine
 62
7
  6
CONTINUOUS
 10
4.551770342
 20
2.2446049528
 11
4.621770342
 21
2.2446049528
  0
LINE
  5
47F
100
AcDbEntity
  8
ADT_PHO
100
AcDbLine
 62
7
  6
CONTINUOUS
 10
4.916770342
 20
2.2446049528
 11
4.986770342
 21
2.2446049528
  0
LINE
  5
480
100
AcDbEntity
  8
ADT_PHO
100
AcDbLine
 62
7
  6
CONTINUOUS
 10
5.416770342
 20
2.2446049528
 11
5.486770342
 21
2.2446049528
  0
LINE
  5
481
100
AcDbEntity
  8
ADT_PHO
100
AcDbLine
 62
7
  6
CONTINUOUS
 10
5.516770342
 20
2.2446049528
 11
5.586770342
 21
2.2446049528
  0
LINE
  5
482
100
AcDbEntity
  8
ADT_PHO
100
AcDbLine
 62
7
  6
CONTINUOUS
 10
5.616770342
 20
2.2446049528
 11
5.686770342
 21
2.2446049528
  0
LINE
  5
483
100
AcDbEntity
  8
ADT_PHO
100
AcDbLine
 62
7
  6
CONTINUOUS
 10
5.816770342
 20
2.2446049528
 11
5.886770342
 21
2.2446049528
  0
LINE
  5
484
100
AcDbEntity
  8
ADT_PHO
100
AcDbLine
 62
7
  6
CONTINUOUS
 10
5.911770342
 20
2.2446049528
 11
5.981770342
 21
2.2446049528
  0
LINE
  5
485
100
AcDbEntity
  8
ADT_PHO
100
AcDbLine
 62
7
  6
CONTINUOUS
 10
3.561770342
 20
2.2596049528
 11
3.361770342
 21
2.2596049528
  0
LINE
  5
486
100
AcDbEntity
  8
ADT_PHO
100
AcDbLine
 62
7
  6
CONTINUOUS
 10
4.986770342
 20
2.2646049528
 11
4.916770342
 21
2.2646049528
  0
LINE
  5
487
100
AcDbEntity
  8
ADT_PHO
100
AcDbLine
 62
7
  6
CONTINUOUS
 10
3.311770342
 20
2.2646049528
 11
3.241770342
 21
2.2646049528
  0
LINE
  5
488
100
AcDbEntity
  8
ADT_PHO
100
AcDbLine
 62
7
  6
CONTINUOUS
 10
4.646770342
 20
2.2946049528
 11
4.756770342
 21
2.2946049528
  0
LINE
  5
489
100
AcDbEntity
  8
ADT_PHO
100
AcDbLine
 62
7
  6
CONTINUOUS
 10
4.781770342
 20
2.2946049528
 11
4.891770342
 21
2.2946049528
  0
LINE
  5
48A
100
AcDbEntity
  8
ADT_PHO
100
AcDbLine
 62
7
  6
CONTINUOUS
 10
4.271770342
 20
2.2996049528
 11
4.381770342
 21
2.2996049528
  0
LINE
  5
48B
100
AcDbEntity
  8
ADT_PHO
100
AcDbLine
 62
7
  6
CONTINUOUS
 10
6.231770342
 20
2.2996049528
 11
6.341770342
 21
2.2996049528
  0
LINE
  5
48C
100
AcDbEntity
  8
ADT_PHO
100
AcDbLine
 62
7
  6
CONTINUOUS
 10
6.006770342
 20
2.3046049528
 11
6.116770342
 21
2.3046049528
  0
LINE
  5
48D
100
AcDbEntity
  8
ADT_PHO
100
AcDbLine
 62
7
  6
CONTINUOUS
 10
6.111770342
 20
2.3246049528
 11
6.061770342
 21
2.3246049528
  0
LINE
  5
48E
100
AcDbEntity
  8
ADT_PHO
100
AcDbLine
 62
7
  6
CONTINUOUS
 10
5.956770342
 20
2.3246049528
 11
5.886770342
 21
2.3246049528
  0
LINE
  5
48F
100
AcDbEntity
  8
ADT_PHO
100
AcDbLine
 62
7
  6
CONTINUOUS
 10
5.841770342
 20
2.3246049528
 11
5.771770342
 21
2.3246049528
  0
LINE
  5
490
100
AcDbEntity
  8
ADT_PHO
100
AcDbLine
 62
7
  6
CONTINUOUS
 10
3.361770342
 20
2.3296049528
 11
3.561770342
 21
2.3296049528
  0
LINE
  5
491
100
AcDbEntity
  8
ADT_PHO
100
AcDbLine
 62
7
  6
CONTINUOUS
 10
5.371770342
 20
2.3446049528
 11
5.251770342
 21
2.3446049528
  0
LINE
  5
492
100
AcDbEntity
  8
ADT_PHO
100
AcDbLine
 62
7
  6
CONTINUOUS
 10
6.061770342
 20
2.3646049528
 11
6.016770342
 21
2.3646049528
  0
LINE
  5
493
100
AcDbEntity
  8
ADT_PHO
100
AcDbLine
 62
7
  6
CONTINUOUS
 10
4.891770342
 20
2.3646049528
 11
4.821770342
 21
2.3646049528
  0
LINE
  5
494
100
AcDbEntity
  8
ADT_PHO
100
AcDbLine
 62
7
  6
CONTINUOUS
 10
4.796770342
 20
2.3646049528
 11
4.726770342
 21
2.3646049528
  0
LINE
  5
495
100
AcDbEntity
  8
ADT_PHO
100
AcDbLine
 62
7
  6
CONTINUOUS
 10
2.666770342
 20
2.3646049528
 11
2.466770342
 21
2.3646049528
  0
LINE
  5
496
100
AcDbEntity
  8
ADT_PHO
100
AcDbLine
 62
7
  6
CONTINUOUS
 10
3.446770342
 20
2.3696049528
 11
3.576770342
 21
2.3696049528
  0
LINE
  5
497
100
AcDbEntity
  8
ADT_PHO
100
AcDbLine
 62
7
  6
CONTINUOUS
 10
4.631770342
 20
2.3796049528
 11
4.481770342
 21
2.3796049528
  0
LINE
  5
498
100
AcDbEntity
  8
ART01_PHO
100
AcDbLine
 62
7
  6
CONTINUOUS
 10
6.2044868774
 20
1.350195504
 11
6.2090144365
 21
1.3470852678
  0
LINE
  5
499
100
AcDbEntity
  8
ART01_PHO
100
AcDbLine
 62
7
  6
CONTINUOUS
 10
6.2226758538
 20
1.3408254253
 11
6.2272034128
 21
1.3377151891
  0
LINE
  5
49A
100
AcDbEntity
  8
ART01_PHO
100
AcDbLine
 62
7
  6
CONTINUOUS
 10
4.9122034128
 20
1.3377151891
 11
4.9144868774
 21
1.3346049528
  0
LINE
  5
49B
100
AcDbEntity
  8
ART01_PHO
100
AcDbLine
 62
7
  6
CONTINUOUS
 10
4.8894868774
 20
1.3127151891
 11
4.8849199483
 21
1.3189750316
  0
LINE
  5
49C
100
AcDbEntity
  8
ART01_PHO
100
AcDbLine
 62
7
  6
CONTINUOUS
 10
4.916770342
 20
1.3658254253
 11
4.9122034128
 21
1.3720852678
  0
LINE
  5
49D
100
AcDbEntity
  8
ART01_PHO
100
AcDbLine
 62
7
  6
CONTINUOUS
 10
4.8872034128
 20
1.3533451103
 11
4.8894868774
 21
1.350195504
  0
LINE
  5
49E
100
AcDbEntity
  8
ART01_PHO
100
AcDbLine
 62
7
  6
CONTINUOUS
 10
4.8076758538
 20
1.3720852678
 11
4.8099199483
 21
1.3689750316
  0
LINE
  5
49F
100
AcDbEntity
  8
ART01_PHO
100
AcDbLine
 62
7
  6
CONTINUOUS
 10
4.6758254601
 20
1.375195504
 11
4.7076758538
 21
1.3096049528
  0
LINE
  5
4A0
100
AcDbEntity
  8
ART01_PHO
100
AcDbLine
 62
7
  6
CONTINUOUS
 10
4.231297901
 20
1.3689750316
 11
4.2335813656
 21
1.3627151891
  0
LINE
  5
4A1
100
AcDbEntity
  8
ART01_PHO
100
AcDbLine
 62
7
  6
CONTINUOUS
 10
4.3244868774
 20
1.375195504
 11
4.3426758538
 21
1.3096049528
  0
LINE
  5
4A2
100
AcDbEntity
  8
ART01_PHO
100
AcDbLine
 62
7
  6
CONTINUOUS
 10
4.0290144365
 20
1.3346049528
 11
4.031297901
 21
1.325195504
  0
LINE
  5
4A3
100
AcDbEntity
  8
ART01_PHO
100
AcDbLine
 62
7
  6
CONTINUOUS
 10
4.0653923892
 20
1.350195504
 11
4.0631089247
 21
1.3596049528
  0
LINE
  5
4A4
100
AcDbEntity
  8
ART01_PHO
100
AcDbLine
 62
7
  6
CONTINUOUS
 10
4.0858254601
 20
1.375195504
 11
4.0972034128
 21
1.3096049528
  0
LINE
  5
4A5
100
AcDbEntity
  8
ADT_PHO
100
AcDbLine
 62
7
  6
CONTINUOUS
 10
3.641770342
 20
3.1446049528
 11
3.641770342
 21
3.3946049528
  0
LINE
  5
4A6
100
AcDbEntity
  8
ART01_PHO
100
AcDbLine
 62
7
  6
CONTINUOUS
 10
3.6422034128
 20
1.445195504
 11
3.6422034128
 21
1.4546049528
  0
LINE
  5
4A7
100
AcDbEntity
  8
ADT_PHO
100
AcDbLine
 62
7
  6
CONTINUOUS
 10
3.666770342
 20
1.9846049528
 11
3.666770342
 21
1.7846049528
  0
LINE
  5
4A8
100
AcDbEntity
  8
ADT_PHO
100
AcDbLine
 62
7
  6
CONTINUOUS
 10
3.681770342
 20
2.9996049528
 11
3.681770342
 21
2.7996049528
  0
LINE
  5
4A9
100
AcDbEntity
  8
ADT_PHO
100
AcDbLine
 62
7
  6
CONTINUOUS
 10
3.696770342
 20
1.7496049528
 11
3.696770342
 21
1.7246049528
  0
LINE
  5
4AA
100
AcDbEntity
  8
ADT_PHO
100
AcDbLine
 62
7
  6
CONTINUOUS
 10
3.701770342
 20
1.7846049528
 11
3.701770342
 21
1.9846049528
  0
LINE
  5
4AB
100
AcDbEntity
  8
ADT_PHO
100
AcDbLine
 62
7
  6
CONTINUOUS
 10
3.706770342
 20
2.7196049528
 11
3.706770342
 21
3.1096049528
  0
LINE
  5
4AC
100
AcDbEntity
  8
ART01_PHO
100
AcDbLine
 62
7
  6
CONTINUOUS
 10
3.741770342
 20
1.4946049528
 11
3.741770342
 21
1.2996049528
  0
LINE
  5
4AD
100
AcDbEntity
  8
ADT_PHO
100
AcDbLine
 62
7
  6
CONTINUOUS
 10
3.741770342
 20
1.5196049528
 11
3.741770342
 21
1.7596049528
  0
LINE
  5
4AE
100
AcDbEntity
  8
ADT_PHO
100
AcDbLine
 62
7
  6
CONTINUOUS
 10
3.746770342
 20
3.0696049528
 11
3.746770342
 21
2.7196049528
  0
LINE
  5
4AF
100
AcDbEntity
  8
ADT_PHO
100
AcDbLine
 62
7
  6
CONTINUOUS
 10
3.751770342
 20
3.3946049528
 11
3.751770342
 21
3.1446049528
  0
LINE
  5
4B0
100
AcDbEntity
  8
ADT_PHO
100
AcDbLine
 62
7
  6
CONTINUOUS
 10
3.751770342
 20
2.2196049528
 11
3.751770342
 21
2.1496049528
  0
LINE
  5
4B1
100
AcDbEntity
  8
ADT_PHO
100
AcDbLine
 62
7
  6
CONTINUOUS
 10
3.751770342
 20
2.1146049528
 11
3.751770342
 21
2.0446049528
  0
LINE
  5
4B2
100
AcDbEntity
  8
ADT_PHO
100
AcDbLine
 62
7
  6
CONTINUOUS
 10
3.771770342
 20
2.7696049528
 11
3.771770342
 21
2.4696049528
  0
LINE
  5
4B3
100
AcDbEntity
  8
ADT_PHO
100
AcDbLine
 62
7
  6
CONTINUOUS
 10
3.771770342
 20
1.9846049528
 11
3.771770342
 21
1.7846049528
  0
LINE
  5
4B4
100
AcDbEntity
  8
ADT_PHO
100
AcDbLine
 62
7
  6
CONTINUOUS
 10
3.786770342
 20
2.0446049528
 11
3.786770342
 21
2.4246049528
  0
LINE
  5
4B5
100
AcDbEntity
  8
ADT_PHO
100
AcDbLine
 62
7
  6
CONTINUOUS
 10
3.796770342
 20
1.5246049528
 11
3.796770342
 21
2.0246049528
  0
LINE
  5
4B6
100
AcDbEntity
  8
ADT_PHO
100
AcDbLine
 62
7
  6
CONTINUOUS
 10
3.826770342
 20
3.5446049528
 11
3.826770342
 21
3.4746049528
  0
LINE
  5
4B7
100
AcDbEntity
  8
ADT_PHO
100
AcDbLine
 62
7
  6
CONTINUOUS
 10
3.846770342
 20
3.2646049528
 11
3.846770342
 21
3.4146049528
  0
LINE
  5
4B8
100
AcDbEntity
  8
ADT_PHO
100
AcDbLine
 62
7
  6
CONTINUOUS
 10
3.851770342
 20
3.4746049528
 11
3.851770342
 21
3.5446049528
  0
LINE
  5
4B9
100
AcDbEntity
  8
ADT_PHO
100
AcDbLine
 62
7
  6
CONTINUOUS
 10
3.871770342
 20
2.8796049528
 11
3.871770342
 21
3.0596049528
  0
LINE
  5
4BA
100
AcDbEntity
  8
ADT_PHO
100
AcDbLine
 62
7
  6
CONTINUOUS
 10
3.881770342
 20
3.1296049528
 11
3.881770342
 21
3.2396049528
  0
LINE
  5
4BB
100
AcDbEntity
  8
ADT_PHO
100
AcDbLine
 62
7
  6
CONTINUOUS
 10
3.891770342
 20
2.7696049528
 11
3.891770342
 21
2.4696049528
  0
LINE
  5
4BC
100
AcDbEntity
  8
ADT_PHO
100
AcDbLine
 62
7
  6
CONTINUOUS
 10
3.896770342
 20
3.4146049528
 11
3.896770342
 21
3.2646049528
  0
LINE
  5
4BD
100
AcDbEntity
  8
ADT_PHO
100
AcDbLine
 62
7
  6
CONTINUOUS
 10
3.916770342
 20
2.5096049528
 11
3.916770342
 21
2.7096049528
  0
LINE
  5
4BE
100
AcDbEntity
  8
ADT_PHO
100
AcDbLine
 62
7
  6
CONTINUOUS
 10
3.946770342
 20
2.7796049528
 11
3.946770342
 21
2.8496049528
  0
LINE
  5
4BF
100
AcDbEntity
  8
ART01_PHO
100
AcDbLine
 62
7
  6
CONTINUOUS
 10
3.976770342
 20
1.375195504
 11
3.976770342
 21
1.3096049528
  0
LINE
  5
4C0
100
AcDbEntity
  8
ADT_PHO
100
AcDbLine
 62
7
  6
CONTINUOUS
 10
3.986770342
 20
2.7096049528
 11
3.986770342
 21
2.5096049528
  0
LINE
  5
4C1
100
AcDbEntity
  8
ART01_PHO
100
AcDbLine
 62
7
  6
CONTINUOUS
 10
3.996770342
 20
1.5096049528
 11
3.996770342
 21
1.4296049528
  0
LINE
  5
4C2
100
AcDbEntity
  8
ADT_PHO
100
AcDbLine
 62
7
  6
CONTINUOUS
 10
3.996770342
 20
1.6996049528
 11
3.996770342
 21
1.8496049528
  0
LINE
  5
4C3
100
AcDbEntity
  8
ADT_PHO
100
AcDbLine
 62
7
  6
CONTINUOUS
 10
4.006770342
 20
2.4246049528
 11
4.006770342
 21
2.0446049528
  0
LINE
  5
4C4
100
AcDbEntity
  8
ART01_PHO
100
AcDbLine
 62
7
  6
CONTINUOUS
 10
4.0085813656
 20
1.3627151891
 11
4.0085813656
 21
1.3533451103
  0
LINE
  5
4C5
100
AcDbEntity
  8
ART01_PHO
100
AcDbLine
 62
7
  6
CONTINUOUS
 10
3.2383451451
 20
1.4366128268
 11
3.2400380585
 21
1.4436600709
  0
LINE
  5
4C6
100
AcDbEntity
  8
ART01_PHO
100
AcDbLine
 62
7
  6
CONTINUOUS
 10
2.8908254601
 20
1.375195504
 11
2.8726758538
 21
1.3096049528
  0
LINE
  5
4C7
100
AcDbEntity
  8
ART01_PHO
100
AcDbLine
 62
7
  6
CONTINUOUS
 10
3.1190144365
 20
1.4788175513
 11
3.1053923892
 21
1.4296049528
  0
LINE
  5
4C8
100
AcDbEntity
  8
ART01_PHO
100
AcDbLine
 62
7
  6
CONTINUOUS
 10
3.1479908144
 20
1.4788175513
 11
3.1343687672
 21
1.4296049528
  0
LINE
  5
4C9
100
AcDbEntity
  8
ART01_PHO
100
AcDbLine
 62
7
  6
CONTINUOUS
 10
2.9140144365
 20
1.4764553465
 11
2.911770342
 21
1.470195504
  0
LINE
  5
4CA
100
AcDbEntity
  8
ART01_PHO
100
AcDbLine
 62
7
  6
CONTINUOUS
 10
2.5335813656
 20
1.4339750316
 11
2.5358254601
 21
1.440195504
  0
LINE
  5
4CB
100
AcDbEntity
  8
ART01_PHO
100
AcDbLine
 62
7
  6
CONTINUOUS
 10
2.506297901
 20
1.4808254253
 11
2.5040144365
 21
1.4746049528
  0
LINE
  5
4CC
100
AcDbEntity
  8
ART01_PHO
100
AcDbLine
 62
7
  6
CONTINUOUS
 10
2.6381089247
 20
1.440195504
 11
2.6358254601
 21
1.4339750316
  0
LINE
  5
4CD
100
AcDbEntity
  8
ART01_PHO
100
AcDbLine
 62
7
  6
CONTINUOUS
 10
2.0999199483
 20
1.370195504
 11
2.0681089247
 21
1.3046049528
  0
LINE
  5
4CE
100
AcDbEntity
  8
ART01_PHO
100
AcDbLine
 62
7
  6
CONTINUOUS
 10
1.541297901
 20
1.4808254253
 11
1.5481089247
 21
1.490195504
  0
LINE
  5
4CF
100
AcDbEntity
  8
ART01_PHO
100
AcDbLine
 62
7
  6
CONTINUOUS
 10
1.591297901
 20
1.4558254253
 11
1.5685813656
 21
1.4246049528
  0
LINE
  5
4D0
100
AcDbEntity
  8
ART01_PHO
100
AcDbLine
 62
7
  6
CONTINUOUS
 10
1.5731089247
 20
1.4839750316
 11
1.5753923892
 21
1.4870852678
  0
LINE
  5
4D1
100
AcDbEntity
  8
ADT_PHO
100
AcDbLine
 62
7
  6
CONTINUOUS
 10
1.596770342
 20
2.3996049528
 11
1.496770342
 21
2.3996049528
  0
LINE
  5
4D2
100
AcDbEntity
  8
ADT_PHO
100
AcDbLine
 62
7
  6
CONTINUOUS
 10
6.111770342
 20
2.3996049528
 11
6.156770342
 21
2.3996049528
  0
LINE
  5
4D3
100
AcDbEntity
  8
ADT_PHO
100
AcDbLine
 62
7
  6
CONTINUOUS
 10
1.496770342
 20
2.4046049528
 11
1.596770342
 21
2.4046049528
  0
LINE
  5
4D4
100
AcDbEntity
  8
ADT_PHO
100
AcDbLine
 62
7
  6
CONTINUOUS
 10
1.496770342
 20
2.4096049528
 11
1.596770342
 21
2.4096049528
  0
LINE
  5
4D5
100
AcDbEntity
  8
ADT_PHO
100
AcDbLine
 62
7
  6
CONTINUOUS
 10
1.596770342
 20
2.4146049528
 11
1.496770342
 21
2.4146049528
  0
LINE
  5
4D6
100
AcDbEntity
  8
ADT_PHO
100
AcDbLine
 62
7
  6
CONTINUOUS
 10
1.596770342
 20
2.4196049528
 11
1.496770342
 21
2.4196049528
  0
LINE
  5
4D7
100
AcDbEntity
  8
ADT_PHO
100
AcDbLine
 62
7
  6
CONTINUOUS
 10
1.646770342
 20
2.4196049528
 11
1.866770342
 21
2.4196049528
  0
LINE
  5
4D8
100
AcDbEntity
  8
ADT_PHO
100
AcDbLine
 62
7
  6
CONTINUOUS
 10
1.896770342
 20
2.4196049528
 11
2.116770342
 21
2.4196049528
  0
LINE
  5
4D9
100
AcDbEntity
  8
ADT_PHO
100
AcDbLine
 62
7
  6
CONTINUOUS
 10
2.146770342
 20
2.4196049528
 11
2.366770342
 21
2.4196049528
  0
LINE
  5
4DA
100
AcDbEntity
  8
ADT_PHO
100
AcDbLine
 62
7
  6
CONTINUOUS
 10
1.596770342
 20
2.4246049528
 11
1.496770342
 21
2.4246049528
  0
LINE
  5
4DB
100
AcDbEntity
  8
ADT_PHO
100
AcDbLine
 62
7
  6
CONTINUOUS
 10
3.786770342
 20
2.4246049528
 11
4.006770342
 21
2.4246049528
  0
LINE
  5
4DC
100
AcDbEntity
  8
ADT_PHO
100
AcDbLine
 62
7
  6
CONTINUOUS
 10
4.026770342
 20
2.4246049528
 11
4.246770342
 21
2.4246049528
  0
LINE
  5
4DD
100
AcDbEntity
  8
ADT_PHO
100
AcDbLine
 62
7
  6
CONTINUOUS
 10
5.011770342
 20
2.4246049528
 11
5.231770342
 21
2.4246049528
  0
LINE
  5
4DE
100
AcDbEntity
  8
ADT_PHO
100
AcDbLine
 62
7
  6
CONTINUOUS
 10
6.361770342
 20
2.4246049528
 11
6.581770342
 21
2.4246049528
  0
LINE
  5
4DF
100
AcDbEntity
  8
ADT_PHO
100
AcDbLine
 62
7
  6
CONTINUOUS
 10
4.481770342
 20
2.4296049528
 11
4.631770342
 21
2.4296049528
  0
LINE
  5
4E0
100
AcDbEntity
  8
ADT_PHO
100
AcDbLine
 62
7
  6
CONTINUOUS
 10
6.061770342
 20
2.4346049528
 11
6.016770342
 21
2.4346049528
  0
LINE
  5
4E1
100
AcDbEntity
  8
ADT_PHO
100
AcDbLine
 62
7
  6
CONTINUOUS
 10
2.466770342
 20
2.4346049528
 11
2.666770342
 21
2.4346049528
  0
LINE
  5
4E2
100
AcDbEntity
  8
ADT_PHO
100
AcDbLine
 62
7
  6
CONTINUOUS
 10
4.386770342
 20
2.4446049528
 11
4.336770342
 21
2.4446049528
  0
LINE
  5
4E3
100
AcDbEntity
  8
ADT_PHO
100
AcDbLine
 62
7
  6
CONTINUOUS
 10
4.166770342
 20
2.4446049528
 11
4.016770342
 21
2.4446049528
  0
LINE
  5
4E4
100
AcDbEntity
  8
ADT_PHO
100
AcDbLine
 62
7
  6
CONTINUOUS
 10
6.576770342
 20
2.4496049528
 11
6.476770342
 21
2.4496049528
  0
LINE
  5
4E5
100
AcDbEntity
  8
ADT_PHO
100
AcDbLine
 62
7
  6
CONTINUOUS
 10
6.446770342
 20
2.4496049528
 11
6.336770342
 21
2.4496049528
  0
LINE
  5
4E6
100
AcDbEntity
  8
ADT_PHO
100
AcDbLine
 62
7
  6
CONTINUOUS
 10
6.476770342
 20
2.4546049528
 11
6.576770342
 21
2.4546049528
  0
LINE
  5
4E7
100
AcDbEntity
  8
ADT_PHO
100
AcDbLine
 62
7
  6
CONTINUOUS
 10
2.471770342
 20
2.4596049528
 11
2.671770342
 21
2.4596049528
  0
LINE
  5
4E8
100
AcDbEntity
  8
ADT_PHO
100
AcDbLine
 62
7
  6
CONTINUOUS
 10
6.476770342
 20
2.4596049528
 11
6.576770342
 21
2.4596049528
  0
LINE
  5
4E9
100
AcDbEntity
  8
ADT_PHO
100
AcDbLine
 62
7
  6
CONTINUOUS
 10
6.576770342
 20
2.4646049528
 11
6.476770342
 21
2.4646049528
  0
LINE
  5
4EA
100
AcDbEntity
  8
ADT_PHO
100
AcDbLine
 62
7
  6
CONTINUOUS
 10
3.241770342
 20
2.4646049528
 11
3.311770342
 21
2.4646049528
  0
LINE
  5
4EB
100
AcDbEntity
  8
ADT_PHO
100
AcDbLine
 62
7
  6
CONTINUOUS
 10
4.916770342
 20
2.4646049528
 11
4.986770342
 21
2.4646049528
  0
LINE
  5
4EC
100
AcDbEntity
  8
ADT_PHO
100
AcDbLine
 62
7
  6
CONTINUOUS
 10
6.576770342
 20
2.4696049528
 11
6.476770342
 21
2.4696049528
  0
LINE
  5
4ED
100
AcDbEntity
  8
ADT_PHO
100
AcDbLine
 62
7
  6
CONTINUOUS
 10
3.891770342
 20
2.4696049528
 11
3.771770342
 21
2.4696049528
  0
LINE
  5
4EE
100
AcDbEntity
  8
ADT_PHO
100
AcDbLine
 62
7
  6
CONTINUOUS
 10
6.061770342
 20
2.4746049528
 11
6.111770342
 21
2.4746049528
  0
LINE
  5
4EF
100
AcDbEntity
  8
ADT_PHO
100
AcDbLine
 62
7
  6
CONTINUOUS
 10
6.476770342
 20
2.4746049528
 11
6.576770342
 21
2.4746049528
  0
LINE
  5
4F0
100
AcDbEntity
  8
ADT_PHO
100
AcDbLine
 62
7
  6
CONTINUOUS
 10
4.336770342
 20
2.4846049528
 11
4.291770342
 21
2.4846049528
  0
LINE
  5
4F1
100
AcDbEntity
  8
ADT_PHO
100
AcDbLine
 62
7
  6
CONTINUOUS
 10
5.201770342
 20
2.5096049528
 11
5.001770342
 21
2.5096049528
  0
LINE
  5
4F2
100
AcDbEntity
  8
ADT_PHO
100
AcDbLine
 62
7
  6
CONTINUOUS
 10
3.986770342
 20
2.5096049528
 11
3.916770342
 21
2.5096049528
  0
LINE
  5
4F3
100
AcDbEntity
  8
ADT_PHO
100
AcDbLine
 62
7
  6
CONTINUOUS
 10
4.696770342
 20
2.5146049528
 11
4.596770342
 21
2.5146049528
  0
LINE
  5
4F4
100
AcDbEntity
  8
ADT_PHO
100
AcDbLine
 62
7
  6
CONTINUOUS
 10
4.016770342
 20
2.5146049528
 11
4.166770342
 21
2.5146049528
  0
LINE
  5
4F5
100
AcDbEntity
  8
ADT_PHO
100
AcDbLine
 62
7
  6
CONTINUOUS
 10
4.726770342
 20
2.5146049528
 11
4.796770342
 21
2.5146049528
  0
LINE
  5
4F6
100
AcDbEntity
  8
ADT_PHO
100
AcDbLine
 62
7
  6
CONTINUOUS
 10
4.386770342
 20
2.5196049528
 11
4.431770342
 21
2.5196049528
  0
LINE
  5
4F7
100
AcDbEntity
  8
ADT_PHO
100
AcDbLine
 62
7
  6
CONTINUOUS
 10
4.596770342
 20
2.5196049528
 11
4.696770342
 21
2.5196049528
  0
LINE
  5
4F8
100
AcDbEntity
  8
ADT_PHO
100
AcDbLine
 62
7
  6
CONTINUOUS
 10
4.596770342
 20
2.5246049528
 11
4.696770342
 21
2.5246049528
  0
LINE
  5
4F9
100
AcDbEntity
  8
ADT_PHO
100
AcDbLine
 62
7
  6
CONTINUOUS
 10
5.771770342
 20
2.5246049528
 11
5.841770342
 21
2.5246049528
  0
LINE
  5
4FA
100
AcDbEntity
  8
ADT_PHO
100
AcDbLine
 62
7
  6
CONTINUOUS
 10
5.886770342
 20
2.5246049528
 11
5.956770342
 21
2.5246049528
  0
LINE
  5
4FB
100
AcDbEntity
  8
ADT_PHO
100
AcDbLine
 62
7
  6
CONTINUOUS
 10
4.696770342
 20
2.5296049528
 11
4.596770342
 21
2.5296049528
  0
LINE
  5
4FC
100
AcDbEntity
  8
ADT_PHO
100
AcDbLine
 62
7
  6
CONTINUOUS
 10
4.696770342
 20
2.5346049528
 11
4.596770342
 21
2.5346049528
  0
LINE
  5
4FD
100
AcDbEntity
  8
ADT_PHO
100
AcDbLine
 62
7
  6
CONTINUOUS
 10
4.486770342
 20
2.5346049528
 11
4.566770342
 21
2.5346049528
  0
LINE
  5
4FE
100
AcDbEntity
  8
ADT_PHO
100
AcDbLine
 62
7
  6
CONTINUOUS
 10
2.671770342
 20
2.5396049528
 11
2.471770342
 21
2.5396049528
  0
LINE
  5
4FF
100
AcDbEntity
  8
ADT_PHO
100
AcDbLine
 62
7
  6
CONTINUOUS
 10
4.596770342
 20
2.5396049528
 11
4.696770342
 21
2.5396049528
  0
LINE
  5
500
100
AcDbEntity
  8
ADT_PHO
100
AcDbLine
 62
7
  6
CONTINUOUS
 10
4.221770342
 20
2.5446049528
 11
4.021770342
 21
2.5446049528
  0
LINE
  5
501
100
AcDbEntity
  8
ADT_PHO
100
AcDbLine
 62
7
  6
CONTINUOUS
 10
1.746770342
 20
2.5446049528
 11
1.546770342
 21
2.5446049528
  0
LINE
  5
502
100
AcDbEntity
  8
ADT_PHO
100
AcDbLine
 62
7
  6
CONTINUOUS
 10
6.311770342
 20
2.5496049528
 11
6.061770342
 21
2.5496049528
  0
LINE
  5
503
100
AcDbEntity
  8
ADT_PHO
100
AcDbLine
 62
7
  6
CONTINUOUS
 10
4.336770342
 20
2.5546049528
 11
4.291770342
 21
2.5546049528
  0
LINE
  5
504
100
AcDbEntity
  8
ADT_PHO
100
AcDbLine
 62
7
  6
CONTINUOUS
 10
5.921770342
 20
2.5596049528
 11
5.851770342
 21
2.5596049528
  0
LINE
  5
505
100
AcDbEntity
  8
ADT_PHO
100
AcDbLine
 62
7
  6
CONTINUOUS
 10
4.821770342
 20
2.5646049528
 11
4.891770342
 21
2.5646049528
  0
LINE
  5
506
100
AcDbEntity
  8
ADT_PHO
100
AcDbLine
 62
7
  6
CONTINUOUS
 10
5.001770342
 20
2.5796049528
 11
5.201770342
 21
2.5796049528
  0
LINE
  5
507
100
AcDbEntity
  8
ADT_PHO
100
AcDbLine
 62
7
  6
CONTINUOUS
 10
6.026770342
 20
2.5846049528
 11
5.956770342
 21
2.5846049528
  0
LINE
  5
508
100
AcDbEntity
  8
ADT_PHO
100
AcDbLine
 62
7
  6
CONTINUOUS
 10
4.901770342
 20
2.5896049528
 11
4.831770342
 21
2.5896049528
  0
LINE
  5
509
100
AcDbEntity
  8
ADT_PHO
100
AcDbLine
 62
7
  6
CONTINUOUS
 10
4.806770342
 20
2.5896049528
 11
4.736770342
 21
2.5896049528
  0
LINE
  5
50A
100
AcDbEntity
  8
ADT_PHO
100
AcDbLine
 62
7
  6
CONTINUOUS
 10
2.671770342
 20
2.5896049528
 11
2.471770342
 21
2.5896049528
  0
LINE
  5
50B
100
AcDbEntity
  8
ADT_PHO
100
AcDbLine
 62
7
  6
CONTINUOUS
 10
2.321770342
 20
2.5896049528
 11
2.131770342
 21
2.5896049528
  0
LINE
  5
50C
100
AcDbEntity
  8
ADT_PHO
100
AcDbLine
 62
7
  6
CONTINUOUS
 10
4.336770342
 20
2.5946049528
 11
4.386770342
 21
2.5946049528
  0
LINE
  5
50D
100
AcDbEntity
  8
ADT_PHO
100
AcDbLine
 62
7
  6
CONTINUOUS
 10
1.546770342
 20
2.6146049528
 11
1.746770342
 21
2.6146049528
  0
LINE
  5
50E
100
AcDbEntity
  8
ADT_PHO
100
AcDbLine
 62
7
  6
CONTINUOUS
 10
4.021770342
 20
2.6146049528
 11
4.221770342
 21
2.6146049528
  0
LINE
  5
50F
100
AcDbEntity
  8
ADT_PHO
100
AcDbLine
 62
7
  6
CONTINUOUS
 10
4.376770342
 20
2.6246049528
 11
4.306770342
 21
2.6246049528
  0
LINE
  5
510
100
AcDbEntity
  8
ADT_PHO
100
AcDbLine
 62
7
  6
CONTINUOUS
 10
5.0211797908
 20
2.6379907796
 11
5.1511797908
 21
2.6379907796
  0
LINE
  5
511
100
AcDbEntity
  8
ADT_PHO
100
AcDbLine
 62
7
  6
CONTINUOUS
 10
4.266770342
 20
2.6396049528
 11
4.016770342
 21
2.6396049528
  0
LINE
  5
512
100
AcDbEntity
  8
ADT_PHO
100
AcDbLine
 62
7
  6
CONTINUOUS
 10
2.026770342
 20
2.6496049528
 11
1.826770342
 21
2.6496049528
  0
LINE
  5
513
100
AcDbEntity
  8
ADT_PHO
100
AcDbLine
 62
7
  6
CONTINUOUS
 10
1.546770342
 20
2.6496049528
 11
1.746770342
 21
2.6496049528
  0
LINE
  5
514
100
AcDbEntity
  8
ADT_PHO
100
AcDbLine
 62
7
  6
CONTINUOUS
 10
2.471770342
 20
2.6596049528
 11
2.671770342
 21
2.6596049528
  0
LINE
  5
515
100
AcDbEntity
  8
ADT_PHO
100
AcDbLine
 62
7
  6
CONTINUOUS
 10
6.061770342
 20
2.6596049528
 11
6.311770342
 21
2.6596049528
  0
LINE
  5
516
100
AcDbEntity
  8
ADT_PHO
100
AcDbLine
 62
7
  6
CONTINUOUS
 10
3.536770342
 20
2.6796049528
 11
3.486770342
 21
2.6796049528
  0
LINE
  5
517
100
AcDbEntity
  8
ADT_PHO
100
AcDbLine
 62
7
  6
CONTINUOUS
 10
2.131770342
 20
2.6796049528
 11
2.321770342
 21
2.6796049528
  0
LINE
  5
518
100
AcDbEntity
  8
ADT_PHO
100
AcDbLine
 62
7
  6
CONTINUOUS
 10
6.231770342
 20
2.6946049528
 11
6.081770342
 21
2.6946049528
  0
LINE
  5
519
100
AcDbEntity
  8
ADT_PHO
100
AcDbLine
 62
7
  6
CONTINUOUS
 10
6.576770342
 20
2.6996049528
 11
6.476770342
 21
2.6996049528
  0
LINE
  5
51A
100
AcDbEntity
  8
ADT_PHO
100
AcDbLine
 62
7
  6
CONTINUOUS
 10
6.336770342
 20
2.6996049528
 11
6.446770342
 21
2.6996049528
  0
LINE
  5
51B
100
AcDbEntity
  8
ADT_PHO
100
AcDbLine
 62
7
  6
CONTINUOUS
 10
4.566770342
 20
2.7096049528
 11
4.486770342
 21
2.7096049528
  0
LINE
  5
51C
100
AcDbEntity
  8
ADT_PHO
100
AcDbLine
 62
7
  6
CONTINUOUS
 10
3.576770342
 20
2.7096049528
 11
3.536770342
 21
2.7096049528
  0
LINE
  5
51D
100
AcDbEntity
  8
ADT_PHO
100
AcDbLine
 62
7
  6
CONTINUOUS
 10
3.486770342
 20
2.7096049528
 11
3.446770342
 21
2.7096049528
  0
LINE
  5
51E
100
AcDbEntity
  8
ADT_PHO
100
AcDbLine
 62
7
  6
CONTINUOUS
 10
3.916770342
 20
2.7096049528
 11
3.986770342
 21
2.7096049528
  0
LINE
  5
51F
100
AcDbEntity
  8
ADT_PHO
100
AcDbLine
 62
7
  6
CONTINUOUS
 10
5.851770342
 20
2.7096049528
 11
5.921770342
 21
2.7096049528
  0
LINE
  5
520
100
AcDbEntity
  8
ADT_PHO
100
AcDbLine
 62
7
  6
CONTINUOUS
 10
4.566770342
 20
2.7146049528
 11
4.486770342
 21
2.7146049528
  0
LINE
  5
521
100
AcDbEntity
  8
ADT_PHO
100
AcDbLine
 62
7
  6
CONTINUOUS
 10
4.566770342
 20
2.7196049528
 11
4.486770342
 21
2.7196049528
  0
LINE
  5
522
100
AcDbEntity
  8
ADT_PHO
100
AcDbLine
 62
7
  6
CONTINUOUS
 10
4.446770342
 20
2.7196049528
 11
4.406770342
 21
2.7196049528
  0
LINE
  5
523
100
AcDbEntity
  8
ADT_PHO
100
AcDbLine
 62
7
  6
CONTINUOUS
 10
3.746770342
 20
2.7196049528
 11
3.706770342
 21
2.7196049528
  0
LINE
  5
524
100
AcDbEntity
  8
ADT_PHO
100
AcDbLine
 62
7
  6
CONTINUOUS
 10
2.336770342
 20
2.7196049528
 11
2.136770342
 21
2.7196049528
  0
LINE
  5
525
100
AcDbEntity
  8
ADT_PHO
100
AcDbLine
 62
7
  6
CONTINUOUS
 10
1.826770342
 20
2.7196049528
 11
2.026770342
 21
2.7196049528
  0
LINE
  5
526
100
AcDbEntity
  8
ADT_PHO
100
AcDbLine
 62
7
  6
CONTINUOUS
 10
4.486770342
 20
2.7246049528
 11
4.566770342
 21
2.7246049528
  0
LINE
  5
527
100
AcDbEntity
  8
ADT_PHO
100
AcDbLine
 62
7
  6
CONTINUOUS
 10
1.746770342
 20
2.7296049528
 11
1.546770342
 21
2.7296049528
  0
LINE
  5
528
100
AcDbEntity
  8
ADT_PHO
100
AcDbLine
 62
7
  6
CONTINUOUS
 10
4.486770342
 20
2.7296049528
 11
4.566770342
 21
2.7296049528
  0
LINE
  5
529
100
AcDbEntity
  8
ADT_PHO
100
AcDbLine
 62
7
  6
CONTINUOUS
 10
4.566770342
 20
2.7346049528
 11
4.486770342
 21
2.7346049528
  0
LINE
  5
52A
100
AcDbEntity
  8
ADT_PHO
100
AcDbLine
 62
7
  6
CONTINUOUS
 10
6.566770342
 20
2.7396049528
 11
6.526770342
 21
2.7396049528
  0
LINE
  5
52B
100
AcDbEntity
  8
ADT_PHO
100
AcDbLine
 62
7
  6
CONTINUOUS
 10
5.866770342
 20
2.7396049528
 11
5.826770342
 21
2.7396049528
  0
LINE
  5
52C
100
AcDbEntity
  8
ADT_PHO
100
AcDbLine
 62
7
  6
CONTINUOUS
 10
4.016770342
 20
2.7496049528
 11
4.266770342
 21
2.7496049528
  0
LINE
  5
52D
100
AcDbEntity
  8
ADT_PHO
100
AcDbLine
 62
7
  6
CONTINUOUS
 10
5.471770342
 20
2.7646049528
 11
5.401770342
 21
2.7646049528
  0
LINE
  5
52E
100
AcDbEntity
  8
ADT_PHO
100
AcDbLine
 62
7
  6
CONTINUOUS
 10
4.696770342
 20
2.7646049528
 11
4.596770342
 21
2.7646049528
  0
LINE
  5
52F
100
AcDbEntity
  8
ADT_PHO
100
AcDbLine
 62
7
  6
CONTINUOUS
 10
2.101770342
 20
2.7646049528
 11
2.031770342
 21
2.7646049528
  0
LINE
  5
530
100
AcDbEntity
  8
ADT_PHO
100
AcDbLine
 62
7
  6
CONTINUOUS
 10
6.081770342
 20
2.7646049528
 11
6.231770342
 21
2.7646049528
  0
LINE
  5
531
100
AcDbEntity
  8
ART01_PHO
100
AcDbLine
 62
7
  6
CONTINUOUS
 10
5.3090144365
 20
1.3720852678
 11
5.311297901
 21
1.3689750316
  0
LINE
  5
532
100
AcDbEntity
  8
ART01_PHO
100
AcDbLine
 62
7
  6
CONTINUOUS
 10
5.5340144365
 20
1.3720852678
 11
5.536297901
 21
1.3689750316
  0
LINE
  5
533
100
AcDbEntity
  8
ART01_PHO
100
AcDbLine
 62
7
  6
CONTINUOUS
 10
5.3385813656
 20
1.3189750316
 11
5.3431089247
 21
1.3127151891
  0
LINE
  5
534
100
AcDbEntity
  8
ART01_PHO
100
AcDbLine
 62
7
  6
CONTINUOUS
 10
5.3658254601
 20
1.3658254253
 11
5.361297901
 21
1.3720852678
  0
LINE
  5
535
100
AcDbEntity
  8
ART01_PHO
100
AcDbLine
 62
7
  6
CONTINUOUS
 10
5.6385813656
 20
1.3408254253
 11
5.6408254601
 21
1.3377151891
  0
LINE
  5
536
100
AcDbEntity
  8
ART01_PHO
100
AcDbLine
 62
7
  6
CONTINUOUS
 10
5.6385813656
 20
1.3720852678
 11
5.6408254601
 21
1.3689750316
  0
LINE
  5
537
100
AcDbEntity
  8
ART01_PHO
100
AcDbLine
 62
7
  6
CONTINUOUS
 10
4.8099199483
 20
1.3377151891
 11
4.8122034128
 21
1.3314553465
  0
LINE
  5
538
100
AcDbEntity
  8
ART01_PHO
100
AcDbLine
 62
7
  6
CONTINUOUS
 10
4.8099199483
 20
1.3689750316
 11
4.8122034128
 21
1.3627151891
  0
LINE
  5
539
100
AcDbEntity
  8
ART01_PHO
100
AcDbLine
 62
7
  6
CONTINUOUS
 10
4.8849199483
 20
1.3596049528
 11
4.8872034128
 21
1.3533451103
  0
LINE
  5
53A
100
AcDbEntity
  8
ART01_PHO
100
AcDbLine
 62
7
  6
CONTINUOUS
 10
4.9144868774
 20
1.3346049528
 11
4.916770342
 21
1.3283451103
  0
LINE
  5
53B
100
AcDbEntity
  8
ART01_PHO
100
AcDbLine
 62
7
  6
CONTINUOUS
 10
4.566770342
 20
1.375195504
 11
4.5849199483
 21
1.3096049528
  0
LINE
  5
53C
100
AcDbEntity
  8
ART01_PHO
100
AcDbLine
 62
7
  6
CONTINUOUS
 10
4.6235813656
 20
1.3283451103
 11
4.6258254601
 21
1.3189750316
  0
LINE
  5
53D
100
AcDbEntity
  8
ART01_PHO
100
AcDbLine
 62
7
  6
CONTINUOUS
 10
4.1085813656
 20
1.375195504
 11
4.1199199483
 21
1.3096049528
  0
LINE
  5
53E
100
AcDbEntity
  8
ADT_PHO
100
AcDbLine
 62
7
  6
CONTINUOUS
 10
4.016770342
 20
2.4446049528
 11
4.016770342
 21
2.5146049528
  0
LINE
  5
53F
100
AcDbEntity
  8
ADT_PHO
100
AcDbLine
 62
7
  6
CONTINUOUS
 10
4.016770342
 20
2.6396049528
 11
4.016770342
 21
2.7496049528
  0
LINE
  5
540
100
AcDbEntity
  8
ADT_PHO
100
AcDbLine
 62
7
  6
CONTINUOUS
 10
4.021770342
 20
2.5446049528
 11
4.021770342
 21
2.6146049528
  0
LINE
  5
541
100
AcDbEntity
  8
ADT_PHO
100
AcDbLine
 62
7
  6
CONTINUOUS
 10
4.026770342
 20
2.0446049528
 11
4.026770342
 21
2.4246049528
  0
LINE
  5
542
100
AcDbEntity
  8
ART01_PHO
100
AcDbLine
 62
7
  6
CONTINUOUS
 10
4.0290144365
 20
1.350195504
 11
4.0290144365
 21
1.3346049528
  0
LINE
  5
543
100
AcDbEntity
  8
ADT_PHO
100
AcDbLine
 62
7
  6
CONTINUOUS
 10
4.051770342
 20
3.5446049528
 11
4.051770342
 21
3.4746049528
  0
LINE
  5
544
100
AcDbEntity
  8
ART01_PHO
100
AcDbLine
 62
7
  6
CONTINUOUS
 10
4.0653923892
 20
1.3346049528
 11
4.0653923892
 21
1.350195504
  0
LINE
  5
545
100
AcDbEntity
  8
ADT_PHO
100
AcDbLine
 62
7
  6
CONTINUOUS
 10
4.096770342
 20
2.8496049528
 11
4.096770342
 21
2.7796049528
  0
LINE
  5
546
100
AcDbEntity
  8
ADT_PHO
100
AcDbLine
 62
7
  6
CONTINUOUS
 10
4.131770342
 20
3.2396049528
 11
4.131770342
 21
3.1296049528
  0
LINE
  5
547
100
AcDbEntity
  8
ART01_PHO
100
AcDbLine
 62
7
  6
CONTINUOUS
 10
4.151770342
 20
1.375195504
 11
4.151770342
 21
1.3096049528
  0
LINE
  5
548
100
AcDbEntity
  8
ADT_PHO
100
AcDbLine
 62
7
  6
CONTINUOUS
 10
4.151770342
 20
1.5246049528
 11
4.151770342
 21
2.0246049528
  0
LINE
  5
549
100
AcDbEntity
  8
ADT_PHO
100
AcDbLine
 62
7
  6
CONTINUOUS
 10
4.166770342
 20
2.5146049528
 11
4.166770342
 21
2.4446049528
  0
LINE
  5
54A
100
AcDbEntity
  8
ART01_PHO
100
AcDbLine
 62
7
  6
CONTINUOUS
 10
4.201770342
 20
1.375195504
 11
4.201770342
 21
1.3096049528
  0
LINE
  5
54B
100
AcDbEntity
  8
ADT_PHO
100
AcDbLine
 62
7
  6
CONTINUOUS
 10
4.221770342
 20
2.6146049528
 11
4.221770342
 21
2.5446049528
  0
LINE
  5
54C
100
AcDbEntity
  8
ART01_PHO
100
AcDbLine
 62
7
  6
CONTINUOUS
 10
4.2335813656
 20
1.3627151891
 11
4.2335813656
 21
1.3564553465
  0
LINE
  5
54D
100
AcDbEntity
  8
ADT_PHO
100
AcDbLine
 62
7
  6
CONTINUOUS
 10
4.246770342
 20
2.4246049528
 11
4.246770342
 21
2.0446049528
  0
LINE
  5
54E
100
AcDbEntity
  8
ADT_PHO
100
AcDbLine
 62
7
  6
CONTINUOUS
 10
4.246770342
 20
3.1646049528
 11
4.246770342
 21
3.2346049528
  0
LINE
  5
54F
100
AcDbEntity
  8
ADT_PHO
100
AcDbLine
 62
7
  6
CONTINUOUS
 10
4.246770342
 20
3.2746049528
 11
4.246770342
 21
3.3446049528
  0
LINE
  5
550
100
AcDbEntity
  8
ADT_PHO
100
AcDbLine
 62
7
  6
CONTINUOUS
 10
4.266770342
 20
2.7496049528
 11
4.266770342
 21
2.6396049528
  0
LINE
  5
551
100
AcDbEntity
  8
ADT_PHO
100
AcDbLine
 62
7
  6
CONTINUOUS
 10
4.271770342
 20
2.0496049528
 11
4.271770342
 21
2.2996049528
  0
LINE
  5
552
100
AcDbEntity
  8
ADT_PHO
100
AcDbLine
 62
7
  6
CONTINUOUS
 10
4.281770342
 20
3.0596049528
 11
4.281770342
 21
2.8796049528
  0
LINE
  5
553
100
AcDbEntity
  8
ADT_PHO
100
AcDbLine
 62
7
  6
CONTINUOUS
 10
4.306770342
 20
2.6246049528
 11
4.306770342
 21
2.8246049528
  0
LINE
  5
554
100
AcDbEntity
  8
ADT_PHO
100
AcDbLine
 62
7
  6
CONTINUOUS
 10
4.321770342
 20
1.6996049528
 11
4.321770342
 21
1.8496049528
  0
LINE
  5
555
100
AcDbEntity
  8
ADT_PHO
100
AcDbLine
 62
7
  6
CONTINUOUS
 10
4.336770342
 20
2.4446049528
 11
4.336770342
 21
2.5946049528
  0
LINE
  5
556
100
AcDbEntity
  8
ADT_PHO
100
AcDbLine
 62
7
  6
CONTINUOUS
 10
4.361770342
 20
3.4746049528
 11
4.361770342
 21
3.6746049528
  0
LINE
  5
557
100
AcDbEntity
  8
ADT_PHO
100
AcDbLine
 62
7
  6
CONTINUOUS
 10
4.376770342
 20
2.8246049528
 11
4.376770342
 21
2.6246049528
  0
LINE
  5
558
100
AcDbEntity
  8
ADT_PHO
100
AcDbLine
 62
7
  6
CONTINUOUS
 10
4.381770342
 20
2.2996049528
 11
4.381770342
 21
2.0496049528
  0
LINE
  5
559
100
AcDbEntity
  8
ADT_PHO
100
AcDbLine
 62
7
  6
CONTINUOUS
 10
4.386770342
 20
2.5946049528
 11
4.386770342
 21
2.4446049528
  0
LINE
  5
55A
100
AcDbEntity
  8
ART01_PHO
100
AcDbLine
 62
7
  6
CONTINUOUS
 10
3.501297901
 20
1.3596049528
 11
3.4990144365
 21
1.350195504
  0
LINE
  5
55B
100
AcDbEntity
  8
ART01_PHO
100
AcDbLine
 62
7
  6
CONTINUOUS
 10
3.5535813656
 20
1.4796049528
 11
3.551297901
 21
1.470195504
  0
LINE
  5
55C
100
AcDbEntity
  8
ART01_PHO
100
AcDbLine
 62
7
  6
CONTINUOUS
 10
3.5331089247
 20
1.325195504
 11
3.5353923892
 21
1.3346049528
  0
LINE
  5
55D
100
AcDbEntity
  8
ART01_PHO
100
AcDbLine
 62
7
  6
CONTINUOUS
 10
3.5853923892
 20
1.445195504
 11
3.5876758538
 21
1.4546049528
  0
LINE
  5
55E
100
AcDbEntity
  8
ART01_PHO
100
AcDbLine
 62
7
  6
CONTINUOUS
 10
3.6103923892
 20
1.4796049528
 11
3.6081089247
 21
1.470195504
  0
LINE
  5
55F
100
AcDbEntity
  8
ART01_PHO
100
AcDbLine
 62
7
  6
CONTINUOUS
 10
3.2690144365
 20
1.4788175513
 11
3.2553923892
 21
1.4296049528
  0
LINE
  5
560
100
AcDbEntity
  8
ART01_PHO
100
AcDbLine
 62
7
  6
CONTINUOUS
 10
1.9181089247
 20
1.3670852678
 11
1.9135813656
 21
1.3608254253
  0
LINE
  5
561
100
AcDbEntity
  8
ART01_PHO
100
AcDbLine
 62
7
  6
CONTINUOUS
 10
1.936297901
 20
1.3077151891
 11
1.9408254601
 21
1.3139750316
  0
LINE
  5
562
100
AcDbEntity
  8
ADT_PHO
100
AcDbLine
 62
7
  6
CONTINUOUS
 10
5.366770342
 20
2.7696049528
 11
5.296770342
 21
2.7696049528
  0
LINE
  5
563
100
AcDbEntity
  8
ADT_PHO
100
AcDbLine
 62
7
  6
CONTINUOUS
 10
3.891770342
 20
2.7696049528
 11
3.771770342
 21
2.7696049528
  0
LINE
  5
564
100
AcDbEntity
  8
ADT_PHO
100
AcDbLine
 62
7
  6
CONTINUOUS
 10
1.891770342
 20
2.7696049528
 11
1.691770342
 21
2.7696049528
  0
LINE
  5
565
100
AcDbEntity
  8
ADT_PHO
100
AcDbLine
 62
7
  6
CONTINUOUS
 10
1.656770342
 20
2.7696049528
 11
1.456770342
 21
2.7696049528
  0
LINE
  5
566
100
AcDbEntity
  8
ADT_PHO
100
AcDbLine
 62
7
  6
CONTINUOUS
 10
4.096770342
 20
2.7796049528
 11
3.946770342
 21
2.7796049528
  0
LINE
  5
567
100
AcDbEntity
  8
ADT_PHO
100
AcDbLine
 62
7
  6
CONTINUOUS
 10
5.956770342
 20
2.7846049528
 11
6.026770342
 21
2.7846049528
  0
LINE
  5
568
100
AcDbEntity
  8
ADT_PHO
100
AcDbLine
 62
7
  6
CONTINUOUS
 10
2.136770342
 20
2.7896049528
 11
2.336770342
 21
2.7896049528
  0
LINE
  5
569
100
AcDbEntity
  8
ADT_PHO
100
AcDbLine
 62
7
  6
CONTINUOUS
 10
4.736770342
 20
2.7896049528
 11
4.806770342
 21
2.7896049528
  0
LINE
  5
56A
100
AcDbEntity
  8
ADT_PHO
100
AcDbLine
 62
7
  6
CONTINUOUS
 10
4.831770342
 20
2.7896049528
 11
4.901770342
 21
2.7896049528
  0
LINE
  5
56B
100
AcDbEntity
  8
ADT_PHO
100
AcDbLine
 62
7
  6
CONTINUOUS
 10
3.681770342
 20
2.7996049528
 11
3.611770342
 21
2.7996049528
  0
LINE
  5
56C
100
AcDbEntity
  8
ADT_PHO
100
AcDbLine
 62
7
  6
CONTINUOUS
 10
3.576770342
 20
2.7996049528
 11
3.506770342
 21
2.7996049528
  0
LINE
  5
56D
100
AcDbEntity
  8
ADT_PHO
100
AcDbLine
 62
7
  6
CONTINUOUS
 10
3.471770342
 20
2.7996049528
 11
3.401770342
 21
2.7996049528
  0
LINE
  5
56E
100
AcDbEntity
  8
ADT_PHO
100
AcDbLine
 62
7
  6
CONTINUOUS
 10
3.366770342
 20
2.7996049528
 11
3.296770342
 21
2.7996049528
  0
LINE
  5
56F
100
AcDbEntity
  8
ADT_PHO
100
AcDbLine
 62
7
  6
CONTINUOUS
 10
3.236770342
 20
2.7996049528
 11
3.166770342
 21
2.7996049528
  0
LINE
  5
570
100
AcDbEntity
  8
ADT_PHO
100
AcDbLine
 62
7
  6
CONTINUOUS
 10
4.596770342
 20
2.7996049528
 11
4.696770342
 21
2.7996049528
  0
LINE
  5
571
100
AcDbEntity
  8
ADT_PHO
100
AcDbLine
 62
7
  6
CONTINUOUS
 10
5.801770342
 20
2.8046049528
 11
5.651770342
 21
2.8046049528
  0
LINE
  5
572
100
AcDbEntity
  8
ADT_PHO
100
AcDbLine
 62
7
  6
CONTINUOUS
 10
4.806770342
 20
2.8096049528
 11
4.736770342
 21
2.8096049528
  0
LINE
  5
573
100
AcDbEntity
  8
ADT_PHO
100
AcDbLine
 62
7
  6
CONTINUOUS
 10
4.901770342
 20
2.8146049528
 11
4.831770342
 21
2.8146049528
  0
LINE
  5
574
100
AcDbEntity
  8
ADT_PHO
100
AcDbLine
 62
7
  6
CONTINUOUS
 10
4.306770342
 20
2.8246049528
 11
4.376770342
 21
2.8246049528
  0
LINE
  5
575
100
AcDbEntity
  8
ADT_PHO
100
AcDbLine
 62
7
  6
CONTINUOUS
 10
3.121770342
 20
2.8296049528
 11
3.051770342
 21
2.8296049528
  0
LINE
  5
576
100
AcDbEntity
  8
ADT_PHO
100
AcDbLine
 62
7
  6
CONTINUOUS
 10
3.021770342
 20
2.8396049528
 11
2.951770342
 21
2.8396049528
  0
LINE
  5
577
100
AcDbEntity
  8
ADT_PHO
100
AcDbLine
 62
7
  6
CONTINUOUS
 10
2.261770342
 20
2.8396049528
 11
2.191770342
 21
2.8396049528
  0
LINE
  5
578
100
AcDbEntity
  8
ADT_PHO
100
AcDbLine
 62
7
  6
CONTINUOUS
 10
1.456770342
 20
2.8396049528
 11
1.656770342
 21
2.8396049528
  0
LINE
  5
579
100
AcDbEntity
  8
ADT_PHO
100
AcDbLine
 62
7
  6
CONTINUOUS
 10
1.691770342
 20
2.8396049528
 11
1.891770342
 21
2.8396049528
  0
LINE
  5
57A
100
AcDbEntity
  8
ADT_PHO
100
AcDbLine
 62
7
  6
CONTINUOUS
 10
5.1061797908
 20
2.8415340867
 11
5.0661797908
 21
2.8415340867
  0
LINE
  5
57B
100
AcDbEntity
  8
ADT_PHO
100
AcDbLine
 62
7
  6
CONTINUOUS
 10
3.946770342
 20
2.8496049528
 11
4.096770342
 21
2.8496049528
  0
LINE
  5
57C
100
AcDbEntity
  8
ADT_PHO
100
AcDbLine
 62
7
  6
CONTINUOUS
 10
5.651770342
 20
2.8546049528
 11
5.801770342
 21
2.8546049528
  0
LINE
  5
57D
100
AcDbEntity
  8
ADT_PHO
100
AcDbLine
 62
7
  6
CONTINUOUS
 10
5.1511797908
 20
2.8615340867
 11
5.1061797908
 21
2.8615340867
  0
LINE
  5
57E
100
AcDbEntity
  8
ADT_PHO
100
AcDbLine
 62
7
  6
CONTINUOUS
 10
5.0661797908
 20
2.8615340867
 11
5.0211797908
 21
2.8615340867
  0
LINE
  5
57F
100
AcDbEntity
  8
ADT_PHO
100
AcDbLine
 62
7
  6
CONTINUOUS
 10
5.596770342
 20
2.8796049528
 11
5.526770342
 21
2.8796049528
  0
LINE
  5
580
100
AcDbEntity
  8
ADT_PHO
100
AcDbLine
 62
7
  6
CONTINUOUS
 10
4.281770342
 20
2.8796049528
 11
3.871770342
 21
2.8796049528
  0
LINE
  5
581
100
AcDbEntity
  8
ADT_PHO
100
AcDbLine
 62
7
  6
CONTINUOUS
 10
4.471770342
 20
2.8896049528
 11
4.571770342
 21
2.8896049528
  0
LINE
  5
582
100
AcDbEntity
  8
ADT_PHO
100
AcDbLine
 62
7
  6
CONTINUOUS
 10
6.401770342
 20
2.8996049528
 11
5.991770342
 21
2.8996049528
  0
LINE
  5
583
100
AcDbEntity
  8
ADT_PHO
100
AcDbLine
 62
7
  6
CONTINUOUS
 10
5.231770342
 20
2.9146049528
 11
5.031770342
 21
2.9146049528
  0
LINE
  5
584
100
AcDbEntity
  8
ADT_PHO
100
AcDbLine
 62
7
  6
CONTINUOUS
 10
5.296770342
 20
2.9196049528
 11
5.366770342
 21
2.9196049528
  0
LINE
  5
585
100
AcDbEntity
  8
ADT_PHO
100
AcDbLine
 62
7
  6
CONTINUOUS
 10
5.691770342
 20
2.9296049528
 11
5.621770342
 21
2.9296049528
  0
LINE
  5
586
100
AcDbEntity
  8
ADT_PHO
100
AcDbLine
 62
7
  6
CONTINUOUS
 10
2.816770342
 20
2.9396049528
 11
2.726770342
 21
2.9396049528
  0
LINE
  5
587
100
AcDbEntity
  8
ADT_PHO
100
AcDbLine
 62
7
  6
CONTINUOUS
 10
2.576770342
 20
2.9446049528
 11
2.376770342
 21
2.9446049528
  0
LINE
  5
588
100
AcDbEntity
  8
ADT_PHO
100
AcDbLine
 62
7
  6
CONTINUOUS
 10
5.716770342
 20
2.9546049528
 11
5.796770342
 21
2.9546049528
  0
LINE
  5
589
100
AcDbEntity
  8
ADT_PHO
100
AcDbLine
 62
7
  6
CONTINUOUS
 10
2.031770342
 20
2.9646049528
 11
2.101770342
 21
2.9646049528
  0
LINE
  5
58A
100
AcDbEntity
  8
ADT_PHO
100
AcDbLine
 62
7
  6
CONTINUOUS
 10
4.831770342
 20
2.9646049528
 11
4.901770342
 21
2.9646049528
  0
LINE
  5
58B
100
AcDbEntity
  8
ADT_PHO
100
AcDbLine
 62
7
  6
CONTINUOUS
 10
5.401770342
 20
2.9646049528
 11
5.471770342
 21
2.9646049528
  0
LINE
  5
58C
100
AcDbEntity
  8
ADT_PHO
100
AcDbLine
 62
7
  6
CONTINUOUS
 10
2.721770342
 20
2.9796049528
 11
2.621770342
 21
2.9796049528
  0
LINE
  5
58D
100
AcDbEntity
  8
ADT_PHO
100
AcDbLine
 62
7
  6
CONTINUOUS
 10
2.821770342
 20
2.9796049528
 11
2.916770342
 21
2.9796049528
  0
LINE
  5
58E
100
AcDbEntity
  8
ADT_PHO
100
AcDbLine
 62
7
  6
CONTINUOUS
 10
2.101770342
 20
2.9846049528
 11
2.031770342
 21
2.9846049528
  0
LINE
  5
58F
100
AcDbEntity
  8
ADT_PHO
100
AcDbLine
 62
7
  6
CONTINUOUS
 10
5.031770342
 20
2.9846049528
 11
5.231770342
 21
2.9846049528
  0
LINE
  5
590
100
AcDbEntity
  8
ADT_PHO
100
AcDbLine
 62
7
  6
CONTINUOUS
 10
2.951770342
 20
2.9896049528
 11
3.021770342
 21
2.9896049528
  0
LINE
  5
591
100
AcDbEntity
  8
ADT_PHO
100
AcDbLine
 62
7
  6
CONTINUOUS
 10
3.166770342
 20
2.9996049528
 11
3.236770342
 21
2.9996049528
  0
LINE
  5
592
100
AcDbEntity
  8
ADT_PHO
100
AcDbLine
 62
7
  6
CONTINUOUS
 10
3.296770342
 20
2.9996049528
 11
3.366770342
 21
2.9996049528
  0
LINE
  5
593
100
AcDbEntity
  8
ADT_PHO
100
AcDbLine
 62
7
  6
CONTINUOUS
 10
3.401770342
 20
2.9996049528
 11
3.471770342
 21
2.9996049528
  0
LINE
  5
594
100
AcDbEntity
  8
ADT_PHO
100
AcDbLine
 62
7
  6
CONTINUOUS
 10
3.506770342
 20
2.9996049528
 11
3.576770342
 21
2.9996049528
  0
LINE
  5
595
100
AcDbEntity
  8
ADT_PHO
100
AcDbLine
 62
7
  6
CONTINUOUS
 10
3.611770342
 20
2.9996049528
 11
3.681770342
 21
2.9996049528
  0
LINE
  5
596
100
AcDbEntity
  8
ADT_PHO
100
AcDbLine
 62
7
  6
CONTINUOUS
 10
4.736770342
 20
3.0096049528
 11
4.806770342
 21
3.0096049528
  0
LINE
  5
597
100
AcDbEntity
  8
ADT_PHO
100
AcDbLine
 62
7
  6
CONTINUOUS
 10
2.376770342
 20
3.0146049528
 11
2.576770342
 21
3.0146049528
  0
LINE
  5
598
100
AcDbEntity
  8
ADT_PHO
100
AcDbLine
 62
7
  6
CONTINUOUS
 10
2.726770342
 20
3.0196049528
 11
2.816770342
 21
3.0196049528
  0
LINE
  5
599
100
AcDbEntity
  8
ADT_PHO
100
AcDbLine
 62
7
  6
CONTINUOUS
 10
4.696770342
 20
3.0246049528
 11
4.596770342
 21
3.0246049528
  0
LINE
  5
59A
100
AcDbEntity
  8
ADT_PHO
100
AcDbLine
 62
7
  6
CONTINUOUS
 10
1.526770342
 20
3.0246049528
 11
1.996770342
 21
3.0246049528
  0
LINE
  5
59B
100
AcDbEntity
  8
ADT_PHO
100
AcDbLine
 62
7
  6
CONTINUOUS
 10
3.051770342
 20
3.0296049528
 11
3.121770342
 21
3.0296049528
  0
LINE
  5
59C
100
AcDbEntity
  8
ADT_PHO
100
AcDbLine
 62
7
  6
CONTINUOUS
 10
3.871770342
 20
3.0296049528
 11
4.281770342
 21
3.0296049528
  0
LINE
  5
59D
100
AcDbEntity
  8
ADT_PHO
100
AcDbLine
 62
7
  6
CONTINUOUS
 10
4.596770342
 20
3.0296049528
 11
4.696770342
 21
3.0296049528
  0
LINE
  5
59E
100
AcDbEntity
  8
ADT_PHO
100
AcDbLine
 62
7
  6
CONTINUOUS
 10
5.386770342
 20
3.0346049528
 11
5.186770342
 21
3.0346049528
  0
LINE
  5
59F
100
AcDbEntity
  8
ADT_PHO
100
AcDbLine
 62
7
  6
CONTINUOUS
 10
5.166770342
 20
3.0346049528
 11
4.966770342
 21
3.0346049528
  0
LINE
  5
5A0
100
AcDbEntity
  8
ADT_PHO
100
AcDbLine
 62
7
  6
CONTINUOUS
 10
1.491770342
 20
3.0346049528
 11
1.421770342
 21
3.0346049528
  0
LINE
  5
5A1
100
AcDbEntity
  8
ADT_PHO
100
AcDbLine
 62
7
  6
CONTINUOUS
 10
4.596770342
 20
3.0346049528
 11
4.696770342
 21
3.0346049528
  0
LINE
  5
5A2
100
AcDbEntity
  8
ADT_PHO
100
AcDbLine
 62
7
  6
CONTINUOUS
 10
4.696770342
 20
3.0396049528
 11
4.596770342
 21
3.0396049528
  0
LINE
  5
5A3
100
AcDbEntity
  8
ADT_PHO
100
AcDbLine
 62
7
  6
CONTINUOUS
 10
2.191770342
 20
3.0396049528
 11
2.261770342
 21
3.0396049528
  0
LINE
  5
5A4
100
AcDbEntity
  8
ADT_PHO
100
AcDbLine
 62
7
  6
CONTINUOUS
 10
4.696770342
 20
3.0446049528
 11
4.596770342
 21
3.0446049528
  0
LINE
  5
5A5
100
AcDbEntity
  8
ADT_PHO
100
AcDbLine
 62
7
  6
CONTINUOUS
 10
4.696770342
 20
3.0496049528
 11
4.596770342
 21
3.0496049528
  0
LINE
  5
5A6
100
AcDbEntity
  8
ADT_PHO
100
AcDbLine
 62
7
  6
CONTINUOUS
 10
5.991770342
 20
3.0496049528
 11
6.401770342
 21
3.0496049528
  0
LINE
  5
5A7
100
AcDbEntity
  8
ADT_PHO
100
AcDbLine
 62
7
  6
CONTINUOUS
 10
3.871770342
 20
3.0596049528
 11
4.281770342
 21
3.0596049528
  0
LINE
  5
5A8
100
AcDbEntity
  8
ADT_PHO
100
AcDbLine
 62
7
  6
CONTINUOUS
 10
4.406770342
 20
3.0696049528
 11
3.746770342
 21
3.0696049528
  0
LINE
  5
5A9
100
AcDbEntity
  8
ADT_PHO
100
AcDbLine
 62
7
  6
CONTINUOUS
 10
3.521770342
 20
3.0696049528
 11
3.321770342
 21
3.0696049528
  0
LINE
  5
5AA
100
AcDbEntity
  8
ADT_PHO
100
AcDbLine
 62
7
  6
CONTINUOUS
 10
5.526770342
 20
3.0796049528
 11
5.596770342
 21
3.0796049528
  0
LINE
  5
5AB
100
AcDbEntity
  8
ADT_PHO
100
AcDbLine
 62
7
  6
CONTINUOUS
 10
5.991770342
 20
3.0796049528
 11
6.401770342
 21
3.0796049528
  0
LINE
  5
5AC
100
AcDbEntity
  8
ADT_PHO
100
AcDbLine
 62
7
  6
CONTINUOUS
 10
4.766770342
 20
3.0846049528
 11
4.696770342
 21
3.0846049528
  0
LINE
  5
5AD
100
AcDbEntity
  8
ADT_PHO
100
AcDbLine
 62
7
  6
CONTINUOUS
 10
2.366770342
 20
3.0846049528
 11
2.826770342
 21
3.0846049528
  0
LINE
  5
5AE
100
AcDbEntity
  8
ADT_PHO
100
AcDbLine
 62
7
  6
CONTINUOUS
 10
6.526770342
 20
3.0896049528
 11
5.866770342
 21
3.0896049528
  0
LINE
  5
5AF
100
AcDbEntity
  8
ADT_PHO
100
AcDbLine
 62
7
  6
CONTINUOUS
 10
4.966770342
 20
3.1046049528
 11
5.166770342
 21
3.1046049528
  0
LINE
  5
5B0
100
AcDbEntity
  8
ADT_PHO
100
AcDbLine
 62
7
  6
CONTINUOUS
 10
5.186770342
 20
3.1046049528
 11
5.386770342
 21
3.1046049528
  0
LINE
  5
5B1
100
AcDbEntity
  8
ADT_PHO
100
AcDbLine
 62
7
  6
CONTINUOUS
 10
3.706770342
 20
3.1096049528
 11
4.446770342
 21
3.1096049528
  0
LINE
  5
5B2
100
AcDbEntity
  8
ADT_PHO
100
AcDbLine
 62
7
  6
CONTINUOUS
 10
4.571770342
 20
3.1146049528
 11
4.471770342
 21
3.1146049528
  0
LINE
  5
5B3
100
AcDbEntity
  8
ADT_PHO
100
AcDbLine
 62
7
  6
CONTINUOUS
 10
4.471770342
 20
3.1196049528
 11
4.571770342
 21
3.1196049528
  0
LINE
  5
5B4
100
AcDbEntity
  8
ADT_PHO
100
AcDbLine
 62
7
  6
CONTINUOUS
 10
5.166770342
 20
3.1246049528
 11
4.966770342
 21
3.1246049528
  0
LINE
  5
5B5
100
AcDbEntity
  8
ADT_PHO
100
AcDbLine
 62
7
  6
CONTINUOUS
 10
4.471770342
 20
3.1246049528
 11
4.571770342
 21
3.1246049528
  0
LINE
  5
5B6
100
AcDbEntity
  8
ADT_PHO
100
AcDbLine
 62
7
  6
CONTINUOUS
 10
5.796770342
 20
3.1296049528
 11
5.716770342
 21
3.1296049528
  0
LINE
  5
5B7
100
AcDbEntity
  8
ADT_PHO
100
AcDbLine
 62
7
  6
CONTINUOUS
 10
4.571770342
 20
3.1296049528
 11
4.471770342
 21
3.1296049528
  0
LINE
  5
5B8
100
AcDbEntity
  8
ADT_PHO
100
AcDbLine
 62
7
  6
CONTINUOUS
 10
4.131770342
 20
3.1296049528
 11
3.881770342
 21
3.1296049528
  0
LINE
  5
5B9
100
AcDbEntity
  8
ADT_PHO
100
AcDbLine
 62
7
  6
CONTINUOUS
 10
2.481770342
 20
3.1296049528
 11
2.581770342
 21
3.1296049528
  0
LINE
  5
5BA
100
AcDbEntity
  8
ADT_PHO
100
AcDbLine
 62
7
  6
CONTINUOUS
 10
2.611770342
 20
3.1296049528
 11
2.711770342
 21
3.1296049528
  0
LINE
  5
5BB
100
AcDbEntity
  8
ADT_PHO
100
AcDbLine
 62
7
  6
CONTINUOUS
 10
5.621770342
 20
3.1296049528
 11
5.691770342
 21
3.1296049528
  0
LINE
  5
5BC
100
AcDbEntity
  8
ADT_PHO
100
AcDbLine
 62
7
  6
CONTINUOUS
 10
5.826770342
 20
3.1296049528
 11
6.566770342
 21
3.1296049528
  0
LINE
  5
5BD
100
AcDbEntity
  8
ADT_PHO
100
AcDbLine
 62
7
  6
CONTINUOUS
 10
5.796770342
 20
3.1346049528
 11
5.716770342
 21
3.1346049528
  0
LINE
  5
5BE
100
AcDbEntity
  8
ADT_PHO
100
AcDbLine
 62
7
  6
CONTINUOUS
 10
4.571770342
 20
3.1346049528
 11
4.471770342
 21
3.1346049528
  0
LINE
  5
5BF
100
AcDbEntity
  8
ADT_PHO
100
AcDbLine
 62
7
  6
CONTINUOUS
 10
5.296770342
 20
3.1346049528
 11
5.496770342
 21
3.1346049528
  0
LINE
  5
5C0
100
AcDbEntity
  8
ADT_PHO
100
AcDbLine
 62
7
  6
CONTINUOUS
 10
5.796770342
 20
3.1396049528
 11
5.716770342
 21
3.1396049528
  0
LINE
  5
5C1
100
AcDbEntity
  8
ADT_PHO
100
AcDbLine
 62
7
  6
CONTINUOUS
 10
4.571770342
 20
3.1396049528
 11
4.471770342
 21
3.1396049528
  0
LINE
  5
5C2
100
AcDbEntity
  8
ADT_PHO
100
AcDbLine
 62
7
  6
CONTINUOUS
 10
3.321770342
 20
3.1396049528
 11
3.521770342
 21
3.1396049528
  0
LINE
  5
5C3
100
AcDbEntity
  8
ADT_PHO
100
AcDbLine
 62
7
  6
CONTINUOUS
 10
3.751770342
 20
3.1446049528
 11
3.641770342
 21
3.1446049528
  0
LINE
  5
5C4
100
AcDbEntity
  8
ADT_PHO
100
AcDbLine
 62
7
  6
CONTINUOUS
 10
5.716770342
 20
3.1446049528
 11
5.796770342
 21
3.1446049528
  0
LINE
  5
5C5
100
AcDbEntity
  8
ADT_PHO
100
AcDbLine
 62
7
  6
CONTINUOUS
 10
1.556770342
 20
3.1496049528
 11
1.526770342
 21
3.1496049528
  0
LINE
  5
5C6
100
AcDbEntity
  8
ADT_PHO
100
AcDbLine
 62
7
  6
CONTINUOUS
 10
5.716770342
 20
3.1496049528
 11
5.796770342
 21
3.1496049528
  0
LINE
  5
5C7
100
AcDbEntity
  8
ART01_PHO
100
AcDbLine
 62
7
  6
CONTINUOUS
 10
6.2272034128
 20
1.3377151891
 11
6.2294868774
 21
1.3346049528
  0
LINE
  5
5C8
100
AcDbEntity
  8
ART01_PHO
100
AcDbLine
 62
7
  6
CONTINUOUS
 10
5.9408254601
 20
1.3189750316
 11
5.9453923892
 21
1.3127151891
  0
LINE
  5
5C9
100
AcDbEntity
  8
ART01_PHO
100
AcDbLine
 62
7
  6
CONTINUOUS
 10
6.1499199483
 20
1.3189750316
 11
6.1544868774
 21
1.3127151891
  0
LINE
  5
5CA
100
AcDbEntity
  8
ART01_PHO
100
AcDbLine
 62
7
  6
CONTINUOUS
 10
6.2044868774
 20
1.3127151891
 11
6.1999199483
 21
1.3189750316
  0
LINE
  5
5CB
100
AcDbEntity
  8
ART01_PHO
100
AcDbLine
 62
7
  6
CONTINUOUS
 10
6.231770342
 20
1.3658254253
 11
6.2272034128
 21
1.3720852678
  0
LINE
  5
5CC
100
AcDbEntity
  8
ART01_PHO
100
AcDbLine
 62
7
  6
CONTINUOUS
 10
6.2022034128
 20
1.3533451103
 11
6.2044868774
 21
1.350195504
  0
LINE
  5
5CD
100
AcDbEntity
  8
ART01_PHO
100
AcDbLine
 62
7
  6
CONTINUOUS
 10
6.1226758538
 20
1.3408254253
 11
6.1249199483
 21
1.3377151891
  0
LINE
  5
5CE
100
AcDbEntity
  8
ART01_PHO
100
AcDbLine
 62
7
  6
CONTINUOUS
 10
6.1226758538
 20
1.3720852678
 11
6.1249199483
 21
1.3689750316
  0
LINE
  5
5CF
100
AcDbEntity
  8
ART01_PHO
100
AcDbLine
 62
7
  6
CONTINUOUS
 10
5.5226758538
 20
1.3439750316
 11
5.5385813656
 21
1.3096049528
  0
LINE
  5
5D0
100
AcDbEntity
  8
ART01_PHO
100
AcDbLine
 62
7
  6
CONTINUOUS
 10
5.336297901
 20
1.325195504
 11
5.3385813656
 21
1.3189750316
  0
LINE
  5
5D1
100
AcDbEntity
  8
ART01_PHO
100
AcDbLine
 62
7
  6
CONTINUOUS
 10
5.3681089247
 20
1.3596049528
 11
5.3658254601
 21
1.3658254253
  0
LINE
  5
5D2
100
AcDbEntity
  8
ART01_PHO
100
AcDbLine
 62
7
  6
CONTINUOUS
 10
5.311297901
 20
1.3689750316
 11
5.3135813656
 21
1.3627151891
  0
LINE
  5
5D3
100
AcDbEntity
  8
ART01_PHO
100
AcDbLine
 62
7
  6
CONTINUOUS
 10
5.0076758538
 20
1.375195504
 11
5.0258254601
 21
1.3096049528
  0
LINE
  5
5D4
100
AcDbEntity
  8
ART01_PHO
100
AcDbLine
 62
7
  6
CONTINUOUS
 10
4.8326758538
 20
1.3283451103
 11
4.8349199483
 21
1.3189750316
  0
LINE
  5
5D5
100
AcDbEntity
  8
ADT_PHO
100
AcDbLine
 62
7
  6
CONTINUOUS
 10
4.406770342
 20
2.0896049528
 11
4.406770342
 21
2.2396049528
  0
LINE
  5
5D6
100
AcDbEntity
  8
ADT_PHO
100
AcDbLine
 62
7
  6
CONTINUOUS
 10
4.406770342
 20
2.7196049528
 11
4.406770342
 21
3.0696049528
  0
LINE
  5
5D7
100
AcDbEntity
  8
ADT_PHO
100
AcDbLine
 62
7
  6
CONTINUOUS
 10
4.431770342
 20
3.6746049528
 11
4.431770342
 21
3.4746049528
  0
LINE
  5
5D8
100
AcDbEntity
  8
ADT_PHO
100
AcDbLine
 62
7
  6
CONTINUOUS
 10
4.446770342
 20
3.3446049528
 11
4.446770342
 21
3.2746049528
  0
LINE
  5
5D9
100
AcDbEntity
  8
ADT_PHO
100
AcDbLine
 62
7
  6
CONTINUOUS
 10
4.446770342
 20
3.2346049528
 11
4.446770342
 21
3.1646049528
  0
LINE
  5
5DA
100
AcDbEntity
  8
ADT_PHO
100
AcDbLine
 62
7
  6
CONTINUOUS
 10
4.446770342
 20
3.1096049528
 11
4.446770342
 21
2.7196049528
  0
LINE
  5
5DB
100
AcDbEntity
  8
ADT_PHO
100
AcDbLine
 62
7
  6
CONTINUOUS
 10
4.461770342
 20
3.8996049528
 11
4.461770342
 21
3.6996049528
  0
LINE
  5
5DC
100
AcDbEntity
  8
ADT_PHO
100
AcDbLine
 62
7
  6
CONTINUOUS
 10
4.471770342
 20
3.1396049528
 11
4.471770342
 21
2.8896049528
  0
LINE
  5
5DD
100
AcDbEntity
  8
ADT_PHO
100
AcDbLine
 62
7
  6
CONTINUOUS
 10
4.476770342
 20
2.2396049528
 11
4.476770342
 21
2.0896049528
  0
LINE
  5
5DE
100
AcDbEntity
  8
ADT_PHO
100
AcDbLine
 62
7
  6
CONTINUOUS
 10
4.476770342
 20
2.0246049528
 11
4.476770342
 21
1.5246049528
  0
LINE
  5
5DF
100
AcDbEntity
  8
ADT_PHO
100
AcDbLine
 62
7
  6
CONTINUOUS
 10
4.481770342
 20
2.3796049528
 11
4.481770342
 21
2.4296049528
  0
LINE
  5
5E0
100
AcDbEntity
  8
ADT_PHO
100
AcDbLine
 62
7
  6
CONTINUOUS
 10
4.486770342
 20
2.7346049528
 11
4.486770342
 21
2.5346049528
  0
LINE
  5
5E1
100
AcDbEntity
  8
ADT_PHO
100
AcDbLine
 62
7
  6
CONTINUOUS
 10
4.521770342
 20
2.3796049528
 11
4.521770342
 21
2.3346049528
  0
LINE
  5
5E2
100
AcDbEntity
  8
ADT_PHO
100
AcDbLine
 62
7
  6
CONTINUOUS
 10
4.521770342
 20
3.3646049528
 11
4.521770342
 21
3.5646049528
  0
LINE
  5
5E3
100
AcDbEntity
  8
ADT_PHO
100
AcDbLine
 62
7
  6
CONTINUOUS
 10
4.521770342
 20
4.1746049528
 11
4.521770342
 21
4.3746049528
  0
LINE
  5
5E4
100
AcDbEntity
  8
ADT_PHO
100
AcDbLine
 62
7
  6
CONTINUOUS
 10
4.526770342
 20
4.0646049528
 11
4.526770342
 21
4.1346049528
  0
LINE
  5
5E5
100
AcDbEntity
  8
ADT_PHO
100
AcDbLine
 62
7
  6
CONTINUOUS
 10
4.541770342
 20
3.6996049528
 11
4.541770342
 21
3.8996049528
  0
LINE
  5
5E6
100
AcDbEntity
  8
ADT_PHO
100
AcDbLine
 62
7
  6
CONTINUOUS
 10
4.551770342
 20
2.0446049528
 11
4.551770342
 21
2.2446049528
  0
LINE
  5
5E7
100
AcDbEntity
  8
ADT_PHO
100
AcDbLine
 62
7
  6
CONTINUOUS
 10
4.556770342
 20
2.4296049528
 11
4.556770342
 21
2.4746049528
  0
LINE
  5
5E8
100
AcDbEntity
  8
ADT_PHO
100
AcDbLine
 62
7
  6
CONTINUOUS
 10
4.561770342
 20
3.7846049528
 11
4.561770342
 21
3.9846049528
  0
LINE
  5
5E9
100
AcDbEntity
  8
ART01_PHO
100
AcDbLine
 62
7
  6
CONTINUOUS
 10
4.566770342
 20
1.375195504
 11
4.566770342
 21
1.3096049528
  0
LINE
  5
5EA
100
AcDbEntity
  8
ADT_PHO
100
AcDbLine
 62
7
  6
CONTINUOUS
 10
4.566770342
 20
2.5346049528
 11
4.566770342
 21
2.7346049528
  0
LINE
  5
5EB
100
AcDbEntity
  8
ADT_PHO
100
AcDbLine
 62
7
  6
CONTINUOUS
 10
4.571770342
 20
2.8896049528
 11
4.571770342
 21
3.1396049528
  0
LINE
  5
5EC
100
AcDbEntity
  8
ADT_PHO
100
AcDbLine
 62
7
  6
CONTINUOUS
 10
4.591770342
 20
4.3746049528
 11
4.591770342
 21
4.1746049528
  0
LINE
  5
5ED
100
AcDbEntity
  8
ADT_PHO
100
AcDbLine
 62
7
  6
CONTINUOUS
 10
4.591770342
 20
3.5646049528
 11
4.591770342
 21
3.3646049528
  0
LINE
  5
5EE
100
AcDbEntity
  8
ADT_PHO
100
AcDbLine
 62
7
  6
CONTINUOUS
 10
4.591770342
 20
2.3796049528
 11
4.591770342
 21
2.3346049528
  0
LINE
  5
5EF
100
AcDbEntity
  8
ADT_PHO
100
AcDbLine
 62
7
  6
CONTINUOUS
 10
4.596770342
 20
3.0496049528
 11
4.596770342
 21
2.7996049528
  0
LINE
  5
5F0
100
AcDbEntity
  8
ADT_PHO
100
AcDbLine
 62
7
  6
CONTINUOUS
 10
4.596770342
 20
2.7646049528
 11
4.596770342
 21
2.5146049528
  0
LINE
  5
5F1
100
AcDbEntity
  8
ART01_PHO
100
AcDbLine
 62
7
  6
CONTINUOUS
 10
4.6031089247
 20
1.375195504
 11
4.6031089247
 21
1.3096049528
  0
LINE
  5
5F2
100
AcDbEntity
  8
ADT_PHO
100
AcDbLine
 62
7
  6
CONTINUOUS
 10
4.621770342
 20
2.2446049528
 11
4.621770342
 21
2.0446049528
  0
LINE
  5
5F3
100
AcDbEntity
  8
ART01_PHO
100
AcDbLine
 62
7
  6
CONTINUOUS
 10
4.6235813656
 20
1.375195504
 11
4.6235813656
 21
1.3283451103
  0
LINE
  5
5F4
100
AcDbEntity
  8
ADT_PHO
100
AcDbLine
 62
7
  6
CONTINUOUS
 10
4.631770342
 20
3.9846049528
 11
4.631770342
 21
3.7846049528
  0
LINE
  5
5F5
100
AcDbEntity
  8
ADT_PHO
100
AcDbLine
 62
7
  6
CONTINUOUS
 10
4.631770342
 20
2.4296049528
 11
4.631770342
 21
2.3796049528
  0
LINE
  5
5F6
100
AcDbEntity
  8
ART01_PHO
100
AcDbLine
 62
7
  6
CONTINUOUS
 10
4.646770342
 20
1.5096049528
 11
4.646770342
 21
1.4296049528
  0
LINE
  5
5F7
100
AcDbEntity
  8
ADT_PHO
100
AcDbLine
 62
7
  6
CONTINUOUS
 10
4.646770342
 20
1.6996049528
 11
4.646770342
 21
1.8496049528
  0
LINE
  5
5F8
100
AcDbEntity
  8
ADT_PHO
100
AcDbLine
 62
7
  6
CONTINUOUS
 10
4.646770342
 20
2.0446049528
 11
4.646770342
 21
2.2946049528
  0
LINE
  5
5F9
100
AcDbEntity
  8
ART01_PHO
100
AcDbLine
 62
7
  6
CONTINUOUS
 10
4.6553923892
 20
1.3283451103
 11
4.6553923892
 21
1.375195504
  0
LINE
  5
5FA
100
AcDbEntity
  8
ADT_PHO
100
AcDbLine
 62
7
  6
CONTINUOUS
 10
4.656770342
 20
3.7846049528
 11
4.656770342
 21
3.9846049528
  0
LINE
  5
5FB
100
AcDbEntity
  8
ADT_PHO
100
AcDbLine
 62
7
  6
CONTINUOUS
 10
4.696770342
 20
2.5146049528
 11
4.696770342
 21
2.7646049528
  0
LINE
  5
5FC
100
AcDbEntity
  8
ADT_PHO
100
AcDbLine
 62
7
  6
CONTINUOUS
 10
4.696770342
 20
2.7996049528
 11
4.696770342
 21
3.0496049528
  0
LINE
  5
5FD
100
AcDbEntity
  8
ADT_PHO
100
AcDbLine
 62
7
  6
CONTINUOUS
 10
4.696770342
 20
3.0846049528
 11
4.696770342
 21
3.2846049528
  0
LINE
  5
5FE
100
AcDbEntity
  8
ADT_PHO
100
AcDbLine
 62
7
  6
CONTINUOUS
 10
4.726770342
 20
4.1346049528
 11
4.726770342
 21
4.0646049528
  0
LINE
  5
5FF
100
AcDbEntity
  8
ADT_PHO
100
AcDbLine
 62
7
  6
CONTINUOUS
 10
4.726770342
 20
3.9846049528
 11
4.726770342
 21
3.7846049528
  0
LINE
  5
600
100
AcDbEntity
  8
ADT_PHO
100
AcDbLine
 62
7
  6
CONTINUOUS
 10
4.726770342
 20
3.7496049528
 11
4.726770342
 21
3.4096049528
  0
LINE
  5
601
100
AcDbEntity
  8
ADT_PHO
100
AcDbLine
 62
7
  6
CONTINUOUS
 10
4.726770342
 20
2.3646049528
 11
4.726770342
 21
2.5146049528
  0
LINE
  5
602
100
AcDbEntity
  8
ADT_PHO
100
AcDbLine
 62
7
  6
CONTINUOUS
 10
4.736770342
 20
2.5896049528
 11
4.736770342
 21
2.7896049528
  0
LINE
  5
603
100
AcDbEntity
  8
ADT_PHO
100
AcDbLine
 62
7
  6
CONTINUOUS
 10
4.736770342
 20
2.8096049528
 11
4.736770342
 21
3.0096049528
  0
LINE
  5
604
100
AcDbEntity
  8
ADT_PHO
100
AcDbLine
 62
7
  6
CONTINUOUS
 10
4.751770342
 20
3.7696049528
 11
4.751770342
 21
3.8396049528
  0
LINE
  5
605
100
AcDbEntity
  8
ADT_PHO
100
AcDbLine
 62
7
  6
CONTINUOUS
 10
4.751770342
 20
3.8796049528
 11
4.751770342
 21
3.9496049528
  0
LINE
  5
606
100
AcDbEntity
  8
ADT_PHO
100
AcDbLine
 62
7
  6
CONTINUOUS
 10
4.751770342
 20
3.9896049528
 11
4.751770342
 21
4.0596049528
  0
LINE
  5
607
100
AcDbEntity
  8
ADT_PHO
100
AcDbLine
 62
7
  6
CONTINUOUS
 10
4.756770342
 20
2.2946049528
 11
4.756770342
 21
2.0446049528
  0
LINE
  5
608
100
AcDbEntity
  8
ADT_PHO
100
AcDbLine
 62
7
  6
CONTINUOUS
 10
4.766770342
 20
3.2846049528
 11
4.766770342
 21
3.0846049528
  0
LINE
  5
609
100
AcDbEntity
  8
ADT_PHO
100
AcDbLine
 62
7
  6
CONTINUOUS
 10
4.766770342
 20
3.7196049528
 11
4.766770342
 21
3.7496049528
  0
LINE
  5
60A
100
AcDbEntity
  8
ART01_PHO
100
AcDbLine
 62
7
  6
CONTINUOUS
 10
4.7803923892
 20
1.375195504
 11
4.7803923892
 21
1.3096049528
  0
LINE
  5
60B
100
AcDbEntity
  8
ADT_PHO
100
AcDbLine
 62
7
  6
CONTINUOUS
 10
4.781770342
 20
2.0446049528
 11
4.781770342
 21
2.2946049528
  0
LINE
  5
60C
100
AcDbEntity
  8
ART01_PHO
100
AcDbLine
 62
7
  6
CONTINUOUS
 10
4.1085813656
 20
1.375195504
 11
4.0972034128
 21
1.3096049528
  0
LINE
  5
60D
100
AcDbEntity
  8
ART01_PHO
100
AcDbLine
 62
7
  6
CONTINUOUS
 10
4.131297901
 20
1.375195504
 11
4.1199199483
 21
1.3096049528
  0
LINE
  5
60E
100
AcDbEntity
  8
ART01_PHO
100
AcDbLine
 62
7
  6
CONTINUOUS
 10
4.031297901
 20
1.3596049528
 11
4.0290144365
 21
1.350195504
  0
LINE
  5
60F
100
AcDbEntity
  8
ART01_PHO
100
AcDbLine
 62
7
  6
CONTINUOUS
 10
3.5308254601
 20
1.4764553465
 11
3.5285813656
 21
1.470195504
  0
LINE
  5
610
100
AcDbEntity
  8
ART01_PHO
100
AcDbLine
 62
7
  6
CONTINUOUS
 10
3.5558254601
 20
1.4858254253
 11
3.5535813656
 21
1.4796049528
  0
LINE
  5
611
100
AcDbEntity
  8
ART01_PHO
100
AcDbLine
 62
7
  6
CONTINUOUS
 10
3.4785813656
 20
1.4733451103
 11
3.476297901
 21
1.4670852678
  0
LINE
  5
612
100
AcDbEntity
  8
ART01_PHO
100
AcDbLine
 62
7
  6
CONTINUOUS
 10
3.4785813656
 20
1.3533451103
 11
3.476297901
 21
1.3470852678
  0
LINE
  5
613
100
AcDbEntity
  8
ART01_PHO
100
AcDbLine
 62
7
  6
CONTINUOUS
 10
3.5876758538
 20
1.3564553465
 11
3.5853923892
 21
1.350195504
  0
LINE
  5
614
100
AcDbEntity
  8
ART01_PHO
100
AcDbLine
 62
7
  6
CONTINUOUS
 10
3.5035813656
 20
1.3658254253
 11
3.501297901
 21
1.3596049528
  0
LINE
  5
615
100
AcDbEntity
  8
ART01_PHO
100
AcDbLine
 62
7
  6
CONTINUOUS
 10
3.5308254601
 20
1.3189750316
 11
3.5331089247
 21
1.325195504
  0
LINE
  5
616
100
AcDbEntity
  8
ART01_PHO
100
AcDbLine
 62
7
  6
CONTINUOUS
 10
3.5831089247
 20
1.4389750316
 11
3.5853923892
 21
1.445195504
  0
LINE
  5
617
100
AcDbEntity
  8
ART01_PHO
100
AcDbLine
 62
7
  6
CONTINUOUS
 10
3.6126758538
 20
1.4858254253
 11
3.6103923892
 21
1.4796049528
  0
LINE
  5
618
100
AcDbEntity
  8
ART01_PHO
100
AcDbLine
 62
7
  6
CONTINUOUS
 10
3.6399199483
 20
1.4389750316
 11
3.6422034128
 21
1.445195504
  0
LINE
  5
619
100
AcDbEntity
  8
ART01_PHO
100
AcDbLine
 62
7
  6
CONTINUOUS
 10
2.1808254601
 20
1.4870852678
 11
2.176297901
 21
1.4808254253
  0
LINE
  5
61A
100
AcDbEntity
  8
ART01_PHO
100
AcDbLine
 62
7
  6
CONTINUOUS
 10
2.2535813656
 20
1.4277151891
 11
2.2581089247
 21
1.4339750316
  0
LINE
  5
61B
100
AcDbEntity
  8
ART01_PHO
100
AcDbLine
 62
7
  6
CONTINUOUS
 10
2.3090144365
 20
1.3139750316
 11
2.3044868774
 21
1.3077151891
  0
LINE
  5
61C
100
AcDbEntity
  8
ART01_PHO
100
AcDbLine
 62
7
  6
CONTINUOUS
 10
2.5108254601
 20
1.4870852678
 11
2.506297901
 21
1.4808254253
  0
LINE
  5
61D
100
AcDbEntity
  8
ART01_PHO
100
AcDbLine
 62
7
  6
CONTINUOUS
 10
2.1990144365
 20
1.4277151891
 11
2.2035813656
 21
1.4339750316
  0
LINE
  5
61E
100
AcDbEntity
  8
ART01_PHO
100
AcDbLine
 62
7
  6
CONTINUOUS
 10
2.281770342
 20
1.3670852678
 11
2.2772034128
 21
1.3608254253
  0
LINE
  5
61F
100
AcDbEntity
  8
ART01_PHO
100
AcDbLine
 62
7
  6
CONTINUOUS
 10
2.2499199483
 20
1.3077151891
 11
2.2544868774
 21
1.3139750316
  0
LINE
  5
620
100
AcDbEntity
  8
ART01_PHO
100
AcDbLine
 62
7
  6
CONTINUOUS
 10
2.5290144365
 20
1.4277151891
 11
2.5335813656
 21
1.4339750316
  0
LINE
  5
621
100
AcDbEntity
  8
ART01_PHO
100
AcDbLine
 62
7
  6
CONTINUOUS
 10
2.2022034128
 20
1.345195504
 11
2.1999199483
 21
1.3420852678
  0
LINE
  5
622
100
AcDbEntity
  8
ART01_PHO
100
AcDbLine
 62
7
  6
CONTINUOUS
 10
2.2022034128
 20
1.3108254253
 11
2.1999199483
 21
1.3077151891
  0
LINE
  5
623
100
AcDbEntity
  8
ADT_PHO
100
AcDbLine
 62
7
  6
CONTINUOUS
 10
5.796770342
 20
3.1546049528
 11
5.716770342
 21
3.1546049528
  0
LINE
  5
624
100
AcDbEntity
  8
ADT_PHO
100
AcDbLine
 62
7
  6
CONTINUOUS
 10
6.146770342
 20
3.1596049528
 11
5.896770342
 21
3.1596049528
  0
LINE
  5
625
100
AcDbEntity
  8
ADT_PHO
100
AcDbLine
 62
7
  6
CONTINUOUS
 10
4.446770342
 20
3.1646049528
 11
4.246770342
 21
3.1646049528
  0
LINE
  5
626
100
AcDbEntity
  8
ADT_PHO
100
AcDbLine
 62
7
  6
CONTINUOUS
 10
6.311770342
 20
3.1646049528
 11
6.561770342
 21
3.1646049528
  0
LINE
  5
627
100
AcDbEntity
  8
ADT_PHO
100
AcDbLine
 62
7
  6
CONTINUOUS
 10
2.581770342
 20
3.1746049528
 11
2.611770342
 21
3.1746049528
  0
LINE
  5
628
100
AcDbEntity
  8
ADT_PHO
100
AcDbLine
 62
7
  6
CONTINUOUS
 10
5.731770342
 20
3.1796049528
 11
5.531770342
 21
3.1796049528
  0
LINE
  5
629
100
AcDbEntity
  8
ADT_PHO
100
AcDbLine
 62
7
  6
CONTINUOUS
 10
1.526770342
 20
3.1796049528
 11
1.556770342
 21
3.1796049528
  0
LINE
  5
62A
100
AcDbEntity
  8
ADT_PHO
100
AcDbLine
 62
7
  6
CONTINUOUS
 10
2.031770342
 20
3.1846049528
 11
2.101770342
 21
3.1846049528
  0
LINE
  5
62B
100
AcDbEntity
  8
ADT_PHO
100
AcDbLine
 62
7
  6
CONTINUOUS
 10
4.966770342
 20
3.1946049528
 11
5.166770342
 21
3.1946049528
  0
LINE
  5
62C
100
AcDbEntity
  8
ADT_PHO
100
AcDbLine
 62
7
  6
CONTINUOUS
 10
3.3623215231
 20
3.2026364489
 11
3.4073215231
 21
3.2026364489
  0
LINE
  5
62D
100
AcDbEntity
  8
ADT_PHO
100
AcDbLine
 62
7
  6
CONTINUOUS
 10
3.4473215231
 20
3.2026364489
 11
3.4923215231
 21
3.2026364489
  0
LINE
  5
62E
100
AcDbEntity
  8
ADT_PHO
100
AcDbLine
 62
7
  6
CONTINUOUS
 10
5.496770342
 20
3.2146049528
 11
5.296770342
 21
3.2146049528
  0
LINE
  5
62F
100
AcDbEntity
  8
ADT_PHO
100
AcDbLine
 62
7
  6
CONTINUOUS
 10
5.021770342
 20
3.2196049528
 11
4.821770342
 21
3.2196049528
  0
LINE
  5
630
100
AcDbEntity
  8
ADT_PHO
100
AcDbLine
 62
7
  6
CONTINUOUS
 10
3.4073215231
 20
3.2226364489
 11
3.4473215231
 21
3.2226364489
  0
LINE
  5
631
100
AcDbEntity
  8
ADT_PHO
100
AcDbLine
 62
7
  6
CONTINUOUS
 10
5.131770342
 20
3.2346049528
 11
5.061770342
 21
3.2346049528
  0
LINE
  5
632
100
AcDbEntity
  8
ADT_PHO
100
AcDbLine
 62
7
  6
CONTINUOUS
 10
1.421770342
 20
3.2346049528
 11
1.491770342
 21
3.2346049528
  0
LINE
  5
633
100
AcDbEntity
  8
ADT_PHO
100
AcDbLine
 62
7
  6
CONTINUOUS
 10
4.246770342
 20
3.2346049528
 11
4.446770342
 21
3.2346049528
  0
LINE
  5
634
100
AcDbEntity
  8
ADT_PHO
100
AcDbLine
 62
7
  6
CONTINUOUS
 10
3.881770342
 20
3.2396049528
 11
4.131770342
 21
3.2396049528
  0
LINE
  5
635
100
AcDbEntity
  8
ADT_PHO
100
AcDbLine
 62
7
  6
CONTINUOUS
 10
5.256770342
 20
3.2396049528
 11
5.386770342
 21
3.2396049528
  0
LINE
  5
636
100
AcDbEntity
  8
ADT_PHO
100
AcDbLine
 62
7
  6
CONTINUOUS
 10
5.531770342
 20
3.2496049528
 11
5.731770342
 21
3.2496049528
  0
LINE
  5
637
100
AcDbEntity
  8
ADT_PHO
100
AcDbLine
 62
7
  6
CONTINUOUS
 10
6.561770342
 20
3.2646049528
 11
6.311770342
 21
3.2646049528
  0
LINE
  5
638
100
AcDbEntity
  8
ADT_PHO
100
AcDbLine
 62
7
  6
CONTINUOUS
 10
3.896770342
 20
3.2646049528
 11
3.846770342
 21
3.2646049528
  0
LINE
  5
639
100
AcDbEntity
  8
ADT_PHO
100
AcDbLine
 62
7
  6
CONTINUOUS
 10
5.896770342
 20
3.2696049528
 11
6.146770342
 21
3.2696049528
  0
LINE
  5
63A
100
AcDbEntity
  8
ADT_PHO
100
AcDbLine
 62
7
  6
CONTINUOUS
 10
5.811770342
 20
3.2746049528
 11
5.611770342
 21
3.2746049528
  0
LINE
  5
63B
100
AcDbEntity
  8
ADT_PHO
100
AcDbLine
 62
7
  6
CONTINUOUS
 10
4.446770342
 20
3.2746049528
 11
4.246770342
 21
3.2746049528
  0
LINE
  5
63C
100
AcDbEntity
  8
ADT_PHO
100
AcDbLine
 62
7
  6
CONTINUOUS
 10
4.696770342
 20
3.2846049528
 11
4.766770342
 21
3.2846049528
  0
LINE
  5
63D
100
AcDbEntity
  8
ADT_PHO
100
AcDbLine
 62
7
  6
CONTINUOUS
 10
4.821770342
 20
3.2896049528
 11
5.021770342
 21
3.2896049528
  0
LINE
  5
63E
100
AcDbEntity
  8
ADT_PHO
100
AcDbLine
 62
7
  6
CONTINUOUS
 10
6.436770342
 20
3.2996049528
 11
6.186770342
 21
3.2996049528
  0
LINE
  5
63F
100
AcDbEntity
  8
ADT_PHO
100
AcDbLine
 62
7
  6
CONTINUOUS
 10
6.011770342
 20
3.2996049528
 11
5.961770342
 21
3.2996049528
  0
LINE
  5
640
100
AcDbEntity
  8
ADT_PHO
100
AcDbLine
 62
7
  6
CONTINUOUS
 10
1.996770342
 20
3.3046049528
 11
1.526770342
 21
3.3046049528
  0
LINE
  5
641
100
AcDbEntity
  8
ADT_PHO
100
AcDbLine
 62
7
  6
CONTINUOUS
 10
3.896770342
 20
3.3046049528
 11
3.941770342
 21
3.3046049528
  0
LINE
  5
642
100
AcDbEntity
  8
ADT_PHO
100
AcDbLine
 62
7
  6
CONTINUOUS
 10
5.021770342
 20
3.3146049528
 11
4.821770342
 21
3.3146049528
  0
LINE
  5
643
100
AcDbEntity
  8
ADT_PHO
100
AcDbLine
 62
7
  6
CONTINUOUS
 10
1.491770342
 20
3.3146049528
 11
1.421770342
 21
3.3146049528
  0
LINE
  5
644
100
AcDbEntity
  8
ADT_PHO
100
AcDbLine
 62
7
  6
CONTINUOUS
 10
6.576770342
 20
3.3396049528
 11
6.476770342
 21
3.3396049528
  0
LINE
  5
645
100
AcDbEntity
  8
ADT_PHO
100
AcDbLine
 62
7
  6
CONTINUOUS
 10
5.961770342
 20
3.3396049528
 11
5.916770342
 21
3.3396049528
  0
LINE
  5
646
100
AcDbEntity
  8
ADT_PHO
100
AcDbLine
 62
7
  6
CONTINUOUS
 10
3.846770342
 20
3.3396049528
 11
3.801770342
 21
3.3396049528
  0
LINE
  5
647
100
AcDbEntity
  8
ADT_PHO
100
AcDbLine
 62
7
  6
CONTINUOUS
 10
4.246770342
 20
3.3446049528
 11
4.446770342
 21
3.3446049528
  0
LINE
  5
648
100
AcDbEntity
  8
ADT_PHO
100
AcDbLine
 62
7
  6
CONTINUOUS
 10
5.611770342
 20
3.3446049528
 11
5.811770342
 21
3.3446049528
  0
LINE
  5
649
100
AcDbEntity
  8
ADT_PHO
100
AcDbLine
 62
7
  6
CONTINUOUS
 10
6.476770342
 20
3.3446049528
 11
6.576770342
 21
3.3446049528
  0
LINE
  5
64A
100
AcDbEntity
  8
ADT_PHO
100
AcDbLine
 62
7
  6
CONTINUOUS
 10
6.476770342
 20
3.3496049528
 11
6.576770342
 21
3.3496049528
  0
LINE
  5
64B
100
AcDbEntity
  8
ADT_PHO
100
AcDbLine
 62
7
  6
CONTINUOUS
 10
6.576770342
 20
3.3546049528
 11
6.476770342
 21
3.3546049528
  0
LINE
  5
64C
100
AcDbEntity
  8
ADT_PHO
100
AcDbLine
 62
7
  6
CONTINUOUS
 10
6.576770342
 20
3.3596049528
 11
6.476770342
 21
3.3596049528
  0
LINE
  5
64D
100
AcDbEntity
  8
ADT_PHO
100
AcDbLine
 62
7
  6
CONTINUOUS
 10
4.591770342
 20
3.3646049528
 11
4.521770342
 21
3.3646049528
  0
LINE
  5
64E
100
AcDbEntity
  8
ADT_PHO
100
AcDbLine
 62
7
  6
CONTINUOUS
 10
6.476770342
 20
3.3646049528
 11
6.576770342
 21
3.3646049528
  0
LINE
  5
64F
100
AcDbEntity
  8
ADT_PHO
100
AcDbLine
 62
7
  6
CONTINUOUS
 10
3.896770342
 20
3.3746049528
 11
3.941770342
 21
3.3746049528
  0
LINE
  5
650
100
AcDbEntity
  8
ADT_PHO
100
AcDbLine
 62
7
  6
CONTINUOUS
 10
6.011770342
 20
3.3746049528
 11
6.056770342
 21
3.3746049528
  0
LINE
  5
651
100
AcDbEntity
  8
ADT_PHO
100
AcDbLine
 62
7
  6
CONTINUOUS
 10
4.821770342
 20
3.3846049528
 11
5.021770342
 21
3.3846049528
  0
LINE
  5
652
100
AcDbEntity
  8
ADT_PHO
100
AcDbLine
 62
7
  6
CONTINUOUS
 10
3.641770342
 20
3.3946049528
 11
3.751770342
 21
3.3946049528
  0
LINE
  5
653
100
AcDbEntity
  8
ADT_PHO
100
AcDbLine
 62
7
  6
CONTINUOUS
 10
5.961770342
 20
3.4096049528
 11
5.916770342
 21
3.4096049528
  0
LINE
  5
654
100
AcDbEntity
  8
ADT_PHO
100
AcDbLine
 62
7
  6
CONTINUOUS
 10
4.726770342
 20
3.4096049528
 11
4.856770342
 21
3.4096049528
  0
LINE
  5
655
100
AcDbEntity
  8
ADT_PHO
100
AcDbLine
 62
7
  6
CONTINUOUS
 10
6.186770342
 20
3.4096049528
 11
6.436770342
 21
3.4096049528
  0
LINE
  5
656
100
AcDbEntity
  8
ADT_PHO
100
AcDbLine
 62
7
  6
CONTINUOUS
 10
5.6323215231
 20
3.4126364489
 11
5.6773215231
 21
3.4126364489
  0
LINE
  5
657
100
AcDbEntity
  8
ADT_PHO
100
AcDbLine
 62
7
  6
CONTINUOUS
 10
5.7173215231
 20
3.4126364489
 11
5.7623215231
 21
3.4126364489
  0
LINE
  5
658
100
AcDbEntity
  8
ADT_PHO
100
AcDbLine
 62
7
  6
CONTINUOUS
 10
3.846770342
 20
3.4146049528
 11
3.896770342
 21
3.4146049528
  0
LINE
  5
659
100
AcDbEntity
  8
ADT_PHO
100
AcDbLine
 62
7
  6
CONTINUOUS
 10
2.161770342
 20
3.4246049528
 11
2.091770342
 21
3.4246049528
  0
LINE
  5
65A
100
AcDbEntity
  8
ADT_PHO
100
AcDbLine
 62
7
  6
CONTINUOUS
 10
3.4923215231
 20
3.426179756
 11
3.3623215231
 21
3.426179756
  0
LINE
  5
65B
100
AcDbEntity
  8
ADT_PHO
100
AcDbLine
 62
7
  6
CONTINUOUS
 10
5.6773215231
 20
3.4326364489
 11
5.7173215231
 21
3.4326364489
  0
LINE
  5
65C
100
AcDbEntity
  8
ADT_PHO
100
AcDbLine
 62
7
  6
CONTINUOUS
 10
5.061770342
 20
3.4346049528
 11
5.131770342
 21
3.4346049528
  0
LINE
  5
65D
100
AcDbEntity
  8
ADT_PHO
100
AcDbLine
 62
7
  6
CONTINUOUS
 10
6.436770342
 20
3.4496049528
 11
6.366770342
 21
3.4496049528
  0
LINE
  5
65E
100
AcDbEntity
  8
ADT_PHO
100
AcDbLine
 62
7
  6
CONTINUOUS
 10
6.331770342
 20
3.4496049528
 11
6.261770342
 21
3.4496049528
  0
LINE
  5
65F
100
AcDbEntity
  8
ADT_PHO
100
AcDbLine
 62
7
  6
CONTINUOUS
 10
1.931770342
 20
3.4496049528
 11
1.731770342
 21
3.4496049528
  0
LINE
  5
660
100
AcDbEntity
  8
ADT_PHO
100
AcDbLine
 62
7
  6
CONTINUOUS
 10
5.961770342
 20
3.4496049528
 11
6.011770342
 21
3.4496049528
  0
LINE
  5
661
100
AcDbEntity
  8
ADT_PHO
100
AcDbLine
 62
7
  6
CONTINUOUS
 10
2.261770342
 20
3.4646049528
 11
2.191770342
 21
3.4646049528
  0
LINE
  5
662
100
AcDbEntity
  8
ADT_PHO
100
AcDbLine
 62
7
  6
CONTINUOUS
 10
4.431770342
 20
3.4746049528
 11
4.361770342
 21
3.4746049528
  0
LINE
  5
663
100
AcDbEntity
  8
ADT_PHO
100
AcDbLine
 62
7
  6
CONTINUOUS
 10
4.051770342
 20
3.4746049528
 11
3.851770342
 21
3.4746049528
  0
LINE
  5
664
100
AcDbEntity
  8
ADT_PHO
100
AcDbLine
 62
7
  6
CONTINUOUS
 10
3.826770342
 20
3.4746049528
 11
3.626770342
 21
3.4746049528
  0
LINE
  5
665
100
AcDbEntity
  8
ADT_PHO
100
AcDbLine
 62
7
  6
CONTINUOUS
 10
4.066770342
 20
3.4746049528
 11
4.166770342
 21
3.4746049528
  0
LINE
  5
666
100
AcDbEntity
  8
ADT_PHO
100
AcDbLine
 62
7
  6
CONTINUOUS
 10
1.421770342
 20
3.5146049528
 11
1.491770342
 21
3.5146049528
  0
LINE
  5
667
100
AcDbEntity
  8
ADT_PHO
100
AcDbLine
 62
7
  6
CONTINUOUS
 10
1.731770342
 20
3.5196049528
 11
1.931770342
 21
3.5196049528
  0
LINE
  5
668
100
AcDbEntity
  8
ART01_PHO
100
AcDbLine
 62
7
  6
CONTINUOUS
 10
6.331770342
 20
1.3408254253
 11
6.3340144365
 21
1.3377151891
  0
LINE
  5
669
100
AcDbEntity
  8
ART01_PHO
100
AcDbLine
 62
7
  6
CONTINUOUS
 10
6.331770342
 20
1.3720852678
 11
6.3340144365
 21
1.3689750316
  0
LINE
  5
66A
100
AcDbEntity
  8
ART01_PHO
100
AcDbLine
 62
7
  6
CONTINUOUS
 10
5.9908254601
 20
1.375195504
 11
6.0226758538
 21
1.3096049528
  0
LINE
  5
66B
100
AcDbEntity
  8
ART01_PHO
100
AcDbLine
 62
7
  6
CONTINUOUS
 10
5.536297901
 20
1.3689750316
 11
5.5385813656
 21
1.3627151891
  0
LINE
  5
66C
100
AcDbEntity
  8
ART01_PHO
100
AcDbLine
 62
7
  6
CONTINUOUS
 10
5.6408254601
 20
1.3377151891
 11
5.6431089247
 21
1.3314553465
  0
LINE
  5
66D
100
AcDbEntity
  8
ART01_PHO
100
AcDbLine
 62
7
  6
CONTINUOUS
 10
5.6408254601
 20
1.3689750316
 11
5.6431089247
 21
1.3627151891
  0
LINE
  5
66E
100
AcDbEntity
  8
ART01_PHO
100
AcDbLine
 62
7
  6
CONTINUOUS
 10
5.3340144365
 20
1.3346049528
 11
5.336297901
 21
1.325195504
  0
LINE
  5
66F
100
AcDbEntity
  8
ART01_PHO
100
AcDbLine
 62
7
  6
CONTINUOUS
 10
5.3703923892
 20
1.350195504
 11
5.3681089247
 21
1.3596049528
  0
LINE
  5
670
100
AcDbEntity
  8
ADT_PHO
100
AcDbLine
 62
7
  6
CONTINUOUS
 10
4.796770342
 20
2.5146049528
 11
4.796770342
 21
2.3646049528
  0
LINE
  5
671
100
AcDbEntity
  8
ADT_PHO
100
AcDbLine
 62
7
  6
CONTINUOUS
 10
4.801770342
 20
1.5246049528
 11
4.801770342
 21
2.0246049528
  0
LINE
  5
672
100
AcDbEntity
  8
ADT_PHO
100
AcDbLine
 62
7
  6
CONTINUOUS
 10
4.806770342
 20
3.0096049528
 11
4.806770342
 21
2.8096049528
  0
LINE
  5
673
100
AcDbEntity
  8
ADT_PHO
100
AcDbLine
 62
7
  6
CONTINUOUS
 10
4.806770342
 20
2.7896049528
 11
4.806770342
 21
2.5896049528
  0
LINE
  5
674
100
AcDbEntity
  8
ART01_PHO
100
AcDbLine
 62
7
  6
CONTINUOUS
 10
4.8122034128
 20
1.3627151891
 11
4.8122034128
 21
1.3564553465
  0
LINE
  5
675
100
AcDbEntity
  8
ART01_PHO
100
AcDbLine
 62
7
  6
CONTINUOUS
 10
4.8122034128
 20
1.3314553465
 11
4.8122034128
 21
1.3220852678
  0
LINE
  5
676
100
AcDbEntity
  8
ADT_PHO
100
AcDbLine
 62
7
  6
CONTINUOUS
 10
4.816770342
 20
3.7496049528
 11
4.816770342
 21
3.7196049528
  0
LINE
  5
677
100
AcDbEntity
  8
ADT_PHO
100
AcDbLine
 62
7
  6
CONTINUOUS
 10
4.821770342
 20
2.3646049528
 11
4.821770342
 21
2.5646049528
  0
LINE
  5
678
100
AcDbEntity
  8
ADT_PHO
100
AcDbLine
 62
7
  6
CONTINUOUS
 10
4.821770342
 20
3.2196049528
 11
4.821770342
 21
3.2896049528
  0
LINE
  5
679
100
AcDbEntity
  8
ADT_PHO
100
AcDbLine
 62
7
  6
CONTINUOUS
 10
4.821770342
 20
3.3146049528
 11
4.821770342
 21
3.3846049528
  0
LINE
  5
67A
100
AcDbEntity
  8
ADT_PHO
100
AcDbLine
 62
7
  6
CONTINUOUS
 10
4.831770342
 20
2.5896049528
 11
4.831770342
 21
2.7896049528
  0
LINE
  5
67B
100
AcDbEntity
  8
ADT_PHO
100
AcDbLine
 62
7
  6
CONTINUOUS
 10
4.831770342
 20
2.8146049528
 11
4.831770342
 21
2.9646049528
  0
LINE
  5
67C
100
AcDbEntity
  8
ART01_PHO
100
AcDbLine
 62
7
  6
CONTINUOUS
 10
4.8326758538
 20
1.375195504
 11
4.8326758538
 21
1.3283451103
  0
LINE
  5
67D
100
AcDbEntity
  8
ADT_PHO
100
AcDbLine
 62
7
  6
CONTINUOUS
 10
4.856770342
 20
3.4096049528
 11
4.856770342
 21
3.7496049528
  0
LINE
  5
67E
100
AcDbEntity
  8
ART01_PHO
100
AcDbLine
 62
7
  6
CONTINUOUS
 10
4.8644868774
 20
1.3283451103
 11
4.8644868774
 21
1.375195504
  0
LINE
  5
67F
100
AcDbEntity
  8
ART01_PHO
100
AcDbLine
 62
7
  6
CONTINUOUS
 10
4.8849199483
 20
1.3658254253
 11
4.8849199483
 21
1.3596049528
  0
LINE
  5
680
100
AcDbEntity
  8
ADT_PHO
100
AcDbLine
 62
7
  6
CONTINUOUS
 10
4.891770342
 20
2.5646049528
 11
4.891770342
 21
2.3646049528
  0
LINE
  5
681
100
AcDbEntity
  8
ADT_PHO
100
AcDbLine
 62
7
  6
CONTINUOUS
 10
4.891770342
 20
2.2946049528
 11
4.891770342
 21
2.0446049528
  0
LINE
  5
682
100
AcDbEntity
  8
ADT_PHO
100
AcDbLine
 62
7
  6
CONTINUOUS
 10
4.901770342
 20
2.9646049528
 11
4.901770342
 21
2.8146049528
  0
LINE
  5
683
100
AcDbEntity
  8
ADT_PHO
100
AcDbLine
 62
7
  6
CONTINUOUS
 10
4.901770342
 20
2.7896049528
 11
4.901770342
 21
2.5896049528
  0
LINE
  5
684
100
AcDbEntity
  8
ART01_PHO
100
AcDbLine
 62
7
  6
CONTINUOUS
 10
4.916770342
 20
1.3283451103
 11
4.916770342
 21
1.3189750316
  0
LINE
  5
685
100
AcDbEntity
  8
ADT_PHO
100
AcDbLine
 62
7
  6
CONTINUOUS
 10
4.916770342
 20
2.0446049528
 11
4.916770342
 21
2.2446049528
  0
LINE
  5
686
100
AcDbEntity
  8
ADT_PHO
100
AcDbLine
 62
7
  6
CONTINUOUS
 10
4.916770342
 20
2.2646049528
 11
4.916770342
 21
2.4646049528
  0
LINE
  5
687
100
AcDbEntity
  8
ADT_PHO
100
AcDbLine
 62
7
  6
CONTINUOUS
 10
4.951770342
 20
4.0596049528
 11
4.951770342
 21
3.9896049528
  0
LINE
  5
688
100
AcDbEntity
  8
ADT_PHO
100
AcDbLine
 62
7
  6
CONTINUOUS
 10
4.951770342
 20
3.9496049528
 11
4.951770342
 21
3.8796049528
  0
LINE
  5
689
100
AcDbEntity
  8
ADT_PHO
100
AcDbLine
 62
7
  6
CONTINUOUS
 10
4.951770342
 20
3.8396049528
 11
4.951770342
 21
3.7696049528
  0
LINE
  5
68A
100
AcDbEntity
  8
ADT_PHO
100
AcDbLine
 62
7
  6
CONTINUOUS
 10
4.966770342
 20
3.0346049528
 11
4.966770342
 21
3.1046049528
  0
LINE
  5
68B
100
AcDbEntity
  8
ADT_PHO
100
AcDbLine
 62
7
  6
CONTINUOUS
 10
4.966770342
 20
3.1246049528
 11
4.966770342
 21
3.1946049528
  0
LINE
  5
68C
100
AcDbEntity
  8
ADT_PHO
100
AcDbLine
 62
7
  6
CONTINUOUS
 10
4.971770342
 20
1.6996049528
 11
4.971770342
 21
1.8496049528
  0
LINE
  5
68D
100
AcDbEntity
  8
ADT_PHO
100
AcDbLine
 62
7
  6
CONTINUOUS
 10
4.986770342
 20
2.4646049528
 11
4.986770342
 21
2.2646049528
  0
LINE
  5
68E
100
AcDbEntity
  8
ADT_PHO
100
AcDbLine
 62
7
  6
CONTINUOUS
 10
4.986770342
 20
2.2446049528
 11
4.986770342
 21
2.0446049528
  0
LINE
  5
68F
100
AcDbEntity
  8
ADT_PHO
100
AcDbLine
 62
7
  6
CONTINUOUS
 10
4.986770342
 20
3.8096049528
 11
4.986770342
 21
3.8796049528
  0
LINE
  5
690
100
AcDbEntity
  8
ADT_PHO
100
AcDbLine
 62
7
  6
CONTINUOUS
 10
5.001770342
 20
2.5096049528
 11
5.001770342
 21
2.5796049528
  0
LINE
  5
691
100
AcDbEntity
  8
ADT_PHO
100
AcDbLine
 62
7
  6
CONTINUOUS
 10
5.011770342
 20
2.0446049528
 11
5.011770342
 21
2.4246049528
  0
LINE
  5
692
100
AcDbEntity
  8
ADT_PHO
100
AcDbLine
 62
7
  6
CONTINUOUS
 10
5.0211797908
 20
2.8615340867
 11
5.0211797908
 21
2.6379907796
  0
LINE
  5
693
100
AcDbEntity
  8
ADT_PHO
100
AcDbLine
 62
7
  6
CONTINUOUS
 10
5.021770342
 20
3.3846049528
 11
5.021770342
 21
3.3146049528
  0
LINE
  5
694
100
AcDbEntity
  8
ADT_PHO
100
AcDbLine
 62
7
  6
CONTINUOUS
 10
5.021770342
 20
3.2896049528
 11
5.021770342
 21
3.2196049528
  0
LINE
  5
695
100
AcDbEntity
  8
ADT_PHO
100
AcDbLine
 62
7
  6
CONTINUOUS
 10
5.031770342
 20
2.9146049528
 11
5.031770342
 21
2.9846049528
  0
LINE
  5
696
100
AcDbEntity
  8
ADT_PHO
100
AcDbLine
 62
7
  6
CONTINUOUS
 10
5.031770342
 20
3.5596049528
 11
5.031770342
 21
3.7596049528
  0
LINE
  5
697
100
AcDbEntity
  8
ADT_PHO
100
AcDbLine
 62
7
  6
CONTINUOUS
 10
5.061770342
 20
3.2346049528
 11
5.061770342
 21
3.4346049528
  0
LINE
  5
698
100
AcDbEntity
  8
ADT_PHO
100
AcDbLine
 62
7
  6
CONTINUOUS
 10
5.0661797908
 20
2.8415340867
 11
5.0661797908
 21
2.8615340867
  0
LINE
  5
699
100
AcDbEntity
  8
ADT_PHO
100
AcDbLine
 62
7
  6
CONTINUOUS
 10
5.101770342
 20
3.7596049528
 11
5.101770342
 21
3.5596049528
  0
LINE
  5
69A
100
AcDbEntity
  8
ADT_PHO
100
AcDbLine
 62
7
  6
CONTINUOUS
 10
5.1061797908
 20
2.8615340867
 11
5.1061797908
 21
2.8415340867
  0
LINE
  5
69B
100
AcDbEntity
  8
ADT_PHO
100
AcDbLine
 62
7
  6
CONTINUOUS
 10
5.126770342
 20
2.0246049528
 11
5.126770342
 21
1.5246049528
  0
LINE
  5
69C
100
AcDbEntity
  8
ART01_PHO
100
AcDbLine
 62
7
  6
CONTINUOUS
 10
5.126770342
 20
1.4996049528
 11
5.126770342
 21
1.2996049528
  0
LINE
  5
69D
100
AcDbEntity
  8
ADT_PHO
100
AcDbLine
 62
7
  6
CONTINUOUS
 10
5.131770342
 20
3.4346049528
 11
5.131770342
 21
3.2346049528
  0
LINE
  5
69E
100
AcDbEntity
  8
ADT_PHO
100
AcDbLine
 62
7
  6
CONTINUOUS
 10
5.1511797908
 20
2.6379907796
 11
5.1511797908
 21
2.8615340867
  0
LINE
  5
69F
100
AcDbEntity
  8
ADT_PHO
100
AcDbLine
 62
7
  6
CONTINUOUS
 10
5.166770342
 20
3.1946049528
 11
5.166770342
 21
3.1246049528
  0
LINE
  5
6A0
100
AcDbEntity
  8
ADT_PHO
100
AcDbLine
 62
7
  6
CONTINUOUS
 10
5.166770342
 20
3.1046049528
 11
5.166770342
 21
3.0346049528
  0
LINE
  5
6A1
100
AcDbEntity
  8
ADT_PHO
100
AcDbLine
 62
7
  6
CONTINUOUS
 10
5.166770342
 20
3.6996049528
 11
5.166770342
 21
3.7696049528
  0
LINE
  5
6A2
100
AcDbEntity
  8
ART01_PHO
100
AcDbLine
 62
7
  6
CONTINUOUS
 10
4.0631089247
 20
1.325195504
 11
4.0653923892
 21
1.3346049528
  0
LINE
  5
6A3
100
AcDbEntity
  8
ART01_PHO
100
AcDbLine
 62
7
  6
CONTINUOUS
 10
4.3244868774
 20
1.375195504
 11
4.306297901
 21
1.3096049528
  0
LINE
  5
6A4
100
AcDbEntity
  8
ART01_PHO
100
AcDbLine
 62
7
  6
CONTINUOUS
 10
4.0085813656
 20
1.3533451103
 11
4.006297901
 21
1.3470852678
  0
LINE
  5
6A5
100
AcDbEntity
  8
ART01_PHO
100
AcDbLine
 62
7
  6
CONTINUOUS
 10
4.0335813656
 20
1.3658254253
 11
4.031297901
 21
1.3596049528
  0
LINE
  5
6A6
100
AcDbEntity
  8
ART01_PHO
100
AcDbLine
 62
7
  6
CONTINUOUS
 10
4.0608254601
 20
1.3189750316
 11
4.0631089247
 21
1.325195504
  0
LINE
  5
6A7
100
AcDbEntity
  8
ART01_PHO
100
AcDbLine
 62
7
  6
CONTINUOUS
 10
2.6358254601
 20
1.4339750316
 11
2.631297901
 21
1.4277151891
  0
LINE
  5
6A8
100
AcDbEntity
  8
ART01_PHO
100
AcDbLine
 62
7
  6
CONTINUOUS
 10
2.911770342
 20
1.470195504
 11
2.9094868774
 21
1.4670852678
  0
LINE
  5
6A9
100
AcDbEntity
  8
ADT_PHO
100
AcDbLine
 62
7
  6
CONTINUOUS
 10
3.626770342
 20
3.5446049528
 11
3.826770342
 21
3.5446049528
  0
LINE
  5
6AA
100
AcDbEntity
  8
ADT_PHO
100
AcDbLine
 62
7
  6
CONTINUOUS
 10
3.851770342
 20
3.5446049528
 11
4.051770342
 21
3.5446049528
  0
LINE
  5
6AB
100
AcDbEntity
  8
ADT_PHO
100
AcDbLine
 62
7
  6
CONTINUOUS
 10
5.346770342
 20
3.5496049528
 11
5.296770342
 21
3.5496049528
  0
LINE
  5
6AC
100
AcDbEntity
  8
ADT_PHO
100
AcDbLine
 62
7
  6
CONTINUOUS
 10
1.886770342
 20
3.5546049528
 11
1.736770342
 21
3.5546049528
  0
LINE
  5
6AD
100
AcDbEntity
  8
ADT_PHO
100
AcDbLine
 62
7
  6
CONTINUOUS
 10
5.101770342
 20
3.5596049528
 11
5.031770342
 21
3.5596049528
  0
LINE
  5
6AE
100
AcDbEntity
  8
ADT_PHO
100
AcDbLine
 62
7
  6
CONTINUOUS
 10
4.521770342
 20
3.5646049528
 11
4.591770342
 21
3.5646049528
  0
LINE
  5
6AF
100
AcDbEntity
  8
ADT_PHO
100
AcDbLine
 62
7
  6
CONTINUOUS
 10
3.136770342
 20
3.5746049528
 11
3.066770342
 21
3.5746049528
  0
LINE
  5
6B0
100
AcDbEntity
  8
ADT_PHO
100
AcDbLine
 62
7
  6
CONTINUOUS
 10
5.386770342
 20
3.5796049528
 11
5.346770342
 21
3.5796049528
  0
LINE
  5
6B1
100
AcDbEntity
  8
ADT_PHO
100
AcDbLine
 62
7
  6
CONTINUOUS
 10
5.296770342
 20
3.5796049528
 11
5.256770342
 21
3.5796049528
  0
LINE
  5
6B2
100
AcDbEntity
  8
ADT_PHO
100
AcDbLine
 62
7
  6
CONTINUOUS
 10
6.576770342
 20
3.5896049528
 11
6.476770342
 21
3.5896049528
  0
LINE
  5
6B3
100
AcDbEntity
  8
ADT_PHO
100
AcDbLine
 62
7
  6
CONTINUOUS
 10
1.661770342
 20
3.5946049528
 11
1.511770342
 21
3.5946049528
  0
LINE
  5
6B4
100
AcDbEntity
  8
ADT_PHO
100
AcDbLine
 62
7
  6
CONTINUOUS
 10
5.376770342
 20
3.6096049528
 11
5.176770342
 21
3.6096049528
  0
LINE
  5
6B5
100
AcDbEntity
  8
ADT_PHO
100
AcDbLine
 62
7
  6
CONTINUOUS
 10
2.191770342
 20
3.6146049528
 11
2.261770342
 21
3.6146049528
  0
LINE
  5
6B6
100
AcDbEntity
  8
ADT_PHO
100
AcDbLine
 62
7
  6
CONTINUOUS
 10
1.736770342
 20
3.6246049528
 11
1.886770342
 21
3.6246049528
  0
LINE
  5
6B7
100
AcDbEntity
  8
ADT_PHO
100
AcDbLine
 62
7
  6
CONTINUOUS
 10
2.091770342
 20
3.6246049528
 11
2.161770342
 21
3.6246049528
  0
LINE
  5
6B8
100
AcDbEntity
  8
ADT_PHO
100
AcDbLine
 62
7
  6
CONTINUOUS
 10
5.7623215231
 20
3.636179756
 11
5.6323215231
 21
3.636179756
  0
LINE
  5
6B9
100
AcDbEntity
  8
ADT_PHO
100
AcDbLine
 62
7
  6
CONTINUOUS
 10
6.261770342
 20
3.6496049528
 11
6.331770342
 21
3.6496049528
  0
LINE
  5
6BA
100
AcDbEntity
  8
ADT_PHO
100
AcDbLine
 62
7
  6
CONTINUOUS
 10
6.366770342
 20
3.6496049528
 11
6.436770342
 21
3.6496049528
  0
LINE
  5
6BB
100
AcDbEntity
  8
ADT_PHO
100
AcDbLine
 62
7
  6
CONTINUOUS
 10
1.936770342
 20
3.6646049528
 11
1.736770342
 21
3.6646049528
  0
LINE
  5
6BC
100
AcDbEntity
  8
ADT_PHO
100
AcDbLine
 62
7
  6
CONTINUOUS
 10
1.511770342
 20
3.6646049528
 11
1.661770342
 21
3.6646049528
  0
LINE
  5
6BD
100
AcDbEntity
  8
ADT_PHO
100
AcDbLine
 62
7
  6
CONTINUOUS
 10
4.361770342
 20
3.6746049528
 11
4.431770342
 21
3.6746049528
  0
LINE
  5
6BE
100
AcDbEntity
  8
ADT_PHO
100
AcDbLine
 62
7
  6
CONTINUOUS
 10
5.176770342
 20
3.6796049528
 11
5.376770342
 21
3.6796049528
  0
LINE
  5
6BF
100
AcDbEntity
  8
ADT_PHO
100
AcDbLine
 62
7
  6
CONTINUOUS
 10
1.656770342
 20
3.6896049528
 11
1.536770342
 21
3.6896049528
  0
LINE
  5
6C0
100
AcDbEntity
  8
ADT_PHO
100
AcDbLine
 62
7
  6
CONTINUOUS
 10
6.066770342
 20
3.6896049528
 11
6.166770342
 21
3.6896049528
  0
LINE
  5
6C1
100
AcDbEntity
  8
ADT_PHO
100
AcDbLine
 62
7
  6
CONTINUOUS
 10
5.366770342
 20
3.6996049528
 11
5.166770342
 21
3.6996049528
  0
LINE
  5
6C2
100
AcDbEntity
  8
ADT_PHO
100
AcDbLine
 62
7
  6
CONTINUOUS
 10
4.541770342
 20
3.6996049528
 11
4.461770342
 21
3.6996049528
  0
LINE
  5
6C3
100
AcDbEntity
  8
ADT_PHO
100
AcDbLine
 62
7
  6
CONTINUOUS
 10
4.541770342
 20
3.7046049528
 11
4.461770342
 21
3.7046049528
  0
LINE
  5
6C4
100
AcDbEntity
  8
ADT_PHO
100
AcDbLine
 62
7
  6
CONTINUOUS
 10
6.406770342
 20
3.7096049528
 11
5.656770342
 21
3.7096049528
  0
LINE
  5
6C5
100
AcDbEntity
  8
ADT_PHO
100
AcDbLine
 62
7
  6
CONTINUOUS
 10
4.541770342
 20
3.7096049528
 11
4.461770342
 21
3.7096049528
  0
LINE
  5
6C6
100
AcDbEntity
  8
ADT_PHO
100
AcDbLine
 62
7
  6
CONTINUOUS
 10
4.461770342
 20
3.7146049528
 11
4.541770342
 21
3.7146049528
  0
LINE
  5
6C7
100
AcDbEntity
  8
ADT_PHO
100
AcDbLine
 62
7
  6
CONTINUOUS
 10
4.816770342
 20
3.7196049528
 11
4.766770342
 21
3.7196049528
  0
LINE
  5
6C8
100
AcDbEntity
  8
ADT_PHO
100
AcDbLine
 62
7
  6
CONTINUOUS
 10
4.461770342
 20
3.7196049528
 11
4.541770342
 21
3.7196049528
  0
LINE
  5
6C9
100
AcDbEntity
  8
ADT_PHO
100
AcDbLine
 62
7
  6
CONTINUOUS
 10
4.461770342
 20
3.7246049528
 11
4.541770342
 21
3.7246049528
  0
LINE
  5
6CA
100
AcDbEntity
  8
ADT_PHO
100
AcDbLine
 62
7
  6
CONTINUOUS
 10
6.406770342
 20
3.7346049528
 11
5.661770342
 21
3.7346049528
  0
LINE
  5
6CB
100
AcDbEntity
  8
ADT_PHO
100
AcDbLine
 62
7
  6
CONTINUOUS
 10
1.736770342
 20
3.7346049528
 11
1.936770342
 21
3.7346049528
  0
LINE
  5
6CC
100
AcDbEntity
  8
ADT_PHO
100
AcDbLine
 62
7
  6
CONTINUOUS
 10
4.856770342
 20
3.7496049528
 11
4.816770342
 21
3.7496049528
  0
LINE
  5
6CD
100
AcDbEntity
  8
ADT_PHO
100
AcDbLine
 62
7
  6
CONTINUOUS
 10
4.766770342
 20
3.7496049528
 11
4.726770342
 21
3.7496049528
  0
LINE
  5
6CE
100
AcDbEntity
  8
ADT_PHO
100
AcDbLine
 62
7
  6
CONTINUOUS
 10
2.711770342
 20
3.7496049528
 11
2.481770342
 21
3.7496049528
  0
LINE
  5
6CF
100
AcDbEntity
  8
ADT_PHO
100
AcDbLine
 62
7
  6
CONTINUOUS
 10
3.261770342
 20
3.7546049528
 11
3.191770342
 21
3.7546049528
  0
LINE
  5
6D0
100
AcDbEntity
  8
ADT_PHO
100
AcDbLine
 62
7
  6
CONTINUOUS
 10
5.031770342
 20
3.7596049528
 11
5.101770342
 21
3.7596049528
  0
LINE
  5
6D1
100
AcDbEntity
  8
ADT_PHO
100
AcDbLine
 62
7
  6
CONTINUOUS
 10
1.796770342
 20
3.7646049528
 11
1.726770342
 21
3.7646049528
  0
LINE
  5
6D2
100
AcDbEntity
  8
ADT_PHO
100
AcDbLine
 62
7
  6
CONTINUOUS
 10
4.951770342
 20
3.7696049528
 11
4.751770342
 21
3.7696049528
  0
LINE
  5
6D3
100
AcDbEntity
  8
ADT_PHO
100
AcDbLine
 62
7
  6
CONTINUOUS
 10
5.166770342
 20
3.7696049528
 11
5.366770342
 21
3.7696049528
  0
LINE
  5
6D4
100
AcDbEntity
  8
ADT_PHO
100
AcDbLine
 62
7
  6
CONTINUOUS
 10
3.066770342
 20
3.7746049528
 11
3.136770342
 21
3.7746049528
  0
LINE
  5
6D5
100
AcDbEntity
  8
ADT_PHO
100
AcDbLine
 62
7
  6
CONTINUOUS
 10
4.726770342
 20
3.7846049528
 11
4.656770342
 21
3.7846049528
  0
LINE
  5
6D6
100
AcDbEntity
  8
ADT_PHO
100
AcDbLine
 62
7
  6
CONTINUOUS
 10
4.631770342
 20
3.7846049528
 11
4.561770342
 21
3.7846049528
  0
LINE
  5
6D7
100
AcDbEntity
  8
ADT_PHO
100
AcDbLine
 62
7
  6
CONTINUOUS
 10
1.986770342
 20
3.7846049528
 11
2.026770342
 21
3.7846049528
  0
LINE
  5
6D8
100
AcDbEntity
  8
ADT_PHO
100
AcDbLine
 62
7
  6
CONTINUOUS
 10
2.076770342
 20
3.7846049528
 11
2.116770342
 21
3.7846049528
  0
LINE
  5
6D9
100
AcDbEntity
  8
ADT_PHO
100
AcDbLine
 62
7
  6
CONTINUOUS
 10
2.826770342
 20
3.7946049528
 11
2.366770342
 21
3.7946049528
  0
LINE
  5
6DA
100
AcDbEntity
  8
ADT_PHO
100
AcDbLine
 62
7
  6
CONTINUOUS
 10
5.596770342
 20
3.7996049528
 11
5.396770342
 21
3.7996049528
  0
LINE
  5
6DB
100
AcDbEntity
  8
ADT_PHO
100
AcDbLine
 62
7
  6
CONTINUOUS
 10
5.186770342
 20
3.8096049528
 11
4.986770342
 21
3.8096049528
  0
LINE
  5
6DC
100
AcDbEntity
  8
ADT_PHO
100
AcDbLine
 62
7
  6
CONTINUOUS
 10
2.026770342
 20
3.8146049528
 11
2.076770342
 21
3.8146049528
  0
LINE
  5
6DD
100
AcDbEntity
  8
ADT_PHO
100
AcDbLine
 62
7
  6
CONTINUOUS
 10
3.131770342
 20
3.8396049528
 11
3.061770342
 21
3.8396049528
  0
LINE
  5
6DE
100
AcDbEntity
  8
ADT_PHO
100
AcDbLine
 62
7
  6
CONTINUOUS
 10
3.016770342
 20
3.8396049528
 11
2.946770342
 21
3.8396049528
  0
LINE
  5
6DF
100
AcDbEntity
  8
ADT_PHO
100
AcDbLine
 62
7
  6
CONTINUOUS
 10
2.906770342
 20
3.8396049528
 11
2.836770342
 21
3.8396049528
  0
LINE
  5
6E0
100
AcDbEntity
  8
ADT_PHO
100
AcDbLine
 62
7
  6
CONTINUOUS
 10
4.751770342
 20
3.8396049528
 11
4.951770342
 21
3.8396049528
  0
LINE
  5
6E1
100
AcDbEntity
  8
ADT_PHO
100
AcDbLine
 62
7
  6
CONTINUOUS
 10
2.5573215231
 20
3.8676364489
 11
2.6023215231
 21
3.8676364489
  0
LINE
  5
6E2
100
AcDbEntity
  8
ADT_PHO
100
AcDbLine
 62
7
  6
CONTINUOUS
 10
2.6423215231
 20
3.8676364489
 11
2.6873215231
 21
3.8676364489
  0
LINE
  5
6E3
100
AcDbEntity
  8
ADT_PHO
100
AcDbLine
 62
7
  6
CONTINUOUS
 10
5.396770342
 20
3.8696049528
 11
5.596770342
 21
3.8696049528
  0
LINE
  5
6E4
100
AcDbEntity
  8
ADT_PHO
100
AcDbLine
 62
7
  6
CONTINUOUS
 10
4.951770342
 20
3.8796049528
 11
4.751770342
 21
3.8796049528
  0
LINE
  5
6E5
100
AcDbEntity
  8
ADT_PHO
100
AcDbLine
 62
7
  6
CONTINUOUS
 10
4.986770342
 20
3.8796049528
 11
5.186770342
 21
3.8796049528
  0
LINE
  5
6E6
100
AcDbEntity
  8
ADT_PHO
100
AcDbLine
 62
7
  6
CONTINUOUS
 10
5.656770342
 20
3.8846049528
 11
6.406770342
 21
3.8846049528
  0
LINE
  5
6E7
100
AcDbEntity
  8
ADT_PHO
100
AcDbLine
 62
7
  6
CONTINUOUS
 10
2.6023215231
 20
3.8876364489
 11
2.6423215231
 21
3.8876364489
  0
LINE
  5
6E8
100
AcDbEntity
  8
ADT_PHO
100
AcDbLine
 62
7
  6
CONTINUOUS
 10
4.541770342
 20
3.8996049528
 11
4.461770342
 21
3.8996049528
  0
LINE
  5
6E9
100
AcDbEntity
  8
ART01_PHO
100
AcDbLine
 62
7
  6
CONTINUOUS
 10
6.1249199483
 20
1.3377151891
 11
6.1272034128
 21
1.3314553465
  0
LINE
  5
6EA
100
AcDbEntity
  8
ART01_PHO
100
AcDbLine
 62
7
  6
CONTINUOUS
 10
6.1249199483
 20
1.3689750316
 11
6.1272034128
 21
1.3627151891
  0
LINE
  5
6EB
100
AcDbEntity
  8
ART01_PHO
100
AcDbLine
 62
7
  6
CONTINUOUS
 10
6.1999199483
 20
1.3596049528
 11
6.2022034128
 21
1.3533451103
  0
LINE
  5
6EC
100
AcDbEntity
  8
ART01_PHO
100
AcDbLine
 62
7
  6
CONTINUOUS
 10
5.881770342
 20
1.375195504
 11
5.8999199483
 21
1.3096049528
  0
LINE
  5
6ED
100
AcDbEntity
  8
ART01_PHO
100
AcDbLine
 62
7
  6
CONTINUOUS
 10
5.3908254601
 20
1.375195504
 11
5.4022034128
 21
1.3096049528
  0
LINE
  5
6EE
100
AcDbEntity
  8
ART01_PHO
100
AcDbLine
 62
7
  6
CONTINUOUS
 10
5.4135813656
 20
1.375195504
 11
5.4249199483
 21
1.3096049528
  0
LINE
  5
6EF
100
AcDbEntity
  8
ADT_PHO
100
AcDbLine
 62
7
  6
CONTINUOUS
 10
5.176770342
 20
3.6096049528
 11
5.176770342
 21
3.6796049528
  0
LINE
  5
6F0
100
AcDbEntity
  8
ADT_PHO
100
AcDbLine
 62
7
  6
CONTINUOUS
 10
5.186770342
 20
3.8796049528
 11
5.186770342
 21
3.8096049528
  0
LINE
  5
6F1
100
AcDbEntity
  8
ADT_PHO
100
AcDbLine
 62
7
  6
CONTINUOUS
 10
5.186770342
 20
3.0346049528
 11
5.186770342
 21
3.1046049528
  0
LINE
  5
6F2
100
AcDbEntity
  8
ADT_PHO
100
AcDbLine
 62
7
  6
CONTINUOUS
 10
5.201770342
 20
2.5796049528
 11
5.201770342
 21
2.5096049528
  0
LINE
  5
6F3
100
AcDbEntity
  8
ADT_PHO
100
AcDbLine
 62
7
  6
CONTINUOUS
 10
5.231770342
 20
2.9846049528
 11
5.231770342
 21
2.9146049528
  0
LINE
  5
6F4
100
AcDbEntity
  8
ADT_PHO
100
AcDbLine
 62
7
  6
CONTINUOUS
 10
5.231770342
 20
2.4246049528
 11
5.231770342
 21
2.0446049528
  0
LINE
  5
6F5
100
AcDbEntity
  8
ADT_PHO
100
AcDbLine
 62
7
  6
CONTINUOUS
 10
5.251770342
 20
2.3446049528
 11
5.251770342
 21
2.0446049528
  0
LINE
  5
6F6
100
AcDbEntity
  8
ADT_PHO
100
AcDbLine
 62
7
  6
CONTINUOUS
 10
5.256770342
 20
3.5796049528
 11
5.256770342
 21
3.2396049528
  0
LINE
  5
6F7
100
AcDbEntity
  8
ART01_PHO
100
AcDbLine
 62
7
  6
CONTINUOUS
 10
5.281770342
 20
1.375195504
 11
5.281770342
 21
1.3096049528
  0
LINE
  5
6F8
100
AcDbEntity
  8
ADT_PHO
100
AcDbLine
 62
7
  6
CONTINUOUS
 10
5.296770342
 20
3.2146049528
 11
5.296770342
 21
3.1346049528
  0
LINE
  5
6F9
100
AcDbEntity
  8
ADT_PHO
100
AcDbLine
 62
7
  6
CONTINUOUS
 10
5.296770342
 20
1.6996049528
 11
5.296770342
 21
1.8496049528
  0
LINE
  5
6FA
100
AcDbEntity
  8
ADT_PHO
100
AcDbLine
 62
7
  6
CONTINUOUS
 10
5.296770342
 20
2.7696049528
 11
5.296770342
 21
2.9196049528
  0
LINE
  5
6FB
100
AcDbEntity
  8
ADT_PHO
100
AcDbLine
 62
7
  6
CONTINUOUS
 10
5.296770342
 20
3.5496049528
 11
5.296770342
 21
3.5796049528
  0
LINE
  5
6FC
100
AcDbEntity
  8
ART01_PHO
100
AcDbLine
 62
7
  6
CONTINUOUS
 10
5.301770342
 20
1.5146049528
 11
5.301770342
 21
1.4346049528
  0
LINE
  5
6FD
100
AcDbEntity
  8
ART01_PHO
100
AcDbLine
 62
7
  6
CONTINUOUS
 10
5.3135813656
 20
1.3627151891
 11
5.3135813656
 21
1.3533451103
  0
LINE
  5
6FE
100
AcDbEntity
  8
ART01_PHO
100
AcDbLine
 62
7
  6
CONTINUOUS
 10
5.3340144365
 20
1.350195504
 11
5.3340144365
 21
1.3346049528
  0
LINE
  5
6FF
100
AcDbEntity
  8
ADT_PHO
100
AcDbLine
 62
7
  6
CONTINUOUS
 10
5.346770342
 20
3.5796049528
 11
5.346770342
 21
3.5496049528
  0
LINE
  5
700
100
AcDbEntity
  8
ADT_PHO
100
AcDbLine
 62
7
  6
CONTINUOUS
 10
5.366770342
 20
3.7696049528
 11
5.366770342
 21
3.6996049528
  0
LINE
  5
701
100
AcDbEntity
  8
ADT_PHO
100
AcDbLine
 62
7
  6
CONTINUOUS
 10
5.366770342
 20
2.9196049528
 11
5.366770342
 21
2.7696049528
  0
LINE
  5
702
100
AcDbEntity
  8
ART01_PHO
100
AcDbLine
 62
7
  6
CONTINUOUS
 10
5.3703923892
 20
1.3346049528
 11
5.3703923892
 21
1.350195504
  0
LINE
  5
703
100
AcDbEntity
  8
ADT_PHO
100
AcDbLine
 62
7
  6
CONTINUOUS
 10
5.371770342
 20
2.3446049528
 11
5.371770342
 21
2.0446049528
  0
LINE
  5
704
100
AcDbEntity
  8
ADT_PHO
100
AcDbLine
 62
7
  6
CONTINUOUS
 10
5.376770342
 20
3.6796049528
 11
5.376770342
 21
3.6096049528
  0
LINE
  5
705
100
AcDbEntity
  8
ADT_PHO
100
AcDbLine
 62
7
  6
CONTINUOUS
 10
5.386770342
 20
3.1046049528
 11
5.386770342
 21
3.0346049528
  0
LINE
  5
706
100
AcDbEntity
  8
ADT_PHO
100
AcDbLine
 62
7
  6
CONTINUOUS
 10
5.386770342
 20
3.2396049528
 11
5.386770342
 21
3.5796049528
  0
LINE
  5
707
100
AcDbEntity
  8
ADT_PHO
100
AcDbLine
 62
7
  6
CONTINUOUS
 10
5.391770342
 20
4.2996049528
 11
5.391770342
 21
4.3696049528
  0
LINE
  5
708
100
AcDbEntity
  8
ADT_PHO
100
AcDbLine
 62
7
  6
CONTINUOUS
 10
5.391770342
 20
4.3896049528
 11
5.391770342
 21
4.4596049528
  0
LINE
  5
709
100
AcDbEntity
  8
ADT_PHO
100
AcDbLine
 62
7
  6
CONTINUOUS
 10
5.396770342
 20
3.7996049528
 11
5.396770342
 21
3.8696049528
  0
LINE
  5
70A
100
AcDbEntity
  8
ADT_PHO
100
AcDbLine
 62
7
  6
CONTINUOUS
 10
5.401770342
 20
2.7646049528
 11
5.401770342
 21
2.9646049528
  0
LINE
  5
70B
100
AcDbEntity
  8
ADT_PHO
100
AcDbLine
 62
7
  6
CONTINUOUS
 10
5.416770342
 20
2.0446049528
 11
5.416770342
 21
2.2446049528
  0
LINE
  5
70C
100
AcDbEntity
  8
ADT_PHO
100
AcDbLine
 62
7
  6
CONTINUOUS
 10
5.451770342
 20
1.5246049528
 11
5.451770342
 21
2.0246049528
  0
LINE
  5
70D
100
AcDbEntity
  8
ART01_PHO
100
AcDbLine
 62
7
  6
CONTINUOUS
 10
5.456770342
 20
1.375195504
 11
5.456770342
 21
1.3096049528
  0
LINE
  5
70E
100
AcDbEntity
  8
ADT_PHO
100
AcDbLine
 62
7
  6
CONTINUOUS
 10
5.471770342
 20
2.9646049528
 11
5.471770342
 21
2.7646049528
  0
LINE
  5
70F
100
AcDbEntity
  8
ADT_PHO
100
AcDbLine
 62
7
  6
CONTINUOUS
 10
5.471770342
 20
3.1346049528
 11
5.471770342
 21
3.2146049528
  0
LINE
  5
710
100
AcDbEntity
  8
ADT_PHO
100
AcDbLine
 62
7
  6
CONTINUOUS
 10
5.476770342
 20
3.1346049528
 11
5.476770342
 21
3.2146049528
  0
LINE
  5
711
100
AcDbEntity
  8
ADT_PHO
100
AcDbLine
 62
7
  6
CONTINUOUS
 10
5.481770342
 20
3.1346049528
 11
5.481770342
 21
3.2146049528
  0
LINE
  5
712
100
AcDbEntity
  8
ADT_PHO
100
AcDbLine
 62
7
  6
CONTINUOUS
 10
5.486770342
 20
3.2146049528
 11
5.486770342
 21
3.1346049528
  0
LINE
  5
713
100
AcDbEntity
  8
ADT_PHO
100
AcDbLine
 62
7
  6
CONTINUOUS
 10
5.486770342
 20
2.2446049528
 11
5.486770342
 21
2.0446049528
  0
LINE
  5
714
100
AcDbEntity
  8
ADT_PHO
100
AcDbLine
 62
7
  6
CONTINUOUS
 10
5.491770342
 20
3.2146049528
 11
5.491770342
 21
3.1346049528
  0
LINE
  5
715
100
AcDbEntity
  8
ADT_PHO
100
AcDbLine
 62
7
  6
CONTINUOUS
 10
5.496770342
 20
3.2146049528
 11
5.496770342
 21
3.1346049528
  0
LINE
  5
716
100
AcDbEntity
  8
ART01_PHO
100
AcDbLine
 62
7
  6
CONTINUOUS
 10
5.506770342
 20
1.375195504
 11
5.506770342
 21
1.3096049528
  0
LINE
  5
717
100
AcDbEntity
  8
ADT_PHO
100
AcDbLine
 62
7
  6
CONTINUOUS
 10
5.516770342
 20
2.0446049528
 11
5.516770342
 21
2.2446049528
  0
LINE
  5
718
100
AcDbEntity
  8
ADT_PHO
100
AcDbLine
 62
7
  6
CONTINUOUS
 10
5.526770342
 20
2.8796049528
 11
5.526770342
 21
3.0796049528
  0
LINE
  5
719
100
AcDbEntity
  8
ADT_PHO
100
AcDbLine
 62
7
  6
CONTINUOUS
 10
5.531770342
 20
3.1796049528
 11
5.531770342
 21
3.2496049528
  0
LINE
  5
71A
100
AcDbEntity
  8
ART01_PHO
100
AcDbLine
 62
7
  6
CONTINUOUS
 10
5.5385813656
 20
1.3627151891
 11
5.5385813656
 21
1.3564553465
  0
LINE
  5
71B
100
AcDbEntity
  8
ART01_PHO
100
AcDbLine
 62
7
  6
CONTINUOUS
 10
4.6531089247
 20
1.3189750316
 11
4.6553923892
 21
1.3283451103
  0
LINE
  5
71C
100
AcDbEntity
  8
ART01_PHO
100
AcDbLine
 62
7
  6
CONTINUOUS
 10
4.6031089247
 20
1.375195504
 11
4.5849199483
 21
1.3096049528
  0
LINE
  5
71D
100
AcDbEntity
  8
ART01_PHO
100
AcDbLine
 62
7
  6
CONTINUOUS
 10
4.2335813656
 20
1.3564553465
 11
4.231297901
 21
1.350195504
  0
LINE
  5
71E
100
AcDbEntity
  8
ART01_PHO
100
AcDbLine
 62
7
  6
CONTINUOUS
 10
3.2158254601
 20
1.3189750316
 11
3.211297901
 21
1.3127151891
  0
LINE
  5
71F
100
AcDbEntity
  8
ART01_PHO
100
AcDbLine
 62
7
  6
CONTINUOUS
 10
3.0090144365
 20
1.375195504
 11
2.9772034128
 21
1.3314553465
  0
LINE
  5
720
100
AcDbEntity
  8
ART01_PHO
100
AcDbLine
 62
7
  6
CONTINUOUS
 10
3.1885813656
 20
1.3720852678
 11
3.1840144365
 21
1.3658254253
  0
LINE
  5
721
100
AcDbEntity
  8
ART01_PHO
100
AcDbLine
 62
7
  6
CONTINUOUS
 10
3.2349199483
 20
1.4319277875
 11
3.2383451451
 21
1.4366128268
  0
LINE
  5
722
100
AcDbEntity
  8
ART01_PHO
100
AcDbLine
 62
7
  6
CONTINUOUS
 10
3.476297901
 20
1.4670852678
 11
3.4740144365
 21
1.4639750316
  0
LINE
  5
723
100
AcDbEntity
  8
ART01_PHO
100
AcDbLine
 62
7
  6
CONTINUOUS
 10
1.536770342
 20
1.4777151891
 11
1.541297901
 21
1.4808254253
  0
LINE
  5
724
100
AcDbEntity
  8
ADT_PHO
100
AcDbLine
 62
7
  6
CONTINUOUS
 10
3.381770342
 20
3.9246049528
 11
3.5527545939
 21
3.9246049528
  0
LINE
  5
725
100
AcDbEntity
  8
ADT_PHO
100
AcDbLine
 62
7
  6
CONTINUOUS
 10
4.751770342
 20
3.9496049528
 11
4.951770342
 21
3.9496049528
  0
LINE
  5
726
100
AcDbEntity
  8
ADT_PHO
100
AcDbLine
 62
7
  6
CONTINUOUS
 10
5.576770342
 20
3.9496049528
 11
5.656770342
 21
3.9496049528
  0
LINE
  5
727
100
AcDbEntity
  8
ADT_PHO
100
AcDbLine
 62
7
  6
CONTINUOUS
 10
3.191770342
 20
3.9546049528
 11
3.261770342
 21
3.9546049528
  0
LINE
  5
728
100
AcDbEntity
  8
ADT_PHO
100
AcDbLine
 62
7
  6
CONTINUOUS
 10
1.726770342
 20
3.9646049528
 11
1.796770342
 21
3.9646049528
  0
LINE
  5
729
100
AcDbEntity
  8
ADT_PHO
100
AcDbLine
 62
7
  6
CONTINUOUS
 10
1.536770342
 20
3.9696049528
 11
1.656770342
 21
3.9696049528
  0
LINE
  5
72A
100
AcDbEntity
  8
ADT_PHO
100
AcDbLine
 62
7
  6
CONTINUOUS
 10
4.561770342
 20
3.9846049528
 11
4.631770342
 21
3.9846049528
  0
LINE
  5
72B
100
AcDbEntity
  8
ADT_PHO
100
AcDbLine
 62
7
  6
CONTINUOUS
 10
4.656770342
 20
3.9846049528
 11
4.726770342
 21
3.9846049528
  0
LINE
  5
72C
100
AcDbEntity
  8
ADT_PHO
100
AcDbLine
 62
7
  6
CONTINUOUS
 10
4.951770342
 20
3.9896049528
 11
4.751770342
 21
3.9896049528
  0
LINE
  5
72D
100
AcDbEntity
  8
ADT_PHO
100
AcDbLine
 62
7
  6
CONTINUOUS
 10
5.476770342
 20
4.0196049528
 11
5.661770342
 21
4.0196049528
  0
LINE
  5
72E
100
AcDbEntity
  8
ADT_PHO
100
AcDbLine
 62
7
  6
CONTINUOUS
 10
1.866770342
 20
4.0246049528
 11
1.666770342
 21
4.0246049528
  0
LINE
  5
72F
100
AcDbEntity
  8
ADT_PHO
100
AcDbLine
 62
7
  6
CONTINUOUS
 10
1.631770342
 20
4.0296049528
 11
1.481770342
 21
4.0296049528
  0
LINE
  5
730
100
AcDbEntity
  8
ADT_PHO
100
AcDbLine
 62
7
  6
CONTINUOUS
 10
2.326770342
 20
4.0346049528
 11
2.256770342
 21
4.0346049528
  0
LINE
  5
731
100
AcDbEntity
  8
ADT_PHO
100
AcDbLine
 62
7
  6
CONTINUOUS
 10
2.836770342
 20
4.0396049528
 11
2.906770342
 21
4.0396049528
  0
LINE
  5
732
100
AcDbEntity
  8
ADT_PHO
100
AcDbLine
 62
7
  6
CONTINUOUS
 10
2.946770342
 20
4.0396049528
 11
3.016770342
 21
4.0396049528
  0
LINE
  5
733
100
AcDbEntity
  8
ADT_PHO
100
AcDbLine
 62
7
  6
CONTINUOUS
 10
3.061770342
 20
4.0396049528
 11
3.131770342
 21
4.0396049528
  0
LINE
  5
734
100
AcDbEntity
  8
ADT_PHO
100
AcDbLine
 62
7
  6
CONTINUOUS
 10
4.751770342
 20
4.0596049528
 11
4.951770342
 21
4.0596049528
  0
LINE
  5
735
100
AcDbEntity
  8
ADT_PHO
100
AcDbLine
 62
7
  6
CONTINUOUS
 10
4.726770342
 20
4.0646049528
 11
4.526770342
 21
4.0646049528
  0
LINE
  5
736
100
AcDbEntity
  8
ADT_PHO
100
AcDbLine
 62
7
  6
CONTINUOUS
 10
3.461770342
 20
4.0646049528
 11
3.391770342
 21
4.0646049528
  0
LINE
  5
737
100
AcDbEntity
  8
ADT_PHO
100
AcDbLine
 62
7
  6
CONTINUOUS
 10
5.576770342
 20
4.0846049528
 11
5.656770342
 21
4.0846049528
  0
LINE
  5
738
100
AcDbEntity
  8
ADT_PHO
100
AcDbLine
 62
7
  6
CONTINUOUS
 10
2.6873215231
 20
4.091179756
 11
2.5573215231
 21
4.091179756
  0
LINE
  5
739
100
AcDbEntity
  8
ADT_PHO
100
AcDbLine
 62
7
  6
CONTINUOUS
 10
1.666770342
 20
4.0946049528
 11
1.866770342
 21
4.0946049528
  0
LINE
  5
73A
100
AcDbEntity
  8
ADT_PHO
100
AcDbLine
 62
7
  6
CONTINUOUS
 10
1.481770342
 20
4.0996049528
 11
1.631770342
 21
4.0996049528
  0
LINE
  5
73B
100
AcDbEntity
  8
ADT_PHO
100
AcDbLine
 62
7
  6
CONTINUOUS
 10
2.116770342
 20
4.1246049528
 11
1.986770342
 21
4.1246049528
  0
LINE
  5
73C
100
AcDbEntity
  8
ADT_PHO
100
AcDbLine
 62
7
  6
CONTINUOUS
 10
4.526770342
 20
4.1346049528
 11
4.726770342
 21
4.1346049528
  0
LINE
  5
73D
100
AcDbEntity
  8
ADT_PHO
100
AcDbLine
 62
7
  6
CONTINUOUS
 10
2.781770342
 20
4.1546049528
 11
2.581770342
 21
4.1546049528
  0
LINE
  5
73E
100
AcDbEntity
  8
ADT_PHO
100
AcDbLine
 62
7
  6
CONTINUOUS
 10
5.476770342
 20
4.1546049528
 11
5.656770342
 21
4.1546049528
  0
LINE
  5
73F
100
AcDbEntity
  8
ADT_PHO
100
AcDbLine
 62
7
  6
CONTINUOUS
 10
2.211770342
 20
4.1646049528
 11
2.011770342
 21
4.1646049528
  0
LINE
  5
740
100
AcDbEntity
  8
ADT_PHO
100
AcDbLine
 62
7
  6
CONTINUOUS
 10
4.591770342
 20
4.1746049528
 11
4.521770342
 21
4.1746049528
  0
LINE
  5
741
100
AcDbEntity
  8
ADT_PHO
100
AcDbLine
 62
7
  6
CONTINUOUS
 10
5.576770342
 20
4.2196049528
 11
5.656770342
 21
4.2196049528
  0
LINE
  5
742
100
AcDbEntity
  8
ADT_PHO
100
AcDbLine
 62
7
  6
CONTINUOUS
 10
2.581770342
 20
4.2246049528
 11
2.781770342
 21
4.2246049528
  0
LINE
  5
743
100
AcDbEntity
  8
ADT_PHO
100
AcDbLine
 62
7
  6
CONTINUOUS
 10
2.011770342
 20
4.2346049528
 11
2.211770342
 21
4.2346049528
  0
LINE
  5
744
100
AcDbEntity
  8
ADT_PHO
100
AcDbLine
 62
7
  6
CONTINUOUS
 10
2.256770342
 20
4.2346049528
 11
2.326770342
 21
4.2346049528
  0
LINE
  5
745
100
AcDbEntity
  8
ADT_PHO
100
AcDbLine
 62
7
  6
CONTINUOUS
 10
3.391770342
 20
4.2646049528
 11
3.461770342
 21
4.2646049528
  0
LINE
  5
746
100
AcDbEntity
  8
ADT_PHO
100
AcDbLine
 62
7
  6
CONTINUOUS
 10
5.661770342
 20
4.2846049528
 11
6.406770342
 21
4.2846049528
  0
LINE
  5
747
100
AcDbEntity
  8
ADT_PHO
100
AcDbLine
 62
7
  6
CONTINUOUS
 10
5.591770342
 20
4.2996049528
 11
5.391770342
 21
4.2996049528
  0
LINE
  5
748
100
AcDbEntity
  8
ART01_PHO
100
AcDbLine
 62
7
  6
CONTINUOUS
 10
6.2294868774
 20
1.3346049528
 11
6.231770342
 21
1.3283451103
  0
LINE
  5
749
100
AcDbEntity
  8
ART01_PHO
100
AcDbLine
 62
7
  6
CONTINUOUS
 10
6.3340144365
 20
1.3377151891
 11
6.336297901
 21
1.3314553465
  0
LINE
  5
74A
100
AcDbEntity
  8
ART01_PHO
100
AcDbLine
 62
7
  6
CONTINUOUS
 10
6.3340144365
 20
1.3689750316
 11
6.336297901
 21
1.3627151891
  0
LINE
  5
74B
100
AcDbEntity
  8
ART01_PHO
100
AcDbLine
 62
7
  6
CONTINUOUS
 10
5.9385813656
 20
1.3283451103
 11
5.9408254601
 21
1.3189750316
  0
LINE
  5
74C
100
AcDbEntity
  8
ART01_PHO
100
AcDbLine
 62
7
  6
CONTINUOUS
 10
6.1476758538
 20
1.3283451103
 11
6.1499199483
 21
1.3189750316
  0
LINE
  5
74D
100
AcDbEntity
  8
ADT_PHO
100
AcDbLine
 62
7
  6
CONTINUOUS
 10
5.586770342
 20
2.2446049528
 11
5.586770342
 21
2.0446049528
  0
LINE
  5
74E
100
AcDbEntity
  8
ADT_PHO
100
AcDbLine
 62
7
  6
CONTINUOUS
 10
5.591770342
 20
4.4596049528
 11
5.591770342
 21
4.3896049528
  0
LINE
  5
74F
100
AcDbEntity
  8
ADT_PHO
100
AcDbLine
 62
7
  6
CONTINUOUS
 10
5.591770342
 20
4.3696049528
 11
5.591770342
 21
4.2996049528
  0
LINE
  5
750
100
AcDbEntity
  8
ADT_PHO
100
AcDbLine
 62
7
  6
CONTINUOUS
 10
5.596770342
 20
3.8696049528
 11
5.596770342
 21
3.7996049528
  0
LINE
  5
751
100
AcDbEntity
  8
ADT_PHO
100
AcDbLine
 62
7
  6
CONTINUOUS
 10
5.596770342
 20
3.0796049528
 11
5.596770342
 21
2.8796049528
  0
LINE
  5
752
100
AcDbEntity
  8
ART01_PHO
100
AcDbLine
 62
7
  6
CONTINUOUS
 10
5.611297901
 20
1.375195504
 11
5.611297901
 21
1.3096049528
  0
LINE
  5
753
100
AcDbEntity
  8
ADT_PHO
100
AcDbLine
 62
7
  6
CONTINUOUS
 10
5.611770342
 20
3.2746049528
 11
5.611770342
 21
3.3446049528
  0
LINE
  5
754
100
AcDbEntity
  8
ADT_PHO
100
AcDbLine
 62
7
  6
CONTINUOUS
 10
5.616770342
 20
2.0446049528
 11
5.616770342
 21
2.2446049528
  0
LINE
  5
755
100
AcDbEntity
  8
ADT_PHO
100
AcDbLine
 62
7
  6
CONTINUOUS
 10
5.621770342
 20
1.6996049528
 11
5.621770342
 21
1.8496049528
  0
LINE
  5
756
100
AcDbEntity
  8
ADT_PHO
100
AcDbLine
 62
7
  6
CONTINUOUS
 10
5.621770342
 20
2.9296049528
 11
5.621770342
 21
3.1296049528
  0
LINE
  5
757
100
AcDbEntity
  8
ADT_PHO
100
AcDbLine
 62
7
  6
CONTINUOUS
 10
5.6323215231
 20
3.636179756
 11
5.6323215231
 21
3.4126364489
  0
LINE
  5
758
100
AcDbEntity
  8
ART01_PHO
100
AcDbLine
 62
7
  6
CONTINUOUS
 10
5.6431089247
 20
1.3627151891
 11
5.6431089247
 21
1.3564553465
  0
LINE
  5
759
100
AcDbEntity
  8
ART01_PHO
100
AcDbLine
 62
7
  6
CONTINUOUS
 10
5.6431089247
 20
1.3314553465
 11
5.6431089247
 21
1.3220852678
  0
LINE
  5
75A
100
AcDbEntity
  8
ADT_PHO
100
AcDbLine
 62
7
  6
CONTINUOUS
 10
5.651770342
 20
2.8046049528
 11
5.651770342
 21
2.8546049528
  0
LINE
  5
75B
100
AcDbEntity
  8
ADT_PHO
100
AcDbLine
 62
7
  6
CONTINUOUS
 10
5.656770342
 20
3.7096049528
 11
5.656770342
 21
4.4596049528
  0
LINE
  5
75C
100
AcDbEntity
  8
ADT_PHO
100
AcDbLine
 62
7
  6
CONTINUOUS
 10
5.6773215231
 20
3.4126364489
 11
5.6773215231
 21
3.4326364489
  0
LINE
  5
75D
100
AcDbEntity
  8
ADT_PHO
100
AcDbLine
 62
7
  6
CONTINUOUS
 10
5.686770342
 20
2.2446049528
 11
5.686770342
 21
2.0446049528
  0
LINE
  5
75E
100
AcDbEntity
  8
ADT_PHO
100
AcDbLine
 62
7
  6
CONTINUOUS
 10
5.691770342
 20
3.1296049528
 11
5.691770342
 21
2.9296049528
  0
LINE
  5
75F
100
AcDbEntity
  8
ADT_PHO
100
AcDbLine
 62
7
  6
CONTINUOUS
 10
5.691770342
 20
2.8046049528
 11
5.691770342
 21
2.7596049528
  0
LINE
  5
760
100
AcDbEntity
  8
ADT_PHO
100
AcDbLine
 62
7
  6
CONTINUOUS
 10
5.716770342
 20
3.1546049528
 11
5.716770342
 21
2.9546049528
  0
LINE
  5
761
100
AcDbEntity
  8
ADT_PHO
100
AcDbLine
 62
7
  6
CONTINUOUS
 10
5.716770342
 20
2.0896049528
 11
5.716770342
 21
2.2396049528
  0
LINE
  5
762
100
AcDbEntity
  8
ADT_PHO
100
AcDbLine
 62
7
  6
CONTINUOUS
 10
5.7173215231
 20
3.4326364489
 11
5.7173215231
 21
3.4126364489
  0
LINE
  5
763
100
AcDbEntity
  8
ADT_PHO
100
AcDbLine
 62
7
  6
CONTINUOUS
 10
5.726770342
 20
2.8546049528
 11
5.726770342
 21
2.8996049528
  0
LINE
  5
764
100
AcDbEntity
  8
ADT_PHO
100
AcDbLine
 62
7
  6
CONTINUOUS
 10
5.731770342
 20
3.2496049528
 11
5.731770342
 21
3.1796049528
  0
LINE
  5
765
100
AcDbEntity
  8
ADT_PHO
100
AcDbLine
 62
7
  6
CONTINUOUS
 10
5.761770342
 20
2.8046049528
 11
5.761770342
 21
2.7596049528
  0
LINE
  5
766
100
AcDbEntity
  8
ADT_PHO
100
AcDbLine
 62
7
  6
CONTINUOUS
 10
5.7623215231
 20
3.4126364489
 11
5.7623215231
 21
3.636179756
  0
LINE
  5
767
100
AcDbEntity
  8
ADT_PHO
100
AcDbLine
 62
7
  6
CONTINUOUS
 10
5.771770342
 20
2.3246049528
 11
5.771770342
 21
2.5246049528
  0
LINE
  5
768
100
AcDbEntity
  8
ADT_PHO
100
AcDbLine
 62
7
  6
CONTINUOUS
 10
5.776770342
 20
2.0246049528
 11
5.776770342
 21
1.5246049528
  0
LINE
  5
769
100
AcDbEntity
  8
ADT_PHO
100
AcDbLine
 62
7
  6
CONTINUOUS
 10
5.786770342
 20
2.2396049528
 11
5.786770342
 21
2.0896049528
  0
LINE
  5
76A
100
AcDbEntity
  8
ADT_PHO
100
AcDbLine
 62
7
  6
CONTINUOUS
 10
5.796770342
 20
2.9546049528
 11
5.796770342
 21
3.1546049528
  0
LINE
  5
76B
100
AcDbEntity
  8
ADT_PHO
100
AcDbLine
 62
7
  6
CONTINUOUS
 10
5.801770342
 20
2.8546049528
 11
5.801770342
 21
2.8046049528
  0
LINE
  5
76C
100
AcDbEntity
  8
ADT_PHO
100
AcDbLine
 62
7
  6
CONTINUOUS
 10
5.811770342
 20
3.3446049528
 11
5.811770342
 21
3.2746049528
  0
LINE
  5
76D
100
AcDbEntity
  8
ADT_PHO
100
AcDbLine
 62
7
  6
CONTINUOUS
 10
5.816770342
 20
2.0446049528
 11
5.816770342
 21
2.2446049528
  0
LINE
  5
76E
100
AcDbEntity
  8
ADT_PHO
100
AcDbLine
 62
7
  6
CONTINUOUS
 10
5.826770342
 20
2.7396049528
 11
5.826770342
 21
3.1296049528
  0
LINE
  5
76F
100
AcDbEntity
  8
ADT_PHO
100
AcDbLine
 62
7
  6
CONTINUOUS
 10
5.841770342
 20
2.5246049528
 11
5.841770342
 21
2.3246049528
  0
LINE
  5
770
100
AcDbEntity
  8
ADT_PHO
100
AcDbLine
 62
7
  6
CONTINUOUS
 10
5.851770342
 20
2.5596049528
 11
5.851770342
 21
2.7096049528
  0
LINE
  5
771
100
AcDbEntity
  8
ADT_PHO
100
AcDbLine
 62
7
  6
CONTINUOUS
 10
5.866770342
 20
3.0896049528
 11
5.866770342
 21
2.7396049528
  0
LINE
  5
772
100
AcDbEntity
  8
ART01_PHO
100
AcDbLine
 62
7
  6
CONTINUOUS
 10
5.881770342
 20
1.375195504
 11
5.881770342
 21
1.3096049528
  0
LINE
  5
773
100
AcDbEntity
  8
ADT_PHO
100
AcDbLine
 62
7
  6
CONTINUOUS
 10
5.886770342
 20
2.2446049528
 11
5.886770342
 21
2.0446049528
  0
LINE
  5
774
100
AcDbEntity
  8
ADT_PHO
100
AcDbLine
 62
7
  6
CONTINUOUS
 10
5.886770342
 20
2.3246049528
 11
5.886770342
 21
2.5246049528
  0
LINE
  5
775
100
AcDbEntity
  8
ADT_PHO
100
AcDbLine
 62
7
  6
CONTINUOUS
 10
5.896770342
 20
3.1596049528
 11
5.896770342
 21
3.2696049528
  0
LINE
  5
776
100
AcDbEntity
  8
ADT_PHO
100
AcDbLine
 62
7
  6
CONTINUOUS
 10
5.911770342
 20
2.0446049528
 11
5.911770342
 21
2.2446049528
  0
LINE
  5
777
100
AcDbEntity
  8
ART01_PHO
100
AcDbLine
 62
7
  6
CONTINUOUS
 10
5.9181089247
 20
1.375195504
 11
5.9181089247
 21
1.3096049528
  0
LINE
  5
778
100
AcDbEntity
  8
ADT_PHO
100
AcDbLine
 62
7
  6
CONTINUOUS
 10
5.921770342
 20
2.7096049528
 11
5.921770342
 21
2.5596049528
  0
LINE
  5
779
100
AcDbEntity
  8
ART01_PHO
100
AcDbLine
 62
7
  6
CONTINUOUS
 10
5.4135813656
 20
1.375195504
 11
5.4022034128
 21
1.3096049528
  0
LINE
  5
77A
100
AcDbEntity
  8
ART01_PHO
100
AcDbLine
 62
7
  6
CONTINUOUS
 10
5.436297901
 20
1.375195504
 11
5.4249199483
 21
1.3096049528
  0
LINE
  5
77B
100
AcDbEntity
  8
ART01_PHO
100
AcDbLine
 62
7
  6
CONTINUOUS
 10
4.8622034128
 20
1.3189750316
 11
4.8644868774
 21
1.3283451103
  0
LINE
  5
77C
100
AcDbEntity
  8
ART01_PHO
100
AcDbLine
 62
7
  6
CONTINUOUS
 10
5.0076758538
 20
1.375195504
 11
4.9894868774
 21
1.3096049528
  0
LINE
  5
77D
100
AcDbEntity
  8
ART01_PHO
100
AcDbLine
 62
7
  6
CONTINUOUS
 10
4.8122034128
 20
1.3564553465
 11
4.8099199483
 21
1.350195504
  0
LINE
  5
77E
100
AcDbEntity
  8
ART01_PHO
100
AcDbLine
 62
7
  6
CONTINUOUS
 10
4.8122034128
 20
1.3220852678
 11
4.8099199483
 21
1.3158254253
  0
LINE
  5
77F
100
AcDbEntity
  8
ART01_PHO
100
AcDbLine
 62
7
  6
CONTINUOUS
 10
3.5081089247
 20
1.3720852678
 11
3.5035813656
 21
1.3658254253
  0
LINE
  5
780
100
AcDbEntity
  8
ART01_PHO
100
AcDbLine
 62
7
  6
CONTINUOUS
 10
3.6172034128
 20
1.4920852678
 11
3.6126758538
 21
1.4858254253
  0
LINE
  5
781
100
AcDbEntity
  8
ART01_PHO
100
AcDbLine
 62
7
  6
CONTINUOUS
 10
3.5785813656
 20
1.4327151891
 11
3.5831089247
 21
1.4389750316
  0
LINE
  5
782
100
AcDbEntity
  8
ART01_PHO
100
AcDbLine
 62
7
  6
CONTINUOUS
 10
3.526297901
 20
1.3127151891
 11
3.5308254601
 21
1.3189750316
  0
LINE
  5
783
100
AcDbEntity
  8
ART01_PHO
100
AcDbLine
 62
7
  6
CONTINUOUS
 10
3.6353923892
 20
1.4327151891
 11
3.6399199483
 21
1.4389750316
  0
LINE
  5
784
100
AcDbEntity
  8
ART01_PHO
100
AcDbLine
 62
7
  6
CONTINUOUS
 10
3.5603923892
 20
1.4920852678
 11
3.5558254601
 21
1.4858254253
  0
LINE
  5
785
100
AcDbEntity
  8
ART01_PHO
100
AcDbLine
 62
7
  6
CONTINUOUS
 10
3.5285813656
 20
1.470195504
 11
3.526297901
 21
1.4670852678
  0
LINE
  5
786
100
AcDbEntity
  8
ART01_PHO
100
AcDbLine
 62
7
  6
CONTINUOUS
 10
3.476297901
 20
1.3470852678
 11
3.4740144365
 21
1.3439750316
  0
LINE
  5
787
100
AcDbEntity
  8
ART01_PHO
100
AcDbLine
 62
7
  6
CONTINUOUS
 10
3.5853923892
 20
1.350195504
 11
3.5831089247
 21
1.3470852678
  0
LINE
  5
788
100
AcDbEntity
  8
ART01_PHO
100
AcDbLine
 62
7
  6
CONTINUOUS
 10
1.5753923892
 20
1.4870852678
 11
1.5799199483
 21
1.490195504
  0
LINE
  5
789
100
AcDbEntity
  8
ART01_PHO
100
AcDbLine
 62
7
  6
CONTINUOUS
 10
1.931770342
 20
1.3046049528
 11
1.936297901
 21
1.3077151891
  0
LINE
  5
78A
100
AcDbEntity
  8
ART01_PHO
100
AcDbLine
 62
7
  6
CONTINUOUS
 10
1.9226758538
 20
1.370195504
 11
1.9181089247
 21
1.3670852678
  0
LINE
  5
78B
100
AcDbEntity
  8
ART01_PHO
100
AcDbLine
 62
7
  6
CONTINUOUS
 10
2.1853923892
 20
1.490195504
 11
2.1808254601
 21
1.4870852678
  0
LINE
  5
78C
100
AcDbEntity
  8
ADT_PHO
100
AcDbLine
 62
7
  6
CONTINUOUS
 10
5.391770342
 20
4.3696049528
 11
5.591770342
 21
4.3696049528
  0
LINE
  5
78D
100
AcDbEntity
  8
ADT_PHO
100
AcDbLine
 62
7
  6
CONTINUOUS
 10
4.521770342
 20
4.3746049528
 11
4.591770342
 21
4.3746049528
  0
LINE
  5
78E
100
AcDbEntity
  8
ADT_PHO
100
AcDbLine
 62
7
  6
CONTINUOUS
 10
5.591770342
 20
4.3896049528
 11
5.391770342
 21
4.3896049528
  0
LINE
  5
78F
100
AcDbEntity
  8
ADT_PHO
100
AcDbLine
 62
7
  6
CONTINUOUS
 10
6.406770342
 20
4.4346049528
 11
5.661770342
 21
4.4346049528
  0
LINE
  5
790
100
AcDbEntity
  8
ADT_PHO
100
AcDbLine
 62
7
  6
CONTINUOUS
 10
5.391770342
 20
4.4596049528
 11
5.591770342
 21
4.4596049528
  0
LINE
  5
791
100
AcDbEntity
  8
ADT_PHO
100
AcDbLine
 62
7
  6
CONTINUOUS
 10
5.656770342
 20
4.4596049528
 11
6.406770342
 21
4.4596049528
  0
LINE
  5
792
100
AcDbEntity
  8
ADT_PHO
100
AcDbLine
 62
7
  6
CONTINUOUS
 10
5.076770342
 20
4.4746049528
 11
5.176770342
 21
4.4746049528
  0
LINE
  5
793
100
AcDbEntity
  8
ADT_PHO
100
AcDbLine
 62
7
  6
CONTINUOUS
 10
3.776770342
 20
4.4846049528
 11
3.876770342
 21
4.4846049528
  0
LINE
  5
794
100
AcDbEntity
  8
ADT_PHO
100
AcDbLine
 62
7
  6
CONTINUOUS
 10
6.736770342
 20
4.5196049528
 11
1.236770342
 21
4.5196049528
  0
LINE
  5
795
100
AcDbEntity
  8
ART01_PHO
100
AcDbLine
 62
7
  6
CONTINUOUS
 10
5.9385813656
 20
1.375195504
 11
5.9385813656
 21
1.3283451103
  0
LINE
  5
796
100
AcDbEntity
  8
ADT_PHO
100
AcDbLine
 62
7
  6
CONTINUOUS
 10
5.946770342
 20
1.6996049528
 11
5.946770342
 21
1.8496049528
  0
LINE
  5
797
100
AcDbEntity
  8
ART01_PHO
100
AcDbLine
 62
7
  6
CONTINUOUS
 10
5.951770342
 20
1.5146049528
 11
5.951770342
 21
1.4346049528
  0
LINE
  5
798
100
AcDbEntity
  8
ADT_PHO
100
AcDbLine
 62
7
  6
CONTINUOUS
 10
5.956770342
 20
2.5246049528
 11
5.956770342
 21
2.3246049528
  0
LINE
  5
799
100
AcDbEntity
  8
ADT_PHO
100
AcDbLine
 62
7
  6
CONTINUOUS
 10
5.956770342
 20
2.5846049528
 11
5.956770342
 21
2.7846049528
  0
LINE
  5
79A
100
AcDbEntity
  8
ADT_PHO
100
AcDbLine
 62
7
  6
CONTINUOUS
 10
5.961770342
 20
3.2996049528
 11
5.961770342
 21
3.4496049528
  0
LINE
  5
79B
100
AcDbEntity
  8
ART01_PHO
100
AcDbLine
 62
7
  6
CONTINUOUS
 10
5.9703923892
 20
1.3283451103
 11
5.9703923892
 21
1.375195504
  0
LINE
  5
79C
100
AcDbEntity
  8
ADT_PHO
100
AcDbLine
 62
7
  6
CONTINUOUS
 10
5.981770342
 20
2.2446049528
 11
5.981770342
 21
2.0446049528
  0
LINE
  5
79D
100
AcDbEntity
  8
ADT_PHO
100
AcDbLine
 62
7
  6
CONTINUOUS
 10
5.991770342
 20
2.8996049528
 11
5.991770342
 21
3.0796049528
  0
LINE
  5
79E
100
AcDbEntity
  8
ADT_PHO
100
AcDbLine
 62
7
  6
CONTINUOUS
 10
6.006770342
 20
2.0546049528
 11
6.006770342
 21
2.3046049528
  0
LINE
  5
79F
100
AcDbEntity
  8
ADT_PHO
100
AcDbLine
 62
7
  6
CONTINUOUS
 10
6.011770342
 20
3.4496049528
 11
6.011770342
 21
3.2996049528
  0
LINE
  5
7A0
100
AcDbEntity
  8
ADT_PHO
100
AcDbLine
 62
7
  6
CONTINUOUS
 10
6.026770342
 20
2.7846049528
 11
6.026770342
 21
2.5846049528
  0
LINE
  5
7A1
100
AcDbEntity
  8
ADT_PHO
100
AcDbLine
 62
7
  6
CONTINUOUS
 10
6.056770342
 20
4.2846049528
 11
6.056770342
 21
3.8846049528
  0
LINE
  5
7A2
100
AcDbEntity
  8
ADT_PHO
100
AcDbLine
 62
7
  6
CONTINUOUS
 10
6.061770342
 20
2.3246049528
 11
6.061770342
 21
2.4746049528
  0
LINE
  5
7A3
100
AcDbEntity
  8
ADT_PHO
100
AcDbLine
 62
7
  6
CONTINUOUS
 10
6.061770342
 20
2.5496049528
 11
6.061770342
 21
2.6596049528
  0
LINE
  5
7A4
100
AcDbEntity
  8
ADT_PHO
100
AcDbLine
 62
7
  6
CONTINUOUS
 10
6.081770342
 20
2.6946049528
 11
6.081770342
 21
2.7646049528
  0
LINE
  5
7A5
100
AcDbEntity
  8
ART01_PHO
100
AcDbLine
 62
7
  6
CONTINUOUS
 10
6.0953923892
 20
1.375195504
 11
6.0953923892
 21
1.3096049528
  0
LINE
  5
7A6
100
AcDbEntity
  8
ADT_PHO
100
AcDbLine
 62
7
  6
CONTINUOUS
 10
6.106770342
 20
2.0246049528
 11
6.106770342
 21
1.5246049528
  0
LINE
  5
7A7
100
AcDbEntity
  8
ADT_PHO
100
AcDbLine
 62
7
  6
CONTINUOUS
 10
6.111770342
 20
2.4746049528
 11
6.111770342
 21
2.3246049528
  0
LINE
  5
7A8
100
AcDbEntity
  8
ADT_PHO
100
AcDbLine
 62
7
  6
CONTINUOUS
 10
6.116770342
 20
2.3046049528
 11
6.116770342
 21
2.0546049528
  0
LINE
  5
7A9
100
AcDbEntity
  8
ART01_PHO
100
AcDbLine
 62
7
  6
CONTINUOUS
 10
6.1272034128
 20
1.3627151891
 11
6.1272034128
 21
1.3564553465
  0
LINE
  5
7AA
100
AcDbEntity
  8
ART01_PHO
100
AcDbLine
 62
7
  6
CONTINUOUS
 10
6.1272034128
 20
1.3314553465
 11
6.1272034128
 21
1.3220852678
  0
LINE
  5
7AB
100
AcDbEntity
  8
ADT_PHO
100
AcDbLine
 62
7
  6
CONTINUOUS
 10
6.136770342
 20
2.0546049528
 11
6.136770342
 21
2.2046049528
  0
LINE
  5
7AC
100
AcDbEntity
  8
ADT_PHO
100
AcDbLine
 62
7
  6
CONTINUOUS
 10
6.146770342
 20
3.2696049528
 11
6.146770342
 21
3.1596049528
  0
LINE
  5
7AD
100
AcDbEntity
  8
ART01_PHO
100
AcDbLine
 62
7
  6
CONTINUOUS
 10
6.1476758538
 20
1.375195504
 11
6.1476758538
 21
1.3283451103
  0
LINE
  5
7AE
100
AcDbEntity
  8
ART01_PHO
100
AcDbLine
 62
7
  6
CONTINUOUS
 10
6.1794868774
 20
1.3283451103
 11
6.1794868774
 21
1.375195504
  0
LINE
  5
7AF
100
AcDbEntity
  8
ADT_PHO
100
AcDbLine
 62
7
  6
CONTINUOUS
 10
6.186770342
 20
3.2996049528
 11
6.186770342
 21
3.4096049528
  0
LINE
  5
7B0
100
AcDbEntity
  8
ART01_PHO
100
AcDbLine
 62
7
  6
CONTINUOUS
 10
6.1999199483
 20
1.3658254253
 11
6.1999199483
 21
1.3596049528
  0
LINE
  5
7B1
100
AcDbEntity
  8
ADT_PHO
100
AcDbLine
 62
7
  6
CONTINUOUS
 10
6.206770342
 20
2.2046049528
 11
6.206770342
 21
2.0546049528
  0
LINE
  5
7B2
100
AcDbEntity
  8
ADT_PHO
100
AcDbLine
 62
7
  6
CONTINUOUS
 10
6.231770342
 20
2.7646049528
 11
6.231770342
 21
2.6946049528
  0
LINE
  5
7B3
100
AcDbEntity
  8
ART01_PHO
100
AcDbLine
 62
7
  6
CONTINUOUS
 10
6.231770342
 20
1.3283451103
 11
6.231770342
 21
1.3189750316
  0
LINE
  5
7B4
100
AcDbEntity
  8
ADT_PHO
100
AcDbLine
 62
7
  6
CONTINUOUS
 10
6.231770342
 20
2.0496049528
 11
6.231770342
 21
2.2996049528
  0
LINE
  5
7B5
100
AcDbEntity
  8
ADT_PHO
100
AcDbLine
 62
7
  6
CONTINUOUS
 10
6.261770342
 20
3.4496049528
 11
6.261770342
 21
3.6496049528
  0
LINE
  5
7B6
100
AcDbEntity
  8
ADT_PHO
100
AcDbLine
 62
7
  6
CONTINUOUS
 10
6.271770342
 20
1.6996049528
 11
6.271770342
 21
1.8496049528
  0
LINE
  5
7B7
100
AcDbEntity
  8
ART01_PHO
100
AcDbLine
 62
7
  6
CONTINUOUS
 10
6.3044868774
 20
1.375195504
 11
6.3044868774
 21
1.3096049528
  0
LINE
  5
7B8
100
AcDbEntity
  8
ADT_PHO
100
AcDbLine
 62
7
  6
CONTINUOUS
 10
6.311770342
 20
3.2646049528
 11
6.311770342
 21
3.1646049528
  0
LINE
  5
7B9
100
AcDbEntity
  8
ADT_PHO
100
AcDbLine
 62
7
  6
CONTINUOUS
 10
6.311770342
 20
2.6596049528
 11
6.311770342
 21
2.5496049528
  0
LINE
  5
7BA
100
AcDbEntity
  8
ADT_PHO
100
AcDbLine
 62
7
  6
CONTINUOUS
 10
6.316770342
 20
3.2646049528
 11
6.316770342
 21
3.1646049528
  0
LINE
  5
7BB
100
AcDbEntity
  8
ART01_PHO
100
AcDbLine
 62
7
  6
CONTINUOUS
 10
5.336297901
 20
1.3596049528
 11
5.3340144365
 21
1.350195504
  0
LINE
  5
7BC
100
AcDbEntity
  8
ART01_PHO
100
AcDbLine
 62
7
  6
CONTINUOUS
 10
5.3681089247
 20
1.325195504
 11
5.3703923892
 21
1.3346049528
  0
LINE
  5
7BD
100
AcDbEntity
  8
ART01_PHO
100
AcDbLine
 62
7
  6
CONTINUOUS
 10
5.3135813656
 20
1.3533451103
 11
5.311297901
 21
1.3470852678
  0
LINE
  5
7BE
100
AcDbEntity
  8
ART01_PHO
100
AcDbLine
 62
7
  6
CONTINUOUS
 10
4.7076758538
 20
1.375195504
 11
4.6758254601
 21
1.3096049528
  0
LINE
  5
7BF
100
AcDbEntity
  8
ART01_PHO
100
AcDbLine
 62
7
  6
CONTINUOUS
 10
4.0381089247
 20
1.3720852678
 11
4.0335813656
 21
1.3658254253
  0
LINE
  5
7C0
100
AcDbEntity
  8
ART01_PHO
100
AcDbLine
 62
7
  6
CONTINUOUS
 10
4.056297901
 20
1.3127151891
 11
4.0608254601
 21
1.3189750316
  0
LINE
  5
7C1
100
AcDbEntity
  8
ART01_PHO
100
AcDbLine
 62
7
  6
CONTINUOUS
 10
4.006297901
 20
1.3470852678
 11
4.0040144365
 21
1.3439750316
  0
LINE
  5
7C2
100
AcDbEntity
  8
ART01_PHO
100
AcDbLine
 62
7
  6
CONTINUOUS
 10
4.231297901
 20
1.350195504
 11
4.2290144365
 21
1.3470852678
  0
LINE
  5
7C3
100
AcDbEntity
  8
ART01_PHO
100
AcDbLine
 62
7
  6
CONTINUOUS
 10
2.1944868774
 20
1.4246049528
 11
2.1990144365
 21
1.4277151891
  0
LINE
  5
7C4
100
AcDbEntity
  8
ART01_PHO
100
AcDbLine
 62
7
  6
CONTINUOUS
 10
2.5244868774
 20
1.4246049528
 11
2.5290144365
 21
1.4277151891
  0
LINE
  5
7C5
100
AcDbEntity
  8
ART01_PHO
100
AcDbLine
 62
7
  6
CONTINUOUS
 10
2.5153923892
 20
1.490195504
 11
2.5108254601
 21
1.4870852678
  0
LINE
  5
7C6
100
AcDbEntity
  8
ADT_PHO
100
AcDbLine
 62
7
  6
CONTINUOUS
 10
6.321770342
 20
3.2646049528
 11
6.321770342
 21
3.1646049528
  0
LINE
  5
7C7
100
AcDbEntity
  8
ADT_PHO
100
AcDbLine
 62
7
  6
CONTINUOUS
 10
6.326770342
 20
3.1646049528
 11
6.326770342
 21
3.2646049528
  0
LINE
  5
7C8
100
AcDbEntity
  8
ADT_PHO
100
AcDbLine
 62
7
  6
CONTINUOUS
 10
6.331770342
 20
3.6496049528
 11
6.331770342
 21
3.4496049528
  0
LINE
  5
7C9
100
AcDbEntity
  8
ADT_PHO
100
AcDbLine
 62
7
  6
CONTINUOUS
 10
6.331770342
 20
3.1646049528
 11
6.331770342
 21
3.2646049528
  0
LINE
  5
7CA
100
AcDbEntity
  8
ART01_PHO
100
AcDbLine
 62
7
  6
CONTINUOUS
 10
6.336297901
 20
1.3627151891
 11
6.336297901
 21
1.3564553465
  0
LINE
  5
7CB
100
AcDbEntity
  8
ART01_PHO
100
AcDbLine
 62
7
  6
CONTINUOUS
 10
6.336297901
 20
1.3314553465
 11
6.336297901
 21
1.3220852678
  0
LINE
  5
7CC
100
AcDbEntity
  8
ADT_PHO
100
AcDbLine
 62
7
  6
CONTINUOUS
 10
6.336770342
 20
3.2646049528
 11
6.336770342
 21
3.1646049528
  0
LINE
  5
7CD
100
AcDbEntity
  8
ADT_PHO
100
AcDbLine
 62
7
  6
CONTINUOUS
 10
6.336770342
 20
2.4496049528
 11
6.336770342
 21
2.6996049528
  0
LINE
  5
7CE
100
AcDbEntity
  8
ADT_PHO
100
AcDbLine
 62
7
  6
CONTINUOUS
 10
6.341770342
 20
2.2996049528
 11
6.341770342
 21
2.0496049528
  0
LINE
  5
7CF
100
AcDbEntity
  8
ADT_PHO
100
AcDbLine
 62
7
  6
CONTINUOUS
 10
6.361770342
 20
2.0446049528
 11
6.361770342
 21
2.4246049528
  0
LINE
  5
7D0
100
AcDbEntity
  8
ADT_PHO
100
AcDbLine
 62
7
  6
CONTINUOUS
 10
6.366770342
 20
3.4496049528
 11
6.366770342
 21
3.6496049528
  0
LINE
  5
7D1
100
AcDbEntity
  8
ADT_PHO
100
AcDbLine
 62
7
  6
CONTINUOUS
 10
6.401770342
 20
3.0796049528
 11
6.401770342
 21
2.8996049528
  0
LINE
  5
7D2
100
AcDbEntity
  8
ADT_PHO
100
AcDbLine
 62
7
  6
CONTINUOUS
 10
6.406770342
 20
4.4596049528
 11
6.406770342
 21
3.7096049528
  0
LINE
  5
7D3
100
AcDbEntity
  8
ADT_PHO
100
AcDbLine
 62
7
  6
CONTINUOUS
 10
6.436770342
 20
3.6496049528
 11
6.436770342
 21
3.4496049528
  0
LINE
  5
7D4
100
AcDbEntity
  8
ADT_PHO
100
AcDbLine
 62
7
  6
CONTINUOUS
 10
6.436770342
 20
3.4096049528
 11
6.436770342
 21
3.2996049528
  0
LINE
  5
7D5
100
AcDbEntity
  8
ADT_PHO
100
AcDbLine
 62
7
  6
CONTINUOUS
 10
6.446770342
 20
2.6996049528
 11
6.446770342
 21
2.4496049528
  0
LINE
  5
7D6
100
AcDbEntity
  8
ADT_PHO
100
AcDbLine
 62
7
  6
CONTINUOUS
 10
6.471770342
 20
2.0246049528
 11
6.471770342
 21
1.5246049528
  0
LINE
  5
7D7
100
AcDbEntity
  8
ADT_PHO
100
AcDbLine
 62
7
  6
CONTINUOUS
 10
6.476770342
 20
3.5896049528
 11
6.476770342
 21
3.3396049528
  0
LINE
  5
7D8
100
AcDbEntity
  8
ADT_PHO
100
AcDbLine
 62
7
  6
CONTINUOUS
 10
6.476770342
 20
2.6996049528
 11
6.476770342
 21
2.4496049528
  0
LINE
  5
7D9
100
AcDbEntity
  8
ADT_PHO
100
AcDbLine
 62
7
  6
CONTINUOUS
 10
6.526770342
 20
2.7396049528
 11
6.526770342
 21
3.0896049528
  0
LINE
  5
7DA
100
AcDbEntity
  8
ADT_PHO
100
AcDbLine
 62
7
  6
CONTINUOUS
 10
6.561770342
 20
3.1646049528
 11
6.561770342
 21
3.2646049528
  0
LINE
  5
7DB
100
AcDbEntity
  8
ADT_PHO
100
AcDbLine
 62
7
  6
CONTINUOUS
 10
6.566770342
 20
3.1296049528
 11
6.566770342
 21
2.7396049528
  0
LINE
  5
7DC
100
AcDbEntity
  8
ADT_PHO
100
AcDbLine
 62
7
  6
CONTINUOUS
 10
6.576770342
 20
2.4496049528
 11
6.576770342
 21
2.6996049528
  0
LINE
  5
7DD
100
AcDbEntity
  8
ADT_PHO
100
AcDbLine
 62
7
  6
CONTINUOUS
 10
6.576770342
 20
3.3396049528
 11
6.576770342
 21
3.5896049528
  0
LINE
  5
7DE
100
AcDbEntity
  8
ADT_PHO
100
AcDbLine
 62
7
  6
CONTINUOUS
 10
6.581770342
 20
2.4246049528
 11
6.581770342
 21
2.0446049528
  0
LINE
  5
7DF
100
AcDbEntity
  8
ART01_PHO
100
AcDbLine
 62
7
  6
CONTINUOUS
 10
5.9681089247
 20
1.3189750316
 11
5.9703923892
 21
1.3283451103
  0
LINE
  5
7E0
100
AcDbEntity
  8
ART01_PHO
100
AcDbLine
 62
7
  6
CONTINUOUS
 10
5.9181089247
 20
1.375195504
 11
5.8999199483
 21
1.3096049528
  0
LINE
  5
7E1
100
AcDbEntity
  8
ART01_PHO
100
AcDbLine
 62
7
  6
CONTINUOUS
 10
5.5385813656
 20
1.3564553465
 11
5.536297901
 21
1.350195504
  0
LINE
  5
7E2
100
AcDbEntity
  8
ART01_PHO
100
AcDbLine
 62
7
  6
CONTINUOUS
 10
5.6431089247
 20
1.3564553465
 11
5.6408254601
 21
1.350195504
  0
LINE
  5
7E3
100
AcDbEntity
  8
ART01_PHO
100
AcDbLine
 62
7
  6
CONTINUOUS
 10
5.6431089247
 20
1.3220852678
 11
5.6408254601
 21
1.3158254253
  0
LINE
  5
7E4
100
AcDbEntity
  8
ART01_PHO
100
AcDbLine
 62
7
  6
CONTINUOUS
 10
5.3385813656
 20
1.3658254253
 11
5.336297901
 21
1.3596049528
  0
LINE
  5
7E5
100
AcDbEntity
  8
ART01_PHO
100
AcDbLine
 62
7
  6
CONTINUOUS
 10
5.3658254601
 20
1.3189750316
 11
5.3681089247
 21
1.325195504
  0
LINE
  5
7E6
100
AcDbEntity
  8
ART01_PHO
100
AcDbLine
 62
7
  6
CONTINUOUS
 10
4.8099199483
 20
1.350195504
 11
4.8076758538
 21
1.3470852678
  0
LINE
  5
7E7
100
AcDbEntity
  8
ART01_PHO
100
AcDbLine
 62
7
  6
CONTINUOUS
 10
4.8099199483
 20
1.3158254253
 11
4.8076758538
 21
1.3127151891
  0
LINE
  5
7E8
100
AcDbEntity
  8
ART01_PHO
100
AcDbLine
 62
7
  6
CONTINUOUS
 10
4.6485813656
 20
1.3127151891
 11
4.6531089247
 21
1.3189750316
  0
LINE
  5
7E9
100
AcDbEntity
  8
ART01_PHO
100
AcDbLine
 62
7
  6
CONTINUOUS
 10
4.8576758538
 20
1.3127151891
 11
4.8622034128
 21
1.3189750316
  0
LINE
  5
7EA
100
AcDbEntity
  8
ART01_PHO
100
AcDbLine
 62
7
  6
CONTINUOUS
 10
3.5649199483
 20
1.495195504
 11
3.5603923892
 21
1.4920852678
  0
LINE
  5
7EB
100
AcDbEntity
  8
ADT_PHO
100
AcDbLine
 62
7
  6
CONTINUOUS
 10
6.736770342
 20
1.2696049528
 11
6.736770342
 21
4.5196049528
  0
LINE
  5
7EC
100
AcDbEntity
  8
ART01_PHO
100
AcDbLine
 62
7
  6
CONTINUOUS
 10
6.1772034128
 20
1.3189750316
 11
6.1794868774
 21
1.3283451103
  0
LINE
  5
7ED
100
AcDbEntity
  8
ART01_PHO
100
AcDbLine
 62
7
  6
CONTINUOUS
 10
6.1272034128
 20
1.3564553465
 11
6.1249199483
 21
1.350195504
  0
LINE
  5
7EE
100
AcDbEntity
  8
ART01_PHO
100
AcDbLine
 62
7
  6
CONTINUOUS
 10
5.3431089247
 20
1.3720852678
 11
5.3385813656
 21
1.3658254253
  0
LINE
  5
7EF
100
AcDbEntity
  8
ART01_PHO
100
AcDbLine
 62
7
  6
CONTINUOUS
 10
4.8894868774
 20
1.3720852678
 11
4.8849199483
 21
1.3658254253
  0
LINE
  5
7F0
100
AcDbEntity
  8
ART01_PHO
100
AcDbLine
 62
7
  6
CONTINUOUS
 10
4.916770342
 20
1.3189750316
 11
4.9122034128
 21
1.3127151891
  0
LINE
  5
7F1
100
AcDbEntity
  8
ART01_PHO
100
AcDbLine
 62
7
  6
CONTINUOUS
 10
5.311297901
 20
1.3470852678
 11
5.3090144365
 21
1.3439750316
  0
LINE
  5
7F2
100
AcDbEntity
  8
ART01_PHO
100
AcDbLine
 62
7
  6
CONTINUOUS
 10
3.521770342
 20
1.3096049528
 11
3.526297901
 21
1.3127151891
  0
LINE
  5
7F3
100
AcDbEntity
  8
ART01_PHO
100
AcDbLine
 62
7
  6
CONTINUOUS
 10
3.621770342
 20
1.495195504
 11
3.6172034128
 21
1.4920852678
  0
LINE
  5
7F4
100
AcDbEntity
  8
ART01_PHO
100
AcDbLine
 62
7
  6
CONTINUOUS
 10
3.5740144365
 20
1.4296049528
 11
3.5785813656
 21
1.4327151891
  0
LINE
  5
7F5
100
AcDbEntity
  8
ART01_PHO
100
AcDbLine
 62
7
  6
CONTINUOUS
 10
3.5126758538
 20
1.375195504
 11
3.5081089247
 21
1.3720852678
  0
LINE
  5
7F6
100
AcDbEntity
  8
ART01_PHO
100
AcDbLine
 62
7
  6
CONTINUOUS
 10
3.6308254601
 20
1.4296049528
 11
3.6353923892
 21
1.4327151891
  0
LINE
  5
7F7
100
AcDbEntity
  8
ART01_PHO
100
AcDbLine
 62
7
  6
CONTINUOUS
 10
4.0426758538
 20
1.375195504
 11
4.0381089247
 21
1.3720852678
  0
LINE
  5
7F8
100
AcDbEntity
  8
ART01_PHO
100
AcDbLine
 62
7
  6
CONTINUOUS
 10
2.246770342
 20
1.4246049528
 11
2.2535813656
 21
1.4277151891
  0
LINE
  5
7F9
100
AcDbEntity
  8
ART01_PHO
100
AcDbLine
 62
7
  6
CONTINUOUS
 10
2.1999199483
 20
1.3420852678
 11
2.1931089247
 21
1.3389750316
  0
LINE
  5
7FA
100
AcDbEntity
  8
ART01_PHO
100
AcDbLine
 62
7
  6
CONTINUOUS
 10
2.2885813656
 20
1.370195504
 11
2.281770342
 21
1.3670852678
  0
LINE
  5
7FB
100
AcDbEntity
  8
ART01_PHO
100
AcDbLine
 62
7
  6
CONTINUOUS
 10
2.1999199483
 20
1.3077151891
 11
2.1931089247
 21
1.3046049528
  0
LINE
  5
7FC
100
AcDbEntity
  8
ART01_PHO
100
AcDbLine
 62
7
  6
CONTINUOUS
 10
2.2431089247
 20
1.3046049528
 11
2.2499199483
 21
1.3077151891
  0
LINE
  5
7FD
100
AcDbEntity
  8
ART01_PHO
100
AcDbLine
 62
7
  6
CONTINUOUS
 10
2.3044868774
 20
1.3077151891
 11
2.2976758538
 21
1.3046049528
  0
LINE
  5
7FE
100
AcDbEntity
  8
ART01_PHO
100
AcDbLine
 62
7
  6
CONTINUOUS
 10
2.631297901
 20
1.4277151891
 11
2.6244868774
 21
1.4246049528
  0
LINE
  5
7FF
100
AcDbEntity
  8
ART01_PHO
100
AcDbLine
 62
7
  6
CONTINUOUS
 10
2.9094868774
 20
1.4670852678
 11
2.9026758538
 21
1.4639750316
  0
LINE
  5
800
100
AcDbEntity
  8
ART01_PHO
100
AcDbLine
 62
7
  6
CONTINUOUS
 10
6.1272034128
 20
1.3220852678
 11
6.1249199483
 21
1.3158254253
  0
LINE
  5
801
100
AcDbEntity
  8
ART01_PHO
100
AcDbLine
 62
7
  6
CONTINUOUS
 10
6.336297901
 20
1.3564553465
 11
6.3340144365
 21
1.350195504
  0
LINE
  5
802
100
AcDbEntity
  8
ART01_PHO
100
AcDbLine
 62
7
  6
CONTINUOUS
 10
6.336297901
 20
1.3220852678
 11
6.3340144365
 21
1.3158254253
  0
LINE
  5
803
100
AcDbEntity
  8
ART01_PHO
100
AcDbLine
 62
7
  6
CONTINUOUS
 10
6.0226758538
 20
1.375195504
 11
5.9908254601
 21
1.3096049528
  0
LINE
  5
804
100
AcDbEntity
  8
ART01_PHO
100
AcDbLine
 62
7
  6
CONTINUOUS
 10
5.6408254601
 20
1.350195504
 11
5.6385813656
 21
1.3470852678
  0
LINE
  5
805
100
AcDbEntity
  8
ART01_PHO
100
AcDbLine
 62
7
  6
CONTINUOUS
 10
5.6408254601
 20
1.3158254253
 11
5.6385813656
 21
1.3127151891
  0
LINE
  5
806
100
AcDbEntity
  8
ART01_PHO
100
AcDbLine
 62
7
  6
CONTINUOUS
 10
5.361297901
 20
1.3127151891
 11
5.3658254601
 21
1.3189750316
  0
LINE
  5
807
100
AcDbEntity
  8
ART01_PHO
100
AcDbLine
 62
7
  6
CONTINUOUS
 10
5.536297901
 20
1.350195504
 11
5.5340144365
 21
1.3470852678
  0
LINE
  5
808
100
AcDbEntity
  8
ART01_PHO
100
AcDbLine
 62
7
  6
CONTINUOUS
 10
4.051770342
 20
1.3096049528
 11
4.056297901
 21
1.3127151891
  0
LINE
  5
809
100
AcDbEntity
  8
ART01_PHO
100
AcDbLine
 62
7
  6
CONTINUOUS
 10
3.4740144365
 20
1.4639750316
 11
3.4672034128
 21
1.4608254253
  0
LINE
  5
80A
100
AcDbEntity
  8
ART01_PHO
100
AcDbLine
 62
7
  6
CONTINUOUS
 10
3.4740144365
 20
1.3439750316
 11
3.4672034128
 21
1.3408254253
  0
LINE
  5
80B
100
AcDbEntity
  8
ART01_PHO
100
AcDbLine
 62
7
  6
CONTINUOUS
 10
3.1953923892
 20
1.375195504
 11
3.1885813656
 21
1.3720852678
  0
LINE
  5
80C
100
AcDbEntity
  8
ART01_PHO
100
AcDbLine
 62
7
  6
CONTINUOUS
 10
3.526297901
 20
1.4670852678
 11
3.5194868774
 21
1.4639750316
  0
LINE
  5
80D
100
AcDbEntity
  8
ART01_PHO
100
AcDbLine
 62
7
  6
CONTINUOUS
 10
3.211297901
 20
1.3127151891
 11
3.2044868774
 21
1.3096049528
  0
LINE
  5
80E
100
AcDbEntity
  8
ART01_PHO
100
AcDbLine
 62
7
  6
CONTINUOUS
 10
3.5831089247
 20
1.3470852678
 11
3.576297901
 21
1.3439750316
  0
LINE
  5
80F
100
AcDbEntity
  8
ART01_PHO
100
AcDbLine
 62
7
  6
CONTINUOUS
 10
3.229801838
 20
1.4296049528
 11
3.2349199483
 21
1.4319277875
  0
LINE
  5
810
100
AcDbEntity
  8
ART01_PHO
100
AcDbLine
 62
7
  6
CONTINUOUS
 10
6.1249199483
 20
1.350195504
 11
6.1226758538
 21
1.3470852678
  0
LINE
  5
811
100
AcDbEntity
  8
ART01_PHO
100
AcDbLine
 62
7
  6
CONTINUOUS
 10
6.1249199483
 20
1.3158254253
 11
6.1226758538
 21
1.3127151891
  0
LINE
  5
812
100
AcDbEntity
  8
ART01_PHO
100
AcDbLine
 62
7
  6
CONTINUOUS
 10
5.9635813656
 20
1.3127151891
 11
5.9681089247
 21
1.3189750316
  0
LINE
  5
813
100
AcDbEntity
  8
ART01_PHO
100
AcDbLine
 62
7
  6
CONTINUOUS
 10
6.1726758538
 20
1.3127151891
 11
6.1772034128
 21
1.3189750316
  0
LINE
  5
814
100
AcDbEntity
  8
ART01_PHO
100
AcDbLine
 62
7
  6
CONTINUOUS
 10
6.2044868774
 20
1.3720852678
 11
6.1999199483
 21
1.3658254253
  0
LINE
  5
815
100
AcDbEntity
  8
ART01_PHO
100
AcDbLine
 62
7
  6
CONTINUOUS
 10
6.231770342
 20
1.3189750316
 11
6.2272034128
 21
1.3127151891
  0
LINE
  5
816
100
AcDbEntity
  8
ART01_PHO
100
AcDbLine
 62
7
  6
CONTINUOUS
 10
5.356770342
 20
1.3096049528
 11
5.361297901
 21
1.3127151891
  0
LINE
  5
817
100
AcDbEntity
  8
ART01_PHO
100
AcDbLine
 62
7
  6
CONTINUOUS
 10
5.3476758538
 20
1.375195504
 11
5.3431089247
 21
1.3720852678
  0
LINE
  5
818
100
AcDbEntity
  8
ART01_PHO
100
AcDbLine
 62
7
  6
CONTINUOUS
 10
4.0040144365
 20
1.3439750316
 11
3.9972034128
 21
1.3408254253
  0
LINE
  5
819
100
AcDbEntity
  8
ART01_PHO
100
AcDbLine
 62
7
  6
CONTINUOUS
 10
4.2290144365
 20
1.3470852678
 11
4.2222034128
 21
1.3439750316
  0
LINE
  5
81A
100
AcDbEntity
  8
ART01_PHO
100
AcDbLine
 62
7
  6
CONTINUOUS
 10
4.641770342
 20
1.3096049528
 11
4.6485813656
 21
1.3127151891
  0
LINE
  5
81B
100
AcDbEntity
  8
ART01_PHO
100
AcDbLine
 62
7
  6
CONTINUOUS
 10
6.3340144365
 20
1.350195504
 11
6.331770342
 21
1.3470852678
  0
LINE
  5
81C
100
AcDbEntity
  8
ART01_PHO
100
AcDbLine
 62
7
  6
CONTINUOUS
 10
6.3340144365
 20
1.3158254253
 11
6.331770342
 21
1.3127151891
  0
LINE
  5
81D
100
AcDbEntity
  8
ART01_PHO
100
AcDbLine
 62
7
  6
CONTINUOUS
 10
5.3090144365
 20
1.3439750316
 11
5.3022034128
 21
1.3408254253
  0
LINE
  5
81E
100
AcDbEntity
  8
ART01_PHO
100
AcDbLine
 62
7
  6
CONTINUOUS
 10
4.896297901
 20
1.375195504
 11
4.8894868774
 21
1.3720852678
  0
LINE
  5
81F
100
AcDbEntity
  8
ART01_PHO
100
AcDbLine
 62
7
  6
CONTINUOUS
 10
4.9122034128
 20
1.3127151891
 11
4.9053923892
 21
1.3096049528
  0
LINE
  5
820
100
AcDbEntity
  8
ART01_PHO
100
AcDbLine
 62
7
  6
CONTINUOUS
 10
5.5340144365
 20
1.3470852678
 11
5.5272034128
 21
1.3439750316
  0
LINE
  5
821
100
AcDbEntity
  8
ART01_PHO
100
AcDbLine
 62
7
  6
CONTINUOUS
 10
5.6385813656
 20
1.3470852678
 11
5.631770342
 21
1.3439750316
  0
LINE
  5
822
100
AcDbEntity
  8
ART01_PHO
100
AcDbLine
 62
7
  6
CONTINUOUS
 10
5.6385813656
 20
1.3127151891
 11
5.631770342
 21
1.3096049528
  0
LINE
  5
823
100
AcDbEntity
  8
ART01_PHO
100
AcDbLine
 62
7
  6
CONTINUOUS
 10
4.8076758538
 20
1.3470852678
 11
4.8008254601
 21
1.3439750316
  0
LINE
  5
824
100
AcDbEntity
  8
ART01_PHO
100
AcDbLine
 62
7
  6
CONTINUOUS
 10
4.8076758538
 20
1.3127151891
 11
4.8008254601
 21
1.3096049528
  0
LINE
  5
825
100
AcDbEntity
  8
ART01_PHO
100
AcDbLine
 62
7
  6
CONTINUOUS
 10
4.8508254601
 20
1.3096049528
 11
4.8576758538
 21
1.3127151891
  0
LINE
  5
826
100
AcDbEntity
  8
ART01_PHO
100
AcDbLine
 62
7
  6
CONTINUOUS
 10
5.956770342
 20
1.3096049528
 11
5.9635813656
 21
1.3127151891
  0
LINE
  5
827
100
AcDbEntity
  8
ART01_PHO
100
AcDbLine
 62
7
  6
CONTINUOUS
 10
6.211297901
 20
1.375195504
 11
6.2044868774
 21
1.3720852678
  0
LINE
  5
828
100
AcDbEntity
  8
ART01_PHO
100
AcDbLine
 62
7
  6
CONTINUOUS
 10
6.2272034128
 20
1.3127151891
 11
6.2203923892
 21
1.3096049528
  0
LINE
  5
829
100
AcDbEntity
  8
ART01_PHO
100
AcDbLine
 62
7
  6
CONTINUOUS
 10
6.1226758538
 20
1.3470852678
 11
6.1158254601
 21
1.3439750316
  0
LINE
  5
82A
100
AcDbEntity
  8
ART01_PHO
100
AcDbLine
 62
7
  6
CONTINUOUS
 10
6.1226758538
 20
1.3127151891
 11
6.1158254601
 21
1.3096049528
  0
LINE
  5
82B
100
AcDbEntity
  8
ART01_PHO
100
AcDbLine
 62
7
  6
CONTINUOUS
 10
6.1658254601
 20
1.3096049528
 11
6.1726758538
 21
1.3127151891
  0
LINE
  5
82C
100
AcDbEntity
  8
ART01_PHO
100
AcDbLine
 62
7
  6
CONTINUOUS
 10
6.331770342
 20
1.3470852678
 11
6.3249199483
 21
1.3439750316
  0
LINE
  5
82D
100
AcDbEntity
  8
ART01_PHO
100
AcDbLine
 62
7
  6
CONTINUOUS
 10
6.331770342
 20
1.3127151891
 11
6.3249199483
 21
1.3096049528
  0
CIRCLE
  5
82E
100
AcDbEntity
  8
ADT_PHO
100
AcDbCircle
 62
7
  6
CONTINUOUS
 10
2.561770342
 20
1.7696049528
 40
0.075
  0
CIRCLE
  5
82F
100
AcDbEntity
  8
ADT_PHO
100
AcDbCircle
 62
7
  6
CONTINUOUS
 10
2.236770342
 20
1.7696049528
 40
0.075
  0
CIRCLE
  5
830
100
AcDbEntity
  8
ADT_PHO
100
AcDbCircle
 62
7
  6
CONTINUOUS
 10
1.911770342
 20
1.7696049528
 40
0.075
  0
CIRCLE
  5
831
100
AcDbEntity
  8
ADT_PHO
100
AcDbCircle
 62
7
  6
CONTINUOUS
 10
1.586770342
 20
1.7696049528
 40
0.075
  0
CIRCLE
  5
832
100
AcDbEntity
  8
DFP0102_DRL
100
AcDbCircle
 62
7
  6
CONTINUOUS
 10
1.586770342
 20
1.6196049528
 40
0.0375
  0
CIRCLE
  5
833
100
AcDbEntity
  8
DFP0102_DRL
100
AcDbCircle
 62
7
  6
CONTINUOUS
 10
1.911770342
 20
1.6196049528
 40
0.0375
  0
CIRCLE
  5
834
100
AcDbEntity
  8
DFP0102_DRL
100
AcDbCircle
 62
7
  6
CONTINUOUS
 10
2.236770342
 20
1.6196049528
 40
0.0375
  0
CIRCLE
  5
835
100
AcDbEntity
  8
DFP0102_DRL
100
AcDbCircle
 62
7
  6
CONTINUOUS
 10
2.561770342
 20
1.6196049528
 40
0.0375
  0
CIRCLE
  5
836
100
AcDbEntity
  8
DFP0102_DRL
100
AcDbCircle
 62
7
  6
CONTINUOUS
 10
1.756770342
 20
2.1296049528
 40
0.0205
  0
CIRCLE
  5
837
100
AcDbEntity
  8
DFP0102_DRL
100
AcDbCircle
 62
7
  6
CONTINUOUS
 10
2.006770342
 20
2.1296049528
 40
0.0205
  0
CIRCLE
  5
838
100
AcDbEntity
  8
DFP0102_DRL
100
AcDbCircle
 62
7
  6
CONTINUOUS
 10
2.256770342
 20
2.1296049528
 40
0.0205
  0
CIRCLE
  5
839
100
AcDbEntity
  8
DFP0102_DRL
100
AcDbCircle
 62
7
  6
CONTINUOUS
 10
2.576770342
 20
2.0996049528
 40
0.01
  0
CIRCLE
  5
83A
100
AcDbEntity
  8
DFP0102_DRL
100
AcDbCircle
 62
7
  6
CONTINUOUS
 10
2.176770342
 20
2.6346049528
 40
0.023
  0
CIRCLE
  5
83B
100
AcDbEntity
  8
DFP0102_DRL
100
AcDbCircle
 62
7
  6
CONTINUOUS
 10
2.276770342
 20
2.6346049528
 40
0.023
  0
CIRCLE
  5
83C
100
AcDbEntity
  8
DFP0102_DRL
100
AcDbCircle
 62
7
  6
CONTINUOUS
 10
2.006770342
 20
2.3296049528
 40
0.0205
  0
CIRCLE
  5
83D
100
AcDbEntity
  8
DFP0102_DRL
100
AcDbCircle
 62
7
  6
CONTINUOUS
 10
1.756770342
 20
2.3296049528
 40
0.0205
  0
CIRCLE
  5
83E
100
AcDbEntity
  8
DFP0102_DRL
100
AcDbCircle
 62
7
  6
CONTINUOUS
 10
2.256770342
 20
2.3296049528
 40
0.0205
  0
CIRCLE
  5
83F
100
AcDbEntity
  8
DFP0102_DRL
100
AcDbCircle
 62
7
  6
CONTINUOUS
 10
1.711770342
 20
2.9046049528
 40
0.01
  0
CIRCLE
  5
840
100
AcDbEntity
  8
DFP0102_DRL
100
AcDbCircle
 62
7
  6
CONTINUOUS
 10
1.991770342
 20
2.7846049528
 40
0.01
  0
CIRCLE
  5
841
100
AcDbEntity
  8
DFP0102_DRL
100
AcDbCircle
 62
7
  6
CONTINUOUS
 10
1.861770342
 20
2.5546049528
 40
0.009
  0
CIRCLE
  5
842
100
AcDbEntity
  8
DFP0102_DRL
100
AcDbCircle
 62
7
  6
CONTINUOUS
 10
1.976770342
 20
2.5546049528
 40
0.009
  0
CIRCLE
  5
843
100
AcDbEntity
  8
DFP0102_DRL
100
AcDbCircle
 62
7
  6
CONTINUOUS
 10
1.491770342
 20
2.6896049528
 40
0.009
  0
CIRCLE
  5
844
100
AcDbEntity
  8
DFP0102_DRL
100
AcDbCircle
 62
7
  6
CONTINUOUS
 10
2.441770342
 20
2.3996049528
 40
0.009
  0
CIRCLE
  5
845
100
AcDbEntity
  8
DFP0102_DRL
100
AcDbCircle
 62
7
  6
CONTINUOUS
 10
2.441770342
 20
2.2796049528
 40
0.009
  0
CIRCLE
  5
846
100
AcDbEntity
  8
ADT_PHO
100
AcDbCircle
 62
7
  6
CONTINUOUS
 10
2.886770342
 20
1.7696049528
 40
0.075
  0
CIRCLE
  5
847
100
AcDbEntity
  8
DFP0102_DRL
100
AcDbCircle
 62
7
  6
CONTINUOUS
 10
2.886770342
 20
1.6196049528
 40
0.0375
  0
CIRCLE
  5
848
100
AcDbEntity
  8
DFP0102_DRL
100
AcDbCircle
 62
7
  6
CONTINUOUS
 10
3.266770342
 20
1.5596049528
 40
0.023
  0
CIRCLE
  5
849
100
AcDbEntity
  8
DFP0102_DRL
100
AcDbCircle
 62
7
  6
CONTINUOUS
 10
3.166770342
 20
1.5596049528
 40
0.023
  0
CIRCLE
  5
84A
100
AcDbEntity
  8
DFP0102_DRL
100
AcDbCircle
 62
7
  6
CONTINUOUS
 10
3.221770342
 20
1.9246049528
 40
0.0205
  0
CIRCLE
  5
84B
100
AcDbEntity
  8
DFP0102_DRL
100
AcDbCircle
 62
7
  6
CONTINUOUS
 10
3.221770342
 20
1.7246049528
 40
0.0205
  0
CIRCLE
  5
84C
100
AcDbEntity
  8
DFP0102_DRL
100
AcDbCircle
 62
7
  6
CONTINUOUS
 10
3.396770342
 20
1.6396049528
 40
0.0205
  0
CIRCLE
  5
84D
100
AcDbEntity
  8
DFP0102_DRL
100
AcDbCircle
 62
7
  6
CONTINUOUS
 10
3.696770342
 20
1.6396049528
 40
0.0205
  0
CIRCLE
  5
84E
100
AcDbEntity
  8
DFP0102_DRL
100
AcDbCircle
 62
7
  6
CONTINUOUS
 10
3.596770342
 20
1.6396049528
 40
0.0205
  0
CIRCLE
  5
84F
100
AcDbEntity
  8
DFP0102_DRL
100
AcDbCircle
 62
7
  6
CONTINUOUS
 10
3.496770342
 20
1.6396049528
 40
0.0205
  0
CIRCLE
  5
850
100
AcDbEntity
  8
DFP0102_DRL
100
AcDbCircle
 62
7
  6
CONTINUOUS
 10
3.896770342
 20
2.1346049528
 40
0.0205
  0
CIRCLE
  5
851
100
AcDbEntity
  8
DFP0102_DRL
100
AcDbCircle
 62
7
  6
CONTINUOUS
 10
3.341770342
 20
1.9496049528
 40
0.01
  0
CIRCLE
  5
852
100
AcDbEntity
  8
DFP0102_DRL
100
AcDbCircle
 62
7
  6
CONTINUOUS
 10
3.736770342
 20
2.0146049528
 40
0.01
  0
CIRCLE
  5
853
100
AcDbEntity
  8
DFP0102_DRL
100
AcDbCircle
 62
7
  6
CONTINUOUS
 10
3.526770342
 20
2.1996049528
 40
0.009
  0
CIRCLE
  5
854
100
AcDbEntity
  8
DFP0102_DRL
100
AcDbCircle
 62
7
  6
CONTINUOUS
 10
3.526770342
 20
2.0546049528
 40
0.009
  0
CIRCLE
  5
855
100
AcDbEntity
  8
DFP0102_DRL
100
AcDbCircle
 62
7
  6
CONTINUOUS
 10
3.411770342
 20
1.7596049528
 40
0.009
  0
CIRCLE
  5
856
100
AcDbEntity
  8
DFP0102_DRL
100
AcDbCircle
 62
7
  6
CONTINUOUS
 10
3.526770342
 20
1.7596049528
 40
0.009
  0
CIRCLE
  5
857
100
AcDbEntity
  8
DFP0102_DRL
100
AcDbCircle
 62
7
  6
CONTINUOUS
 10
3.736770342
 20
1.7596049528
 40
0.009
  0
CIRCLE
  5
858
100
AcDbEntity
  8
DFN0102_DRL
100
AcDbCircle
 62
7
  6
CONTINUOUS
 10
2.986770342
 20
2.5696049528
 40
0.06425
  0
CIRCLE
  5
859
100
AcDbEntity
  8
DFP0102_DRL
100
AcDbCircle
 62
7
  6
CONTINUOUS
 10
3.896770342
 20
2.3346049528
 40
0.0205
  0
CIRCLE
  5
85A
100
AcDbEntity
  8
DFP0102_DRL
100
AcDbCircle
 62
7
  6
CONTINUOUS
 10
3.831770342
 20
2.5196049528
 40
0.0205
  0
CIRCLE
  5
85B
100
AcDbEntity
  8
DFP0102_DRL
100
AcDbCircle
 62
7
  6
CONTINUOUS
 10
3.831770342
 20
2.7196049528
 40
0.0205
  0
CIRCLE
  5
85C
100
AcDbEntity
  8
DFP0102_DRL
100
AcDbCircle
 62
7
  6
CONTINUOUS
 10
2.876770342
 20
2.2496049528
 40
0.01
  0
CIRCLE
  5
85D
100
AcDbEntity
  8
DFP0102_DRL
100
AcDbCircle
 62
7
  6
CONTINUOUS
 10
2.696770342
 20
2.3996049528
 40
0.01
  0
CIRCLE
  5
85E
100
AcDbEntity
  8
DFP0102_DRL
100
AcDbCircle
 62
7
  6
CONTINUOUS
 10
2.731770342
 20
2.8546049528
 40
0.01
  0
CIRCLE
  5
85F
100
AcDbEntity
  8
DFP0102_DRL
100
AcDbCircle
 62
7
  6
CONTINUOUS
 10
3.201770342
 20
2.7096049528
 40
0.01
  0
CIRCLE
  5
860
100
AcDbEntity
  8
DFP0102_DRL
100
AcDbCircle
 62
7
  6
CONTINUOUS
 10
3.331770342
 20
2.6896049528
 40
0.01
  0
CIRCLE
  5
861
100
AcDbEntity
  8
DFP0102_DRL
100
AcDbCircle
 62
7
  6
CONTINUOUS
 10
3.336770342
 20
2.2846049528
 40
0.01
  0
CIRCLE
  5
862
100
AcDbEntity
  8
DFP0102_DRL
100
AcDbCircle
 62
7
  6
CONTINUOUS
 10
3.711770342
 20
2.5046049528
 40
0.01
  0
CIRCLE
  5
863
100
AcDbEntity
  8
DFP0102_DRL
100
AcDbCircle
 62
7
  6
CONTINUOUS
 10
3.471770342
 20
2.6996049528
 40
0.01
  0
CIRCLE
  5
864
100
AcDbEntity
  8
DFP0102_DRL
100
AcDbCircle
 62
7
  6
CONTINUOUS
 10
2.696770342
 20
2.6246049528
 40
0.009
  0
CIRCLE
  5
865
100
AcDbEntity
  8
DFP0102_DRL
100
AcDbCircle
 62
7
  6
CONTINUOUS
 10
2.696770342
 20
2.4996049528
 40
0.009
  0
CIRCLE
  5
866
100
AcDbEntity
  8
DFP0102_DRL
100
AcDbCircle
 62
7
  6
CONTINUOUS
 10
2.731770342
 20
2.2596049528
 40
0.009
  0
CIRCLE
  5
867
100
AcDbEntity
  8
DFP0102_DRL
100
AcDbCircle
 62
7
  6
CONTINUOUS
 10
3.061770342
 20
2.7546049528
 40
0.009
  0
CIRCLE
  5
868
100
AcDbEntity
  8
DFP0102_DRL
100
AcDbCircle
 62
7
  6
CONTINUOUS
 10
3.531770342
 20
2.5896049528
 40
0.009
  0
CIRCLE
  5
869
100
AcDbEntity
  8
DFP0102_DRL
100
AcDbCircle
 62
7
  6
CONTINUOUS
 10
3.276770342
 20
2.5046049528
 40
0.009
  0
CIRCLE
  5
86A
100
AcDbEntity
  8
DFP0102_DRL
100
AcDbCircle
 62
7
  6
CONTINUOUS
 10
3.211770342
 20
2.3346049528
 40
0.009
  0
CIRCLE
  5
86B
100
AcDbEntity
  8
DFP0102_DRL
100
AcDbCircle
 62
7
  6
CONTINUOUS
 10
3.641770342
 20
2.3246049528
 40
0.009
  0
CIRCLE
  5
86C
100
AcDbEntity
  8
DFP0102_DRL
100
AcDbCircle
 62
7
  6
CONTINUOUS
 10
3.591770342
 20
2.2946049528
 40
0.009
  0
CIRCLE
  5
86D
100
AcDbEntity
  8
DFP0102_DRL
100
AcDbCircle
 62
7
  6
CONTINUOUS
 10
1.661770342
 20
3.0396049528
 40
0.01
  0
CIRCLE
  5
86E
100
AcDbEntity
  8
DFP0102_DRL
100
AcDbCircle
 62
7
  6
CONTINUOUS
 10
1.561770342
 20
3.0696049528
 40
0.01
  0
CIRCLE
  5
86F
100
AcDbEntity
  8
DFP0102_DRL
100
AcDbCircle
 62
7
  6
CONTINUOUS
 10
1.456770342
 20
3.2646049528
 40
0.01
  0
CIRCLE
  5
870
100
AcDbEntity
  8
DFP0102_DRL
100
AcDbCircle
 62
7
  6
CONTINUOUS
 10
1.711770342
 20
3.2846049528
 40
0.01
  0
CIRCLE
  5
871
100
AcDbEntity
  8
DFP0102_DRL
100
AcDbCircle
 62
7
  6
CONTINUOUS
 10
1.561770342
 20
3.4346049528
 40
0.01
  0
CIRCLE
  5
872
100
AcDbEntity
  8
DFP0102_DRL
100
AcDbCircle
 62
7
  6
CONTINUOUS
 10
2.246770342
 20
3.4146049528
 40
0.01
  0
CIRCLE
  5
873
100
AcDbEntity
  8
DFP0102_DRL
100
AcDbCircle
 62
7
  6
CONTINUOUS
 10
2.226770342
 20
3.3146049528
 40
0.01
  0
CIRCLE
  5
874
100
AcDbEntity
  8
DFP0102_DRL
100
AcDbCircle
 62
7
  6
CONTINUOUS
 10
2.006770342
 20
3.1396049528
 40
0.01
  0
CIRCLE
  5
875
100
AcDbEntity
  8
DFP0102_DRL
100
AcDbCircle
 62
7
  6
CONTINUOUS
 10
2.286770342
 20
3.1146049528
 40
0.01
  0
CIRCLE
  5
876
100
AcDbEntity
  8
DFP0102_DRL
100
AcDbCircle
 62
7
  6
CONTINUOUS
 10
1.961770342
 20
3.0396049528
 40
0.01
  0
CIRCLE
  5
877
100
AcDbEntity
  8
DFP0102_DRL
100
AcDbCircle
 62
7
  6
CONTINUOUS
 10
2.541770342
 20
3.0446049528
 40
0.01
  0
CIRCLE
  5
878
100
AcDbEntity
  8
DFP0102_DRL
100
AcDbCircle
 62
7
  6
CONTINUOUS
 10
2.556770342
 20
3.1646049528
 40
0.01
  0
CIRCLE
  5
879
100
AcDbEntity
  8
DFP0102_DRL
100
AcDbCircle
 62
7
  6
CONTINUOUS
 10
2.496770342
 20
3.2746049528
 40
0.01
  0
CIRCLE
  5
87A
100
AcDbEntity
  8
DFP0102_DRL
100
AcDbCircle
 62
7
  6
CONTINUOUS
 10
2.701770342
 20
3.3146049528
 40
0.01
  0
CIRCLE
  5
87B
100
AcDbEntity
  8
DFP0102_DRL
100
AcDbCircle
 62
7
  6
CONTINUOUS
 10
2.496770342
 20
3.3646049528
 40
0.01
  0
CIRCLE
  5
87C
100
AcDbEntity
  8
DFP0102_DRL
100
AcDbCircle
 62
7
  6
CONTINUOUS
 10
1.611770342
 20
3.0396049528
 40
0.009
  0
CIRCLE
  5
87D
100
AcDbEntity
  8
DFP0102_DRL
100
AcDbCircle
 62
7
  6
CONTINUOUS
 10
1.761770342
 20
3.2246049528
 40
0.009
  0
CIRCLE
  5
87E
100
AcDbEntity
  8
DFP0102_DRL
100
AcDbCircle
 62
7
  6
CONTINUOUS
 10
1.661770342
 20
3.4196049528
 40
0.009
  0
CIRCLE
  5
87F
100
AcDbEntity
  8
DFP0102_DRL
100
AcDbCircle
 62
7
  6
CONTINUOUS
 10
2.046770342
 20
3.4596049528
 40
0.009
  0
CIRCLE
  5
880
100
AcDbEntity
  8
DFP0102_DRL
100
AcDbCircle
 62
7
  6
CONTINUOUS
 10
1.966770342
 20
3.5446049528
 40
0.009
  0
CIRCLE
  5
881
100
AcDbEntity
  8
DFP0102_DRL
100
AcDbCircle
 62
7
  6
CONTINUOUS
 10
2.701770342
 20
3.5896049528
 40
0.009
  0
CIRCLE
  5
882
100
AcDbEntity
  8
DFP0102_DRL
100
AcDbCircle
 62
7
  6
CONTINUOUS
 10
2.526770342
 20
3.5146049528
 40
0.009
  0
CIRCLE
  5
883
100
AcDbEntity
  8
DFP0102_DRL
100
AcDbCircle
 62
7
  6
CONTINUOUS
 10
2.646770342
 20
3.1146049528
 40
0.009
  0
CIRCLE
  5
884
100
AcDbEntity
  8
DFP0102_DRL
100
AcDbCircle
 62
7
  6
CONTINUOUS
 10
2.701770342
 20
3.0896049528
 40
0.009
  0
CIRCLE
  5
885
100
AcDbEntity
  8
DFN0102_DRL
100
AcDbCircle
 62
7
  6
CONTINUOUS
 10
1.436770342
 20
4.3196049528
 40
0.06425
  0
CIRCLE
  5
886
100
AcDbEntity
  8
DFP0102_DRL
100
AcDbCircle
 62
7
  6
CONTINUOUS
 10
1.936770342
 20
3.6396049528
 40
0.01
  0
CIRCLE
  5
887
100
AcDbEntity
  8
DFP0102_DRL
100
AcDbCircle
 62
7
  6
CONTINUOUS
 10
1.701770342
 20
3.7996049528
 40
0.01
  0
CIRCLE
  5
888
100
AcDbEntity
  8
DFP0102_DRL
100
AcDbCircle
 62
7
  6
CONTINUOUS
 10
1.596770342
 20
3.9996049528
 40
0.01
  0
CIRCLE
  5
889
100
AcDbEntity
  8
DFP0102_DRL
100
AcDbCircle
 62
7
  6
CONTINUOUS
 10
2.001770342
 20
4.1046049528
 40
0.01
  0
CIRCLE
  5
88A
100
AcDbEntity
  8
DFP0102_DRL
100
AcDbCircle
 62
7
  6
CONTINUOUS
 10
2.231770342
 20
4.0646049528
 40
0.01
  0
CIRCLE
  5
88B
100
AcDbEntity
  8
DFP0102_DRL
100
AcDbCircle
 62
7
  6
CONTINUOUS
 10
2.101770342
 20
4.0546049528
 40
0.01
  0
CIRCLE
  5
88C
100
AcDbEntity
  8
DFP0102_DRL
100
AcDbCircle
 62
7
  6
CONTINUOUS
 10
2.001770342
 20
3.9696049528
 40
0.01
  0
CIRCLE
  5
88D
100
AcDbEntity
  8
DFP0102_DRL
100
AcDbCircle
 62
7
  6
CONTINUOUS
 10
2.241770342
 20
3.9046049528
 40
0.01
  0
CIRCLE
  5
88E
100
AcDbEntity
  8
DFP0102_DRL
100
AcDbCircle
 62
7
  6
CONTINUOUS
 10
2.296770342
 20
3.8046049528
 40
0.01
  0
CIRCLE
  5
88F
100
AcDbEntity
  8
DFP0102_DRL
100
AcDbCircle
 62
7
  6
CONTINUOUS
 10
2.196770342
 20
3.7546049528
 40
0.01
  0
CIRCLE
  5
890
100
AcDbEntity
  8
DFP0102_DRL
100
AcDbCircle
 62
7
  6
CONTINUOUS
 10
2.701770342
 20
3.6646049528
 40
0.01
  0
CIRCLE
  5
891
100
AcDbEntity
  8
DFP0102_DRL
100
AcDbCircle
 62
7
  6
CONTINUOUS
 10
2.526770342
 20
3.7246049528
 40
0.01
  0
CIRCLE
  5
892
100
AcDbEntity
  8
DFP0102_DRL
100
AcDbCircle
 62
7
  6
CONTINUOUS
 10
2.616770342
 20
3.8246049528
 40
0.01
  0
CIRCLE
  5
893
100
AcDbEntity
  8
DFP0102_DRL
100
AcDbCircle
 62
7
  6
CONTINUOUS
 10
1.986770342
 20
3.6396049528
 40
0.009
  0
CIRCLE
  5
894
100
AcDbEntity
  8
DFP0102_DRL
100
AcDbCircle
 62
7
  6
CONTINUOUS
 10
2.081770342
 20
4.0046049528
 40
0.009
  0
CIRCLE
  5
895
100
AcDbEntity
  8
DFP0102_DRL
100
AcDbCircle
 62
7
  6
CONTINUOUS
 10
2.506770342
 20
3.8296049528
 40
0.009
  0
CIRCLE
  5
896
100
AcDbEntity
  8
DFN0102_DRL
100
AcDbCircle
 62
7
  6
CONTINUOUS
 10
2.771770342
 20
2.9796049528
 40
0.06425
  0
CIRCLE
  5
897
100
AcDbEntity
  8
DFP0102_DRL
100
AcDbCircle
 62
7
  6
CONTINUOUS
 10
3.976770342
 20
2.9696049528
 40
0.023
  0
CIRCLE
  5
898
100
AcDbEntity
  8
DFP0102_DRL
100
AcDbCircle
 62
7
  6
CONTINUOUS
 10
2.941770342
 20
3.3646049528
 40
0.01
  0
CIRCLE
  5
899
100
AcDbEntity
  8
DFP0102_DRL
100
AcDbCircle
 62
7
  6
CONTINUOUS
 10
2.706770342
 20
3.4146049528
 40
0.01
  0
CIRCLE
  5
89A
100
AcDbEntity
  8
DFP0102_DRL
100
AcDbCircle
 62
7
  6
CONTINUOUS
 10
2.851770342
 20
3.5646049528
 40
0.01
  0
CIRCLE
  5
89B
100
AcDbEntity
  8
DFP0102_DRL
100
AcDbCircle
 62
7
  6
CONTINUOUS
 10
3.381770342
 20
3.3896049528
 40
0.01
  0
CIRCLE
  5
89C
100
AcDbEntity
  8
DFP0102_DRL
100
AcDbCircle
 62
7
  6
CONTINUOUS
 10
3.376770342
 20
3.2896049528
 40
0.01
  0
CIRCLE
  5
89D
100
AcDbEntity
  8
DFP0102_DRL
100
AcDbCircle
 62
7
  6
CONTINUOUS
 10
3.431770342
 20
3.0396049528
 40
0.01
  0
CIRCLE
  5
89E
100
AcDbEntity
  8
DFP0102_DRL
100
AcDbCircle
 62
7
  6
CONTINUOUS
 10
3.086770342
 20
3.0796049528
 40
0.009
  0
CIRCLE
  5
89F
100
AcDbEntity
  8
DFP0102_DRL
100
AcDbCircle
 62
7
  6
CONTINUOUS
 10
3.086770342
 20
3.2396049528
 40
0.009
  0
CIRCLE
  5
8A0
100
AcDbEntity
  8
DFP0102_DRL
100
AcDbCircle
 62
7
  6
CONTINUOUS
 10
2.951770342
 20
3.4496049528
 40
0.009
  0
CIRCLE
  5
8A1
100
AcDbEntity
  8
DFP0102_DRL
100
AcDbCircle
 62
7
  6
CONTINUOUS
 10
3.016770342
 20
3.4896049528
 40
0.009
  0
CIRCLE
  5
8A2
100
AcDbEntity
  8
DFP0102_DRL
100
AcDbCircle
 62
7
  6
CONTINUOUS
 10
3.476770342
 20
3.4246049528
 40
0.009
  0
CIRCLE
  5
8A3
100
AcDbEntity
  8
DFP0102_DRL
100
AcDbCircle
 62
7
  6
CONTINUOUS
 10
3.666770342
 20
3.1146049528
 40
0.009
  0
CIRCLE
  5
8A4
100
AcDbEntity
  8
DFP0102_DRL
100
AcDbCircle
 62
7
  6
CONTINUOUS
 10
3.546770342
 20
3.1046049528
 40
0.009
  0
CIRCLE
  5
8A5
100
AcDbEntity
  8
DFP0102_DRL
100
AcDbCircle
 62
7
  6
CONTINUOUS
 10
3.256770342
 20
3.0396049528
 40
0.009
  0
CIRCLE
  5
8A6
100
AcDbEntity
  8
DFP0102_DRL
100
AcDbCircle
 62
7
  6
CONTINUOUS
 10
3.781770342
 20
2.9196049528
 40
0.009
  0
CIRCLE
  5
8A7
100
AcDbEntity
  8
ADT_PHO
100
AcDbCircle
 62
7
  6
CONTINUOUS
 10
3.826770342
 20
4.2146049528
 40
0.25
  0
CIRCLE
  5
8A8
100
AcDbEntity
  8
ADT_PHO
100
AcDbCircle
 62
7
  6
CONTINUOUS
 10
3.466770342
 20
3.8346049528
 40
0.125
  0
ARC
  5
8A9
100
AcDbEntity
  8
ADT_PHO
100
AcDbCircle
 62
7
  6
CONTINUOUS
 10
3.2404317571
 20
4.1345852678
 40
0.1036105841
100
AcDbArc
 50
60.3226276665
 51
299.6773723335
  0
CIRCLE
  5
8AA
100
AcDbEntity
  8
DFP0102_DRL
100
AcDbCircle
 62
7
  6
CONTINUOUS
 10
3.236770342
 20
4.0346049528
 40
0.018
  0
CIRCLE
  5
8AB
100
AcDbEntity
  8
DFP0102_DRL
100
AcDbCircle
 62
7
  6
CONTINUOUS
 10
3.236770342
 20
4.1346049528
 40
0.018
  0
CIRCLE
  5
8AC
100
AcDbEntity
  8
DFP0102_DRL
100
AcDbCircle
 62
7
  6
CONTINUOUS
 10
3.236770342
 20
4.2346049528
 40
0.018
  0
CIRCLE
  5
8AD
100
AcDbEntity
  8
DFP0102_DRL
100
AcDbCircle
 62
7
  6
CONTINUOUS
 10
3.826770342
 20
4.3146049528
 40
0.018
  0
CIRCLE
  5
8AE
100
AcDbEntity
  8
DFP0102_DRL
100
AcDbCircle
 62
7
  6
CONTINUOUS
 10
3.826770342
 20
4.1146049528
 40
0.018
  0
CIRCLE
  5
8AF
100
AcDbEntity
  8
DFP0102_DRL
100
AcDbCircle
 62
7
  6
CONTINUOUS
 10
3.466770342
 20
3.8846049528
 40
0.018
  0
CIRCLE
  5
8B0
100
AcDbEntity
  8
DFP0102_DRL
100
AcDbCircle
 62
7
  6
CONTINUOUS
 10
3.466770342
 20
3.7846049528
 40
0.018
  0
CIRCLE
  5
8B1
100
AcDbEntity
  8
DFP0102_DRL
100
AcDbCircle
 62
7
  6
CONTINUOUS
 10
2.866770342
 20
3.7146049528
 40
0.01
  0
CIRCLE
  5
8B2
100
AcDbEntity
  8
DFP0102_DRL
100
AcDbCircle
 62
7
  6
CONTINUOUS
 10
2.981770342
 20
3.8096049528
 40
0.01
  0
CIRCLE
  5
8B3
100
AcDbEntity
  8
DFP0102_DRL
100
AcDbCircle
 62
7
  6
CONTINUOUS
 10
3.821770342
 20
3.6946049528
 40
0.01
  0
CIRCLE
  5
8B4
100
AcDbEntity
  8
DFP0102_DRL
100
AcDbCircle
 62
7
  6
CONTINUOUS
 10
2.706770342
 20
3.8246049528
 40
0.009
  0
CIRCLE
  5
8B5
100
AcDbEntity
  8
DFP0102_DRL
100
AcDbCircle
 62
7
  6
CONTINUOUS
 10
2.801770342
 20
4.0046049528
 40
0.009
  0
CIRCLE
  5
8B6
100
AcDbEntity
  8
DFP0102_DRL
100
AcDbCircle
 62
7
  6
CONTINUOUS
 10
3.256770342
 20
3.6496049528
 40
0.009
  0
CIRCLE
  5
8B7
100
AcDbEntity
  8
ADT_PHO
100
AcDbCircle
 62
7
  6
CONTINUOUS
 10
4.971770342
 20
1.7746049528
 40
0.075
  0
CIRCLE
  5
8B8
100
AcDbEntity
  8
ADT_PHO
100
AcDbCircle
 62
7
  6
CONTINUOUS
 10
4.646770342
 20
1.7746049528
 40
0.075
  0
CIRCLE
  5
8B9
100
AcDbEntity
  8
ADT_PHO
100
AcDbCircle
 62
7
  6
CONTINUOUS
 10
4.321770342
 20
1.7746049528
 40
0.075
  0
CIRCLE
  5
8BA
100
AcDbEntity
  8
ADT_PHO
100
AcDbCircle
 62
7
  6
CONTINUOUS
 10
3.996770342
 20
1.7746049528
 40
0.075
  0
CIRCLE
  5
8BB
100
AcDbEntity
  8
DFP0102_DRL
100
AcDbCircle
 62
7
  6
CONTINUOUS
 10
3.996770342
 20
1.6196049528
 40
0.0375
  0
CIRCLE
  5
8BC
100
AcDbEntity
  8
DFP0102_DRL
100
AcDbCircle
 62
7
  6
CONTINUOUS
 10
4.321770342
 20
1.6196049528
 40
0.0375
  0
CIRCLE
  5
8BD
100
AcDbEntity
  8
DFP0102_DRL
100
AcDbCircle
 62
7
  6
CONTINUOUS
 10
4.646770342
 20
1.6196049528
 40
0.0375
  0
CIRCLE
  5
8BE
100
AcDbEntity
  8
DFP0102_DRL
100
AcDbCircle
 62
7
  6
CONTINUOUS
 10
4.971770342
 20
1.6196049528
 40
0.0375
  0
CIRCLE
  5
8BF
100
AcDbEntity
  8
DFP0102_DRL
100
AcDbCircle
 62
7
  6
CONTINUOUS
 10
4.136770342
 20
2.1346049528
 40
0.0205
  0
CIRCLE
  5
8C0
100
AcDbEntity
  8
DFP0102_DRL
100
AcDbCircle
 62
7
  6
CONTINUOUS
 10
5.121770342
 20
2.1346049528
 40
0.0205
  0
CIRCLE
  5
8C1
100
AcDbEntity
  8
DFP0102_DRL
100
AcDbCircle
 62
7
  6
CONTINUOUS
 10
4.136770342
 20
2.3346049528
 40
0.0205
  0
CIRCLE
  5
8C2
100
AcDbEntity
  8
DFP0102_DRL
100
AcDbCircle
 62
7
  6
CONTINUOUS
 10
5.121770342
 20
2.3346049528
 40
0.0205
  0
CIRCLE
  5
8C3
100
AcDbEntity
  8
DFP0102_DRL
100
AcDbCircle
 62
7
  6
CONTINUOUS
 10
4.341770342
 20
2.8546049528
 40
0.01
  0
CIRCLE
  5
8C4
100
AcDbEntity
  8
DFP0102_DRL
100
AcDbCircle
 62
7
  6
CONTINUOUS
 10
4.526770342
 20
2.7746049528
 40
0.01
  0
CIRCLE
  5
8C5
100
AcDbEntity
  8
DFP0102_DRL
100
AcDbCircle
 62
7
  6
CONTINUOUS
 10
4.426770342
 20
2.6046049528
 40
0.01
  0
CIRCLE
  5
8C6
100
AcDbEntity
  8
DFP0102_DRL
100
AcDbCircle
 62
7
  6
CONTINUOUS
 10
4.246770342
 20
2.5796049528
 40
0.01
  0
CIRCLE
  5
8C7
100
AcDbEntity
  8
DFP0102_DRL
100
AcDbCircle
 62
7
  6
CONTINUOUS
 10
4.481770342
 20
2.4846049528
 40
0.01
  0
CIRCLE
  5
8C8
100
AcDbEntity
  8
DFP0102_DRL
100
AcDbCircle
 62
7
  6
CONTINUOUS
 10
4.646770342
 20
2.4796049528
 40
0.01
  0
CIRCLE
  5
8C9
100
AcDbEntity
  8
DFP0102_DRL
100
AcDbCircle
 62
7
  6
CONTINUOUS
 10
4.416770342
 20
2.3596049528
 40
0.01
  0
CIRCLE
  5
8CA
100
AcDbEntity
  8
DFP0102_DRL
100
AcDbCircle
 62
7
  6
CONTINUOUS
 10
4.766770342
 20
2.5496049528
 40
0.01
  0
CIRCLE
  5
8CB
100
AcDbEntity
  8
DFP0102_DRL
100
AcDbCircle
 62
7
  6
CONTINUOUS
 10
5.036770342
 20
2.7096049528
 40
0.01
  0
CIRCLE
  5
8CC
100
AcDbEntity
  8
DFP0102_DRL
100
AcDbCircle
 62
7
  6
CONTINUOUS
 10
5.036770342
 20
2.8096049528
 40
0.01
  0
CIRCLE
  5
8CD
100
AcDbEntity
  8
DFP0102_DRL
100
AcDbCircle
 62
7
  6
CONTINUOUS
 10
4.956770342
 20
2.8896049528
 40
0.01
  0
CIRCLE
  5
8CE
100
AcDbEntity
  8
DFP0102_DRL
100
AcDbCircle
 62
7
  6
CONTINUOUS
 10
5.261770342
 20
2.7146049528
 40
0.01
  0
CIRCLE
  5
8CF
100
AcDbEntity
  8
DFP0102_DRL
100
AcDbCircle
 62
7
  6
CONTINUOUS
 10
5.261770342
 20
2.5296049528
 40
0.01
  0
CIRCLE
  5
8D0
100
AcDbEntity
  8
DFP0102_DRL
100
AcDbCircle
 62
7
  6
CONTINUOUS
 10
4.251770342
 20
2.4846049528
 40
0.009
  0
CIRCLE
  5
8D1
100
AcDbEntity
  8
DFP0102_DRL
100
AcDbCircle
 62
7
  6
CONTINUOUS
 10
4.591770342
 20
2.2896049528
 40
0.009
  0
CIRCLE
  5
8D2
100
AcDbEntity
  8
DFP0102_DRL
100
AcDbCircle
 62
7
  6
CONTINUOUS
 10
4.516770342
 20
2.2096049528
 40
0.009
  0
CIRCLE
  5
8D3
100
AcDbEntity
  8
DFP0102_DRL
100
AcDbCircle
 62
7
  6
CONTINUOUS
 10
5.196770342
 20
2.8796049528
 40
0.009
  0
CIRCLE
  5
8D4
100
AcDbEntity
  8
ADT_PHO
100
AcDbCircle
 62
7
  6
CONTINUOUS
 10
6.271770342
 20
1.7746049528
 40
0.075
  0
CIRCLE
  5
8D5
100
AcDbEntity
  8
ADT_PHO
100
AcDbCircle
 62
7
  6
CONTINUOUS
 10
5.946770342
 20
1.7746049528
 40
0.075
  0
CIRCLE
  5
8D6
100
AcDbEntity
  8
ADT_PHO
100
AcDbCircle
 62
7
  6
CONTINUOUS
 10
5.621770342
 20
1.7746049528
 40
0.075
  0
CIRCLE
  5
8D7
100
AcDbEntity
  8
ADT_PHO
100
AcDbCircle
 62
7
  6
CONTINUOUS
 10
5.296770342
 20
1.7746049528
 40
0.075
  0
CIRCLE
  5
8D8
100
AcDbEntity
  8
DFN0102_DRL
100
AcDbCircle
 62
7
  6
CONTINUOUS
 10
6.536770342
 20
1.4696049528
 40
0.06425
  0
CIRCLE
  5
8D9
100
AcDbEntity
  8
DFP0102_DRL
100
AcDbCircle
 62
7
  6
CONTINUOUS
 10
5.296770342
 20
1.6196049528
 40
0.0375
  0
CIRCLE
  5
8DA
100
AcDbEntity
  8
DFP0102_DRL
100
AcDbCircle
 62
7
  6
CONTINUOUS
 10
5.621770342
 20
1.6196049528
 40
0.0375
  0
CIRCLE
  5
8DB
100
AcDbEntity
  8
DFP0102_DRL
100
AcDbCircle
 62
7
  6
CONTINUOUS
 10
5.946770342
 20
1.6196049528
 40
0.0375
  0
CIRCLE
  5
8DC
100
AcDbEntity
  8
DFP0102_DRL
100
AcDbCircle
 62
7
  6
CONTINUOUS
 10
6.271770342
 20
1.6196049528
 40
0.0375
  0
CIRCLE
  5
8DD
100
AcDbEntity
  8
DFP0102_DRL
100
AcDbCircle
 62
7
  6
CONTINUOUS
 10
5.311770342
 20
2.0946049528
 40
0.0205
  0
CIRCLE
  5
8DE
100
AcDbEntity
  8
DFP0102_DRL
100
AcDbCircle
 62
7
  6
CONTINUOUS
 10
6.471770342
 20
2.1346049528
 40
0.0205
  0
CIRCLE
  5
8DF
100
AcDbEntity
  8
DFN0102_DRL
100
AcDbCircle
 62
7
  6
CONTINUOUS
 10
5.486770342
 20
2.5696049528
 40
0.06425
  0
CIRCLE
  5
8E0
100
AcDbEntity
  8
DFP0102_DRL
100
AcDbCircle
 62
7
  6
CONTINUOUS
 10
5.311770342
 20
2.2946049528
 40
0.0205
  0
CIRCLE
  5
8E1
100
AcDbEntity
  8
DFP0102_DRL
100
AcDbCircle
 62
7
  6
CONTINUOUS
 10
6.471770342
 20
2.3346049528
 40
0.0205
  0
CIRCLE
  5
8E2
100
AcDbEntity
  8
DFP0102_DRL
100
AcDbCircle
 62
7
  6
CONTINUOUS
 10
5.656770342
 20
2.8946049528
 40
0.01
  0
CIRCLE
  5
8E3
100
AcDbEntity
  8
DFP0102_DRL
100
AcDbCircle
 62
7
  6
CONTINUOUS
 10
5.561770342
 20
2.8396049528
 40
0.01
  0
CIRCLE
  5
8E4
100
AcDbEntity
  8
DFP0102_DRL
100
AcDbCircle
 62
7
  6
CONTINUOUS
 10
5.651770342
 20
2.2996049528
 40
0.01
  0
CIRCLE
  5
8E5
100
AcDbEntity
  8
DFP0102_DRL
100
AcDbCircle
 62
7
  6
CONTINUOUS
 10
5.921770342
 20
2.2996049528
 40
0.01
  0
CIRCLE
  5
8E6
100
AcDbEntity
  8
DFP0102_DRL
100
AcDbCircle
 62
7
  6
CONTINUOUS
 10
6.131770342
 20
2.3296049528
 40
0.01
  0
CIRCLE
  5
8E7
100
AcDbEntity
  8
DFP0102_DRL
100
AcDbCircle
 62
7
  6
CONTINUOUS
 10
6.391770342
 20
2.7296049528
 40
0.01
  0
CIRCLE
  5
8E8
100
AcDbEntity
  8
DFP0102_DRL
100
AcDbCircle
 62
7
  6
CONTINUOUS
 10
5.886770342
 20
2.7346049528
 40
0.01
  0
CIRCLE
  5
8E9
100
AcDbEntity
  8
DFP0102_DRL
100
AcDbCircle
 62
7
  6
CONTINUOUS
 10
5.551770342
 20
2.3046049528
 40
0.009
  0
CIRCLE
  5
8EA
100
AcDbEntity
  8
DFP0102_DRL
100
AcDbCircle
 62
7
  6
CONTINUOUS
 10
5.801770342
 20
2.5696049528
 40
0.009
  0
CIRCLE
  5
8EB
100
AcDbEntity
  8
ADT_PHO
100
AcDbCircle
 62
7
  6
CONTINUOUS
 10
4.116770342
 20
3.3646049528
 40
0.1
  0
CIRCLE
  5
8EC
100
AcDbEntity
  8
DFP0102_DRL
100
AcDbCircle
 62
7
  6
CONTINUOUS
 10
4.076770342
 20
2.9696049528
 40
0.023
  0
CIRCLE
  5
8ED
100
AcDbEntity
  8
DFP0102_DRL
100
AcDbCircle
 62
7
  6
CONTINUOUS
 10
4.176770342
 20
2.9696049528
 40
0.023
  0
CIRCLE
  5
8EE
100
AcDbEntity
  8
DFP0102_DRL
100
AcDbCircle
 62
7
  6
CONTINUOUS
 10
4.116770342
 20
3.4146049528
 40
0.018
  0
CIRCLE
  5
8EF
100
AcDbEntity
  8
DFP0102_DRL
100
AcDbCircle
 62
7
  6
CONTINUOUS
 10
4.116770342
 20
3.3146049528
 40
0.018
  0
CIRCLE
  5
8F0
100
AcDbEntity
  8
DFP0102_DRL
100
AcDbCircle
 62
7
  6
CONTINUOUS
 10
4.176770342
 20
3.5096049528
 40
0.01
  0
CIRCLE
  5
8F1
100
AcDbEntity
  8
DFP0102_DRL
100
AcDbCircle
 62
7
  6
CONTINUOUS
 10
4.551770342
 20
3.5946049528
 40
0.01
  0
CIRCLE
  5
8F2
100
AcDbEntity
  8
DFP0102_DRL
100
AcDbCircle
 62
7
  6
CONTINUOUS
 10
4.646770342
 20
3.1096049528
 40
0.01
  0
CIRCLE
  5
8F3
100
AcDbEntity
  8
DFP0102_DRL
100
AcDbCircle
 62
7
  6
CONTINUOUS
 10
4.741770342
 20
3.0496049528
 40
0.01
  0
CIRCLE
  5
8F4
100
AcDbEntity
  8
DFP0102_DRL
100
AcDbCircle
 62
7
  6
CONTINUOUS
 10
4.856770342
 20
3.1796049528
 40
0.01
  0
CIRCLE
  5
8F5
100
AcDbEntity
  8
DFP0102_DRL
100
AcDbCircle
 62
7
  6
CONTINUOUS
 10
5.196770342
 20
3.2096049528
 40
0.01
  0
CIRCLE
  5
8F6
100
AcDbEntity
  8
DFP0102_DRL
100
AcDbCircle
 62
7
  6
CONTINUOUS
 10
4.991770342
 20
3.5596049528
 40
0.01
  0
CIRCLE
  5
8F7
100
AcDbEntity
  8
DFP0102_DRL
100
AcDbCircle
 62
7
  6
CONTINUOUS
 10
4.786770342
 20
3.6346049528
 40
0.01
  0
CIRCLE
  5
8F8
100
AcDbEntity
  8
DFP0102_DRL
100
AcDbCircle
 62
7
  6
CONTINUOUS
 10
4.376770342
 20
2.9296049528
 40
0.009
  0
CIRCLE
  5
8F9
100
AcDbEntity
  8
DFP0102_DRL
100
AcDbCircle
 62
7
  6
CONTINUOUS
 10
4.396770342
 20
3.4496049528
 40
0.009
  0
CIRCLE
  5
8FA
100
AcDbEntity
  8
DFP0102_DRL
100
AcDbCircle
 62
7
  6
CONTINUOUS
 10
4.291770342
 20
3.5496049528
 40
0.009
  0
CIRCLE
  5
8FB
100
AcDbEntity
  8
DFP0102_DRL
100
AcDbCircle
 62
7
  6
CONTINUOUS
 10
4.606770342
 20
3.6296049528
 40
0.009
  0
CIRCLE
  5
8FC
100
AcDbEntity
  8
DFP0102_DRL
100
AcDbCircle
 62
7
  6
CONTINUOUS
 10
4.476770342
 20
3.5646049528
 40
0.009
  0
CIRCLE
  5
8FD
100
AcDbEntity
  8
DFP0102_DRL
100
AcDbCircle
 62
7
  6
CONTINUOUS
 10
4.581770342
 20
3.3246049528
 40
0.009
  0
CIRCLE
  5
8FE
100
AcDbEntity
  8
DFP0102_DRL
100
AcDbCircle
 62
7
  6
CONTINUOUS
 10
4.476770342
 20
3.3096049528
 40
0.009
  0
CIRCLE
  5
8FF
100
AcDbEntity
  8
DFP0102_DRL
100
AcDbCircle
 62
7
  6
CONTINUOUS
 10
4.641770342
 20
3.3096049528
 40
0.009
  0
CIRCLE
  5
900
100
AcDbEntity
  8
DFP0102_DRL
100
AcDbCircle
 62
7
  6
CONTINUOUS
 10
4.636770342
 20
3.2346049528
 40
0.009
  0
CIRCLE
  5
901
100
AcDbEntity
  8
DFP0102_DRL
100
AcDbCircle
 62
7
  6
CONTINUOUS
 10
4.586770342
 20
3.1996049528
 40
0.009
  0
CIRCLE
  5
902
100
AcDbEntity
  8
DFP0102_DRL
100
AcDbCircle
 62
7
  6
CONTINUOUS
 10
4.986770342
 20
2.9496049528
 40
0.009
  0
CIRCLE
  5
903
100
AcDbEntity
  8
DFP0102_DRL
100
AcDbCircle
 62
7
  6
CONTINUOUS
 10
4.871770342
 20
3.0246049528
 40
0.009
  0
CIRCLE
  5
904
100
AcDbEntity
  8
DFP0102_DRL
100
AcDbCircle
 62
7
  6
CONTINUOUS
 10
4.916770342
 20
3.0746049528
 40
0.009
  0
CIRCLE
  5
905
100
AcDbEntity
  8
DFP0102_DRL
100
AcDbCircle
 62
7
  6
CONTINUOUS
 10
4.851770342
 20
3.1196049528
 40
0.009
  0
CIRCLE
  5
906
100
AcDbEntity
  8
DFP0102_DRL
100
AcDbCircle
 62
7
  6
CONTINUOUS
 10
4.931770342
 20
3.1596049528
 40
0.009
  0
CIRCLE
  5
907
100
AcDbEntity
  8
DFP0102_DRL
100
AcDbCircle
 62
7
  6
CONTINUOUS
 10
4.731770342
 20
3.3746049528
 40
0.009
  0
CIRCLE
  5
908
100
AcDbEntity
  8
DFP0102_DRL
100
AcDbCircle
 62
7
  6
CONTINUOUS
 10
5.086770342
 20
3.4796049528
 40
0.009
  0
CIRCLE
  5
909
100
AcDbEntity
  8
DFP0102_DRL
100
AcDbCircle
 62
7
  6
CONTINUOUS
 10
5.276770342
 20
3.5246049528
 40
0.009
  0
CIRCLE
  5
90A
100
AcDbEntity
  8
DFP0102_DRL
100
AcDbCircle
 62
7
  6
CONTINUOUS
 10
5.276770342
 20
3.4096049528
 40
0.009
  0
CIRCLE
  5
90B
100
AcDbEntity
  8
DFP0102_DRL
100
AcDbCircle
 62
7
  6
CONTINUOUS
 10
5.276770342
 20
2.9696049528
 40
0.009
  0
CIRCLE
  5
90C
100
AcDbEntity
  8
ADT_PHO
100
AcDbCircle
 62
7
  6
CONTINUOUS
 10
5.126770342
 20
4.2546049528
 40
0.2
  0
CIRCLE
  5
90D
100
AcDbEntity
  8
DFN0102_DRL
100
AcDbCircle
 62
7
  6
CONTINUOUS
 10
4.236770342
 20
3.9196049528
 40
0.06425
  0
CIRCLE
  5
90E
100
AcDbEntity
  8
DFP0102_DRL
100
AcDbCircle
 62
7
  6
CONTINUOUS
 10
5.126770342
 20
4.1546049528
 40
0.018
  0
CIRCLE
  5
90F
100
AcDbEntity
  8
DFP0102_DRL
100
AcDbCircle
 62
7
  6
CONTINUOUS
 10
5.126770342
 20
4.3546049528
 40
0.018
  0
CIRCLE
  5
910
100
AcDbEntity
  8
DFP0102_DRL
100
AcDbCircle
 62
7
  6
CONTINUOUS
 10
4.521770342
 20
3.9346049528
 40
0.01
  0
CIRCLE
  5
911
100
AcDbEntity
  8
DFP0102_DRL
100
AcDbCircle
 62
7
  6
CONTINUOUS
 10
4.596770342
 20
3.7296049528
 40
0.01
  0
CIRCLE
  5
912
100
AcDbEntity
  8
DFP0102_DRL
100
AcDbCircle
 62
7
  6
CONTINUOUS
 10
4.976770342
 20
4.0946049528
 40
0.01
  0
CIRCLE
  5
913
100
AcDbEntity
  8
DFP0102_DRL
100
AcDbCircle
 62
7
  6
CONTINUOUS
 10
4.636770342
 20
4.2096049528
 40
0.009
  0
CIRCLE
  5
914
100
AcDbEntity
  8
DFP0102_DRL
100
AcDbCircle
 62
7
  6
CONTINUOUS
 10
4.536770342
 20
4.0246049528
 40
0.009
  0
CIRCLE
  5
915
100
AcDbEntity
  8
DFP0102_DRL
100
AcDbCircle
 62
7
  6
CONTINUOUS
 10
4.631770342
 20
4.0246049528
 40
0.009
  0
CIRCLE
  5
916
100
AcDbEntity
  8
DFP0102_DRL
100
AcDbCircle
 62
7
  6
CONTINUOUS
 10
4.786770342
 20
3.7396049528
 40
0.009
  0
CIRCLE
  5
917
100
AcDbEntity
  8
DFP0102_DRL
100
AcDbCircle
 62
7
  6
CONTINUOUS
 10
5.036770342
 20
4.1396049528
 40
0.009
  0
CIRCLE
  5
918
100
AcDbEntity
  8
DFP0102_DRL
100
AcDbCircle
 62
7
  6
CONTINUOUS
 10
5.301770342
 20
3.8646049528
 40
0.009
  0
CIRCLE
  5
919
100
AcDbEntity
  8
ADT_PHO
100
AcDbCircle
 62
7
  6
CONTINUOUS
 10
6.116770342
 20
3.5796049528
 40
0.1
  0
CIRCLE
  5
91A
100
AcDbEntity
  8
DFP0102_DRL
100
AcDbCircle
 62
7
  6
CONTINUOUS
 10
6.196770342
 20
2.9896049528
 40
0.023
  0
CIRCLE
  5
91B
100
AcDbEntity
  8
DFP0102_DRL
100
AcDbCircle
 62
7
  6
CONTINUOUS
 10
6.096770342
 20
2.9896049528
 40
0.023
  0
CIRCLE
  5
91C
100
AcDbEntity
  8
DFP0102_DRL
100
AcDbCircle
 62
7
  6
CONTINUOUS
 10
6.296770342
 20
2.9896049528
 40
0.023
  0
CIRCLE
  5
91D
100
AcDbEntity
  8
DFP0102_DRL
100
AcDbCircle
 62
7
  6
CONTINUOUS
 10
6.116770342
 20
3.6296049528
 40
0.018
  0
CIRCLE
  5
91E
100
AcDbEntity
  8
DFP0102_DRL
100
AcDbCircle
 62
7
  6
CONTINUOUS
 10
6.116770342
 20
3.5296049528
 40
0.018
  0
CIRCLE
  5
91F
100
AcDbEntity
  8
DFP0102_DRL
100
AcDbCircle
 62
7
  6
CONTINUOUS
 10
5.356770342
 20
3.5496049528
 40
0.01
  0
CIRCLE
  5
920
100
AcDbEntity
  8
DFP0102_DRL
100
AcDbCircle
 62
7
  6
CONTINUOUS
 10
5.331770342
 20
3.2896049528
 40
0.01
  0
CIRCLE
  5
921
100
AcDbEntity
  8
DFP0102_DRL
100
AcDbCircle
 62
7
  6
CONTINUOUS
 10
5.526770342
 20
3.2896049528
 40
0.01
  0
CIRCLE
  5
922
100
AcDbEntity
  8
DFP0102_DRL
100
AcDbCircle
 62
7
  6
CONTINUOUS
 10
5.571770342
 20
3.1096049528
 40
0.01
  0
CIRCLE
  5
923
100
AcDbEntity
  8
DFP0102_DRL
100
AcDbCircle
 62
7
  6
CONTINUOUS
 10
5.416770342
 20
3.0996049528
 40
0.01
  0
CIRCLE
  5
924
100
AcDbEntity
  8
DFP0102_DRL
100
AcDbCircle
 62
7
  6
CONTINUOUS
 10
5.421770342
 20
2.9946049528
 40
0.01
  0
CIRCLE
  5
925
100
AcDbEntity
  8
DFP0102_DRL
100
AcDbCircle
 62
7
  6
CONTINUOUS
 10
5.871770342
 20
3.2146049528
 40
0.01
  0
CIRCLE
  5
926
100
AcDbEntity
  8
DFP0102_DRL
100
AcDbCircle
 62
7
  6
CONTINUOUS
 10
6.531770342
 20
3.2996049528
 40
0.01
  0
CIRCLE
  5
927
100
AcDbEntity
  8
DFP0102_DRL
100
AcDbCircle
 62
7
  6
CONTINUOUS
 10
5.436770342
 20
3.6096049528
 40
0.009
  0
CIRCLE
  5
928
100
AcDbEntity
  8
DFP0102_DRL
100
AcDbCircle
 62
7
  6
CONTINUOUS
 10
5.371770342
 20
3.4096049528
 40
0.009
  0
CIRCLE
  5
929
100
AcDbEntity
  8
DFP0102_DRL
100
AcDbCircle
 62
7
  6
CONTINUOUS
 10
5.581770342
 20
3.4096049528
 40
0.009
  0
CIRCLE
  5
92A
100
AcDbEntity
  8
DFP0102_DRL
100
AcDbCircle
 62
7
  6
CONTINUOUS
 10
5.491770342
 20
3.0396049528
 40
0.009
  0
CIRCLE
  5
92B
100
AcDbEntity
  8
DFP0102_DRL
100
AcDbCircle
 62
7
  6
CONTINUOUS
 10
5.351770342
 20
2.9896049528
 40
0.009
  0
CIRCLE
  5
92C
100
AcDbEntity
  8
DFP0102_DRL
100
AcDbCircle
 62
7
  6
CONTINUOUS
 10
5.711770342
 20
3.4096049528
 40
0.009
  0
CIRCLE
  5
92D
100
AcDbEntity
  8
DFP0102_DRL
100
AcDbCircle
 62
7
  6
CONTINUOUS
 10
5.876770342
 20
3.5996049528
 40
0.009
  0
CIRCLE
  5
92E
100
AcDbEntity
  8
ADT_PHO
100
AcDbCircle
 62
7
  6
CONTINUOUS
 10
6.181770342
 20
4.0846049528
 40
0.1
  0
CIRCLE
  5
92F
100
AcDbEntity
  8
DFP0102_DRL
100
AcDbCircle
 62
7
  6
CONTINUOUS
 10
6.181770342
 20
4.0846049528
 40
0.066
  0
CIRCLE
  5
930
100
AcDbEntity
  8
DFN0102_DRL
100
AcDbCircle
 62
7
  6
CONTINUOUS
 10
6.536770342
 20
4.3196049528
 40
0.06425
  0
CIRCLE
  5
931
100
AcDbEntity
  8
DFP0102_DRL
100
AcDbCircle
 62
7
  6
CONTINUOUS
 10
5.531770342
 20
3.9505892048
 40
0.023
  0
CIRCLE
  5
932
100
AcDbEntity
  8
DFP0102_DRL
100
AcDbCircle
 62
7
  6
CONTINUOUS
 10
5.431770342
 20
4.0175970788
 40
0.023
  0
CIRCLE
  5
933
100
AcDbEntity
  8
DFP0102_DRL
100
AcDbCircle
 62
7
  6
CONTINUOUS
 10
5.531770342
 20
4.0846049528
 40
0.023
  0
CIRCLE
  5
934
100
AcDbEntity
  8
DFP0102_DRL
100
AcDbCircle
 62
7
  6
CONTINUOUS
 10
5.431770342
 20
4.1516128268
 40
0.023
  0
CIRCLE
  5
935
100
AcDbEntity
  8
DFP0102_DRL
100
AcDbCircle
 62
7
  6
CONTINUOUS
 10
5.531770342
 20
4.2186207009
 40
0.023
  0
CIRCLE
  5
936
100
AcDbEntity
  8
DFP0102_DRL
100
AcDbCircle
 62
7
  6
CONTINUOUS
 10
5.426770342
 20
3.6746049528
 40
0.009
  0
CIRCLE
  5
937
100
AcDbEntity
  8
DFP0102_DRL
100
AcDbCircle
 62
7
  6
CONTINUOUS
 10
6.531770342
 20
3.7046049528
 40
0.009
  0
ENDSEC
  0
SECTION
  2
OBJECTS
  0
DICTIONARY
  5
C
100
AcDbDictionary
280
0
281
1
  3
ACAD_GROUP
350
D
  3
ACAD_MLINESTYLE
350
17
  3
ACAD_LAYOUT
350
1A
  3
ACAD_PLOTSETTINGS
350
19
  3
ACAD_PLOTSTYLENAME
350
E
  0
DICTIONARY
  5
D
102
{ACAD_REACTORS
330
C
102
}
100
AcDbDictionary
280
0
281
1
  0
ACDBDICTIONARYWDFLT
  5
E
102
{ACAD_REACTORS
330
C
102
}
100
AcDbDictionary
281
1
  3
Normal
350
F
100
AcDbDictionaryWithDefault
340
F
  0
DICTIONARY
  5
17
102
{ACAD_REACTORS
330
C
102
}
100
AcDbDictionary
280
0
281
1
  3
Standard
350
18
  0
DICTIONARY
  5
19
102
{ACAD_REACTORS
330
C
102
}
100
AcDbDictionary
281
1
  0
DICTIONARY
  5
1A
102
{ACAD_REACTORS
330
C
102
}
100
AcDbDictionary
281
1
  3
Model
350
938
  3
Layout1
350
939
  0
ACDBPLACEHOLDER
  5
F
102
{ACAD_REACTORS
330
E
102
}
  0
MLINESTYLE
  5
18
102
{ACAD_REACTORS
330
17
102
}
100
AcDbMlineStyle
  2
STANDARD
 70
0
  3

 62
256
 51
90.0
 52
90.0
 71
2
 49
0.5
 62
256
  6
BYLAYER
 49
-0.5
 62
256
  6
BYLAYER
  0
LAYOUT
  5
938
102
{ACAD_REACTORS
330
1A
102
}
100
AcDbPlotSettings
  1

  2
none_device
  4
ANSI_A_(11.00_x_8.50_Inches)
  6

 40
0.0
 41
0.0
 42
0.0
 43
0.0
 44
279.4
 45
215.9
 46
0.0
 47
0.0
 48
0.0
 49
0.0
140
0.0
141
0.0
142
1.0
143
1.0
 70
1024
 72
0
 73
0
 74
0
  7

 75
0
147
1.0
148
0.0
149
0.0
100
AcDbLayout
  1
Model
 70
0
 71
0
 10
0.0
 20
0.0
 11
11.0
 21
8.5
 12
0.0
 22
0.0
 32
0.0
 14
0.0
 24
0.0
 34
0.0
 15
0.0
 25
0.0
 35
0.0
146
0.0
 13
0.0
 23
0.0
 33
0.0
 16
1.0
 26
0.0
 36
0.0
 17
0.0
 27
1.0
 37
0.0
 76
0
330
203
345
0
346
0
  0
LAYOUT
  5
939
102
{ACAD_REACTORS
330
1A
102
}
100
AcDbPlotSettings
  1

  2
none_device
  4
ANSI_A_(11.00_x_8.50_Inches)
  6

 40
0.0
 41
0.0
 42
0.0
 43
0.0
 44
279.4
 45
215.9
 46
0.0
 47
0.0
 48
0.0
 49
0.0
140
0.0
141
0.0
142
1.0
143
1.0
 70
0
 72
0
 73
0
 74
0
  7

 75
0
147
1.0
148
0.0
149
0.0
100
AcDbLayout
  1
Layout1
 70
0
 71
1
 10
0.0
 20
0.0
 11
11.0
 21
8.5
 12
0.0
 22
0.0
 32
0.0
 14
0.0
 24
0.0
 34
0.0
 15
0.0
 25
0.0
 35
0.0
146
0.0
 13
0.0
 23
0.0
 33
0.0
 16
1.0
 26
0.0
 36
0.0
 17
0.0
 27
1.0
 37
0.0
 76
0
330
204
345
0
346
0
  0
ENDSEC
  0
EOF
