999
DXF file: d130.dxf
999
Pro/ENGINEER 2009380 by Parametric Technology Corporation
  0
SECTION
  2
HEADER
  9
$ACADVER
  1
AC1015
  9
$DWGCODEPAGE
  3
ANSI_1252
  9
$EXTMAX
 10
11.0
 20
8.5
 30
0.0
  9
$EXTMIN
 10
0.0
 20
0.0
 30
0.0
  9
$LIMMIN
 10
0.0
 20
0.0
  9
$LIMMAX
 10
11.0
 20
8.5
  9
$VIEWCTR
 10
5.5
 20
4.25
  9
$VIEWSIZE
 40
8.5
  9
$CLAYER
  8
0
  9
$LTSCALE
 40
0.605
  9
$CELTYPE
  6
BYLAYER
  9
$DIMSCALE
 40
1.0
  9
$DIMASZ
 40
0.1875
  9
$DIMEXO
 40
0.06875
  9
$DIMDLI
 40
0.418
  9
$DIMEXE
 40
0.198
  9
$DIMCEN
 40
0.099
  9
$DIMLFAC
 40
1.0
  9
$DIMBLK
  1
_CLOSED
  9
$DIMTXT
 40
0.125
  9
$DIMTOL
 70
0
  9
$DIMLIM
 70
0
  9
$DIMTFAC
 40
1.0
  9
$PDMODE
 70
3
  9
$PDSIZE
 40
0.3125
  9
$HANDSEED
  5
562
  9
$TILEMODE
 70
1
  9
$MEASUREMENT
 70
0
  9
$INSUNITS
 70
1
  0
ENDSEC
  0
SECTION
  2
CLASSES
  0
CLASS
  1
ACDBDICTIONARYWDFLT
  2
AcDbDictionaryWithDefault
  3
AutoCAD 2000
 90
0
280
0
281
0
  0
CLASS
  1
ACDBPLACEHOLDER
  2
AcDbPlaceHolder
  3
AutoCAD 2000
 90
0
280
0
281
0
  0
CLASS
  1
LAYOUT
  2
AcDbLayout
  3
AutoCAD 2000
 90
0
280
0
281
0
  0
ENDSEC
  0
SECTION
  2
TABLES
  0
TABLE
  2
VPORT
  5
8
100
AcDbSymbolTable
 70
2
  0
VPORT
  5
1F4
100
AcDbSymbolTableRecord
100
AcDbViewportTableRecord
  2
*ACTIVE
 70
0
 10
0.0
 20
0.0
 11
1.0
 21
1.0
 12
5.5
 22
4.25
 13
0.0
 23
0.0
 14
1.0
 24
1.0
 15
0.0
 25
0.0
 16
0.0
 26
0.0
 36
1.0
 17
0.0
 27
0.0
 37
0.0
 40
8.5
 41
1.2941176471
 42
50.0
 43
0.0
 44
0.0
 50
0.0
 51
0.0
 71
0
 72
100
 73
1
 74
1
 75
0
 76
0
 77
0
 78
0
  0
ENDTAB
  0
TABLE
  2
LTYPE
  5
5
100
AcDbSymbolTable
 70
6
  0
LTYPE
  5
14
100
AcDbSymbolTableRecord
100
AcDbLinetypeTableRecord
  2
BYBLOCK
 70
0
  3

 72
65
 73
0
 40
0.0
  0
LTYPE
  5
15
100
AcDbSymbolTableRecord
100
AcDbLinetypeTableRecord
  2
BYLAYER
 70
0
  3

 72
65
 73
0
 40
0.0
  0
LTYPE
  5
16
100
AcDbSymbolTableRecord
100
AcDbLinetypeTableRecord
  2
CONTINUOUS
 70
64
  3
Solid line
 72
65
 73
0
 40
0.0
  0
LTYPE
  5
1F5
100
AcDbSymbolTableRecord
100
AcDbLinetypeTableRecord
  2
CENTER
 70
64
  3
____ _ ____ _ ____ _ ____ _ ____ _ ____ _ ____
 72
65
 73
4
 40
0.6
 49
0.375
 74
0
 49
-0.075
 74
0
 49
0.075
 74
0
 49
-0.075
 74
0
  0
LTYPE
  5
1F6
100
AcDbSymbolTableRecord
100
AcDbLinetypeTableRecord
  2
HIDDEN
 70
64
  3
- - - - - - - - - - - - - - - - - - - -
 72
65
 73
2
 40
0.2
 49
0.1
 74
0
 49
-0.1
 74
0
  0
LTYPE
  5
1F7
100
AcDbSymbolTableRecord
100
AcDbLinetypeTableRecord
  2
PHANTOM
 70
64
  3
_____ _ _ _____ _ _ _____ _ _ _____
 72
65
 73
6
 40
0.8
 49
0.45
 74
0
 49
-0.05
 74
0
 49
0.1
 74
0
 49
-0.05
 74
0
 49
0.1
 74
0
 49
-0.05
 74
0
  0
LTYPE
  5
1F8
100
AcDbSymbolTableRecord
100
AcDbLinetypeTableRecord
  2
DOT
 70
64
  3
. . . . . . . . . . . . . . . . . . . .
 72
65
 73
2
 40
0.2
 49
0.1
 74
0
 49
-0.1
 74
0
  0
LTYPE
  5
1F9
100
AcDbSymbolTableRecord
100
AcDbLinetypeTableRecord
  2
DASHED
 70
64
  3
- - - - - - - - - - - - - - - - - - - -
 72
65
 73
2
 40
0.2
 49
0.1
 74
0
 49
-0.1
 74
0
  0
ENDTAB
  0
TABLE
  2
LAYER
  5
2
100
AcDbSymbolTable
 70
36
  0
LAYER
  5
10
100
AcDbSymbolTableRecord
100
AcDbLayerTableRecord
  2
0
 70
0
 62
7
  6
CONTINUOUS
370
-3
390
F
  0
LAYER
  5
1FA
100
AcDbSymbolTableRecord
100
AcDbLayerTableRecord
  2
DEFAULT_1
 70
0
 62
7
  6
CENTER
370
-3
390
F
  0
LAYER
  5
1FB
100
AcDbSymbolTableRecord
100
AcDbLayerTableRecord
  2
DEFAULT_2
 70
0
 62
8
  6
HIDDEN
370
-3
390
F
  0
LAYER
  5
1FC
100
AcDbSymbolTableRecord
100
AcDbLayerTableRecord
  2
DEFAULT_3
 70
0
 62
7
  6
PHANTOM
370
-3
390
F
  0
LAYER
  5
1FD
100
AcDbSymbolTableRecord
100
AcDbLayerTableRecord
  2
DFN0102_DRL
 70
0
 62
7
  6
CONTINUOUS
370
-3
390
F
  0
LAYER
  5
1FE
100
AcDbSymbolTableRecord
100
AcDbLayerTableRecord
  2
DFP0102_DRL
 70
0
 62
7
  6
CONTINUOUS
370
-3
390
F
  0
LAYER
  5
1FF
100
AcDbSymbolTableRecord
100
AcDbLayerTableRecord
  2
SST_PHO
 70
0
 62
7
  6
CONTINUOUS
370
-3
390
F
  0
ENDTAB
  0
TABLE
  2
STYLE
  5
3
100
AcDbSymbolTable
 70
1
  0
STYLE
  5
11
100
AcDbSymbolTableRecord
100
AcDbTextStyleTableRecord
  2
STANDARD
 70
0
 40
0.0
 41
0.8
 50
0.0
 71
0
 42
0.2
  3
txt
  4

  0
STYLE
  5
200
100
AcDbSymbolTableRecord
100
AcDbTextStyleTableRecord
  2
TEXTSTYLE_1
 70
0
 40
0.0
 41
0.8
 50
0.0
 71
0
 42
0.2
  3
gdt
  4

  0
ENDTAB
  0
TABLE
  2
VIEW
  5
6
100
AcDbSymbolTable
 70
0
  0
ENDTAB
  0
TABLE
  2
UCS
  5
7
100
AcDbSymbolTable
 70
0
  0
ENDTAB
  0
TABLE
  2
APPID
  5
9
100
AcDbSymbolTable
 70
1
  0
APPID
  5
201
100
AcDbSymbolTableRecord
100
AcDbRegAppTableRecord
  2
ACAD
 70
0
  0
ENDTAB
  0
TABLE
  2
BLOCK_RECORD
  5
1
100
AcDbSymbolTable
 70
0
  0
BLOCK_RECORD
  5
202
100
AcDbSymbolTableRecord
100
AcDbBlockTableRecord
  2
*Model_Space
  0
BLOCK_RECORD
  5
203
100
AcDbSymbolTableRecord
100
AcDbBlockTableRecord
  2
*Paper_Space
  0
BLOCK_RECORD
  5
204
100
AcDbSymbolTableRecord
100
AcDbBlockTableRecord
  2
_CLOSED
  0
BLOCK_RECORD
  5
205
100
AcDbSymbolTableRecord
100
AcDbBlockTableRecord
  2
*D0
  0
BLOCK_RECORD
  5
206
100
AcDbSymbolTableRecord
100
AcDbBlockTableRecord
  2
*D1
  0
ENDTAB
  0
TABLE
  2
DIMSTYLE
  5
A
100
AcDbSymbolTable
 70
1
100
AcDbDimStyleTable
 71
0
  0
DIMSTYLE
105
207
100
AcDbSymbolTableRecord
100
AcDbDimStyleTableRecord
  2
STANDARD
 70
0
  3

  4

 40
1.0
 41
0.1875
 42
0.0625
 43
0.38
 44
0.18
 45
0.0
 46
0.0
 47
0.01
 48
0.01
140
0.125
141
0.09
142
0.0
143
25.4
144
1.0
145
0.0
146
1.0
147
0.09
 71
0.0
 72
0.0
 73
1
 74
1
 75
0
 76
0
 77
0
 78
4
170
0
171
2
172
0
173
0
174
0
175
0
176
0
177
0
178
0
270
2
271
2
272
2
273
2
274
2
275
0
280
0
281
0
282
0
283
1
284
4
285
0
286
0
287
3
288
0
340
11
341
204
342
204
343
204
344
204
  0
DIMSTYLE
105
208
100
AcDbSymbolTableRecord
100
AcDbDimStyleTableRecord
  2
DIMSTYLE_1
 70
0
  3

  4

 40
1.0
 41
0.1875
 42
0.0625
 43
0.38
 44
0.18
 45
0.0
 46
0.0
 47
0.0
 48
0.0
140
0.125
141
0.09
142
0.0
143
25.4
144
1.0
145
0.0
146
1.0
147
0.09
 71
0.0
 72
0.0
 73
1
 74
1
 75
0
 76
0
 77
0
 78
4
170
0
171
2
172
0
173
0
174
0
175
0
176
0
177
0
178
0
270
2
271
2
272
2
273
2
274
2
275
0
280
0
281
0
282
0
283
1
284
4
285
0
286
0
287
3
288
0
340
11
341
204
342
204
343
204
344
204
  0
ENDTAB
  0
ENDSEC
  0
SECTION
  2
BLOCKS
  0
BLOCK
  5
20
100
AcDbEntity
  8
0
100
AcDbBlockBegin
  2
*Model_Space
 70
0
 10
0.0
 20
0.0
 30
0.0
  3
*Model_Space
  1

  0
ENDBLK
  5
21
100
AcDbEntity
  8
0
100
AcDbBlockEnd
  0
BLOCK
  5
1C
100
AcDbEntity
  8
0
100
AcDbBlockBegin
  2
*Paper_Space
 70
0
 10
0.0
 20
0.0
 30
0.0
  3
*Paper_Space
  1

  0
ENDBLK
  5
1D
100
AcDbEntity
  8
0
100
AcDbBlockEnd
  0
BLOCK
  5
209
100
AcDbEntity
  8
0
100
AcDbBlockBegin
  2
_CLOSED
 70
64
 10
0.0
 20
0.0
  3
_CLOSED
  1

  0
LINE
  5
20A
100
AcDbEntity
  8
0
  6
BYBLOCK
 62
0
100
AcDbLine
 10
0.0
 20
0.0
 11
-1.0
 21
0.1666666667
  0
LINE
  5
20B
100
AcDbEntity
  8
0
  6
BYBLOCK
 62
0
100
AcDbLine
 10
-1.0
 20
0.1666666667
 11
-1.0
 21
-0.1666666667
  0
LINE
  5
20C
100
AcDbEntity
  8
0
  6
BYBLOCK
 62
0
100
AcDbLine
 10
-1.0
 20
-0.1666666667
 11
0.0
 21
0.0
  0
LINE
  5
20D
100
AcDbEntity
  8
0
  6
BYBLOCK
 62
0
100
AcDbLine
 10
-1.0
 20
0.0
 11
0.0
 21
0.0
  0
ENDBLK
  5
20E
100
AcDbEntity
  8
0
  6
BYBLOCK
 62
0
100
AcDbBlockEnd
  0
BLOCK
  5
20F
100
AcDbEntity
  8
0
100
AcDbBlockBegin
 62
2
  6
CONTINUOUS
  2
*D0
 70
65
 10
0.0
 20
0.0
  3
*D0
  1

  0
MTEXT
  5
210
100
AcDbEntity
  8
0
100
AcDbMText
 62
2
  6
CONTINUOUS
  7
STANDARD
 71
2
 72
1
 10
2.6124524175
 20
4.2249410377
 30
0.0
 11
1.0
 21
0.0
 31
0.0
 44
0.9
  1
3.00
 40
0.125
 41
0.4
  0
LINE
  5
211
100
AcDbEntity
  8
0
100
AcDbLine
 62
2
  6
CONTINUOUS
 10
1.1124524175
 20
3.8303729363
 11
1.1124524175
 21
4.2874410377
  0
LINE
  5
212
100
AcDbEntity
  8
0
100
AcDbLine
 62
2
  6
CONTINUOUS
 10
4.1124524175
 20
3.8303729363
 11
4.1124524175
 21
4.2874410377
  0
LINE
  5
213
100
AcDbEntity
  8
0
100
AcDbLine
 62
2
  6
CONTINUOUS
 10
1.1124524175
 20
4.1624410377
 11
2.3499524175
 21
4.1624410377
  0
LINE
  5
214
100
AcDbEntity
  8
0
100
AcDbLine
 62
2
  6
CONTINUOUS
 10
4.1124524175
 20
4.1624410377
 11
2.8749524175
 21
4.1624410377
  0
INSERT
  5
215
100
AcDbEntity
  8
0
100
AcDbBlockReference
 62
2
  6
CONTINUOUS
  2
_CLOSED
 10
1.1124524175
 20
4.1624410377
 41
0.1875
 42
0.1875
 43
0.1875
 50
180.0
  0
INSERT
  5
216
100
AcDbEntity
  8
0
100
AcDbBlockReference
 62
2
  6
CONTINUOUS
  2
_CLOSED
 10
4.1124524175
 20
4.1624410377
 41
0.1875
 42
0.1875
 43
0.1875
  0
ENDBLK
  5
217
100
AcDbEntity
  8
0
  6
BYBLOCK
 62
0
100
AcDbBlockEnd
  0
BLOCK
  5
218
100
AcDbEntity
  8
0
100
AcDbBlockBegin
 62
2
  6
CONTINUOUS
  2
*D1
 70
65
 10
0.0
 20
0.0
  3
*D1
  1

  0
MTEXT
  5
219
100
AcDbEntity
  8
0
100
AcDbMText
 62
2
  6
CONTINUOUS
  7
STANDARD
 71
2
 72
1
 10
4.6736622936
 20
2.4553729363
 30
0.0
 11
1.0
 21
0.0
 31
0.0
 44
0.9
  1
2.75
 40
0.125
 41
0.4
  0
LINE
  5
21A
100
AcDbEntity
  8
0
100
AcDbLine
 62
2
  6
CONTINUOUS
 10
4.1749524175
 20
3.7678729363
 11
4.7986622936
 21
3.7678729363
  0
LINE
  5
21B
100
AcDbEntity
  8
0
100
AcDbLine
 62
2
  6
CONTINUOUS
 10
4.1749524175
 20
1.0178729363
 11
4.7986622936
 21
1.0178729363
  0
LINE
  5
21C
100
AcDbEntity
  8
0
100
AcDbLine
 62
2
  6
CONTINUOUS
 10
4.6736622936
 20
3.7678729363
 11
4.6736622936
 21
2.5178729363
  0
LINE
  5
21D
100
AcDbEntity
  8
0
100
AcDbLine
 62
2
  6
CONTINUOUS
 10
4.6736622936
 20
1.0178729363
 11
4.6736622936
 21
2.2678729363
  0
INSERT
  5
21E
100
AcDbEntity
  8
0
100
AcDbBlockReference
 62
2
  6
CONTINUOUS
  2
_CLOSED
 10
4.6736622936
 20
3.7678729363
 41
0.1875
 42
0.1875
 43
0.1875
 50
90.0
  0
INSERT
  5
21F
100
AcDbEntity
  8
0
100
AcDbBlockReference
 62
2
  6
CONTINUOUS
  2
_CLOSED
 10
4.6736622936
 20
1.0178729363
 41
0.1875
 42
0.1875
 43
0.1875
 50
270.0
  0
ENDBLK
  5
220
100
AcDbEntity
  8
0
  6
BYBLOCK
 62
0
100
AcDbBlockEnd
  0
ENDSEC
  0
SECTION
  2
ENTITIES
  0
DIMENSION
  5
221
100
AcDbEntity
  8
0
100
AcDbDimension
 62
2
  6
CONTINUOUS
  2
*D0
 10
4.1124524175
 20
4.1624410377
 11
2.4124524175
 21
4.1624410377
 70
160
 71
2
 42
3.0
  3
DIMSTYLE_1
100
AcDbAlignedDimension
 13
1.1124524175
 23
3.8303729363
 14
4.1124524175
 24
3.8303729363
100
AcDbRotatedDimension
  0
DIMENSION
  5
222
100
AcDbEntity
  8
0
100
AcDbDimension
 62
2
  6
CONTINUOUS
  2
*D1
 10
4.6736622936
 20
1.0178729363
 11
4.4736622936
 21
2.3928729363
 70
160
 71
2
 42
2.75
  3
DIMSTYLE_1
100
AcDbAlignedDimension
 13
4.1749524175
 23
3.7678729363
 14
4.1749524175
 24
1.0178729363
 50
270.0
100
AcDbRotatedDimension
  0
LINE
  5
223
100
AcDbEntity
  8
SST_PHO
100
AcDbLine
 62
7
  6
CONTINUOUS
 10
1.3672524175
 20
1.9539729363
 11
1.3737524175
 21
1.9464729363
  0
LINE
  5
224
100
AcDbEntity
  8
SST_PHO
100
AcDbLine
 62
7
  6
CONTINUOUS
 10
1.3739524175
 20
2.0136729363
 11
1.3674524175
 21
2.0211729363
  0
LINE
  5
225
100
AcDbEntity
  8
SST_PHO
100
AcDbLine
 62
7
  6
CONTINUOUS
 10
1.2659524175
 20
2.0117729363
 11
1.2724524175
 21
2.0037729363
  0
LINE
  5
226
100
AcDbEntity
  8
SST_PHO
100
AcDbLine
 62
7
  6
CONTINUOUS
 10
1.2400524175
 20
2.1056729363
 11
1.2335524175
 21
2.1141729363
  0
LINE
  5
227
100
AcDbEntity
  8
SST_PHO
100
AcDbLine
 62
7
  6
CONTINUOUS
 10
1.2920524175
 20
2.1566729363
 11
1.2985524175
 21
2.1481729363
  0
LINE
  5
228
100
AcDbEntity
  8
SST_PHO
100
AcDbLine
 62
7
  6
CONTINUOUS
 10
1.1124524175
 20
1.0178729363
 11
1.1124524175
 21
3.7678729363
  0
LINE
  5
229
100
AcDbEntity
  8
SST_PHO
100
AcDbLine
 62
7
  6
CONTINUOUS
 10
1.1604524175
 20
1.8661729363
 11
1.1604524175
 21
1.9636729363
  0
LINE
  5
22A
100
AcDbEntity
  8
SST_PHO
100
AcDbLine
 62
7
  6
CONTINUOUS
 10
1.2074524175
 20
2.0117729363
 11
1.2074524175
 21
1.9717729363
  0
LINE
  5
22B
100
AcDbEntity
  8
SST_PHO
100
AcDbLine
 62
7
  6
CONTINUOUS
 10
1.2271524175
 20
1.9313729363
 11
1.2271524175
 21
1.8913729363
  0
LINE
  5
22C
100
AcDbEntity
  8
SST_PHO
100
AcDbLine
 62
7
  6
CONTINUOUS
 10
1.2335524175
 20
2.1141729363
 11
1.2335524175
 21
2.1481729363
  0
LINE
  5
22D
100
AcDbEntity
  8
SST_PHO
100
AcDbLine
 62
7
  6
CONTINUOUS
 10
1.2335524175
 20
2.7653729363
 11
1.2335524175
 21
2.7993729363
  0
LINE
  5
22E
100
AcDbEntity
  8
SST_PHO
100
AcDbLine
 62
7
  6
CONTINUOUS
 10
1.2347524175
 20
2.5226729363
 11
1.2347524175
 21
2.5546729363
  0
LINE
  5
22F
100
AcDbEntity
  8
SST_PHO
100
AcDbLine
 62
7
  6
CONTINUOUS
 10
1.2347524175
 20
2.6026729363
 11
1.2347524175
 21
2.6346729363
  0
LINE
  5
230
100
AcDbEntity
  8
SST_PHO
100
AcDbLine
 62
7
  6
CONTINUOUS
 10
1.2724524175
 20
2.0037729363
 11
1.2724524175
 21
1.9797729363
  0
LINE
  5
231
100
AcDbEntity
  8
SST_PHO
100
AcDbLine
 62
7
  6
CONTINUOUS
 10
1.2985524175
 20
2.7993729363
 11
1.2985524175
 21
2.7653729363
  0
LINE
  5
232
100
AcDbEntity
  8
SST_PHO
100
AcDbLine
 62
7
  6
CONTINUOUS
 10
1.2985524175
 20
2.1481729363
 11
1.2985524175
 21
2.1141729363
  0
LINE
  5
233
100
AcDbEntity
  8
SST_PHO
100
AcDbLine
 62
7
  6
CONTINUOUS
 10
1.2997524175
 20
2.6346729363
 11
1.2997524175
 21
2.6026729363
  0
LINE
  5
234
100
AcDbEntity
  8
SST_PHO
100
AcDbLine
 62
7
  6
CONTINUOUS
 10
1.2997524175
 20
2.5546729363
 11
1.2997524175
 21
2.5226729363
  0
LINE
  5
235
100
AcDbEntity
  8
SST_PHO
100
AcDbLine
 62
7
  6
CONTINUOUS
 10
1.3087524175
 20
1.9539729363
 11
1.3087524175
 21
1.9164729363
  0
LINE
  5
236
100
AcDbEntity
  8
SST_PHO
100
AcDbLine
 62
7
  6
CONTINUOUS
 10
1.3089524175
 20
2.0286729363
 11
1.3089524175
 21
1.9986729363
  0
LINE
  5
237
100
AcDbEntity
  8
SST_PHO
100
AcDbLine
 62
7
  6
CONTINUOUS
 10
1.2726524175
 20
1.8993729363
 11
1.2271524175
 21
1.9313729363
  0
LINE
  5
238
100
AcDbEntity
  8
SST_PHO
100
AcDbLine
 62
7
  6
CONTINUOUS
 10
1.2329524175
 20
2.2386729363
 11
1.3004524175
 21
2.1873729363
  0
LINE
  5
239
100
AcDbEntity
  8
SST_PHO
100
AcDbLine
 62
7
  6
CONTINUOUS
 10
1.3092524175
 20
1.8011729363
 11
1.3742524175
 21
1.7511729363
  0
LINE
  5
23A
100
AcDbEntity
  8
SST_PHO
100
AcDbLine
 62
7
  6
CONTINUOUS
 10
1.3542524175
 20
1.9164729363
 11
1.3087524175
 21
1.9539729363
  0
LINE
  5
23B
100
AcDbEntity
  8
SST_PHO
100
AcDbLine
 62
7
  6
CONTINUOUS
 10
1.2529524175
 20
1.9717729363
 11
1.2074524175
 21
2.0117729363
  0
LINE
  5
23C
100
AcDbEntity
  8
SST_PHO
100
AcDbLine
 62
7
  6
CONTINUOUS
 10
1.2412524175
 20
2.5146729363
 11
1.2347524175
 21
2.5226729363
  0
LINE
  5
23D
100
AcDbEntity
  8
SST_PHO
100
AcDbLine
 62
7
  6
CONTINUOUS
 10
1.2412524175
 20
2.5946729363
 11
1.2347524175
 21
2.6026729363
  0
LINE
  5
23E
100
AcDbEntity
  8
SST_PHO
100
AcDbLine
 62
7
  6
CONTINUOUS
 10
1.2932524175
 20
2.5626729363
 11
1.2997524175
 21
2.5546729363
  0
LINE
  5
23F
100
AcDbEntity
  8
SST_PHO
100
AcDbLine
 62
7
  6
CONTINUOUS
 10
1.2932524175
 20
2.6426729363
 11
1.2997524175
 21
2.6346729363
  0
LINE
  5
240
100
AcDbEntity
  8
SST_PHO
100
AcDbLine
 62
7
  6
CONTINUOUS
 10
1.2400524175
 20
2.7568729363
 11
1.2335524175
 21
2.7653729363
  0
LINE
  5
241
100
AcDbEntity
  8
SST_PHO
100
AcDbLine
 62
7
  6
CONTINUOUS
 10
1.2920524175
 20
2.8078729363
 11
1.2985524175
 21
2.7993729363
  0
LINE
  5
242
100
AcDbEntity
  8
SST_PHO
100
AcDbLine
 62
7
  6
CONTINUOUS
 10
1.3737524175
 20
1.9464729363
 11
1.3737524175
 21
1.9239729363
  0
LINE
  5
243
100
AcDbEntity
  8
SST_PHO
100
AcDbLine
 62
7
  6
CONTINUOUS
 10
1.4092524175
 20
3.0311729363
 11
1.4092524175
 21
1.7286729363
  0
LINE
  5
244
100
AcDbEntity
  8
SST_PHO
100
AcDbLine
 62
7
  6
CONTINUOUS
 10
1.4796524175
 20
3.4736729363
 11
1.4796524175
 21
3.5216729363
  0
LINE
  5
245
100
AcDbEntity
  8
SST_PHO
100
AcDbLine
 62
7
  6
CONTINUOUS
 10
1.4808524175
 20
3.6266729363
 11
1.4808524175
 21
3.5666729363
  0
LINE
  5
246
100
AcDbEntity
  8
SST_PHO
100
AcDbLine
 62
7
  6
CONTINUOUS
 10
1.5195524175
 20
3.5724729363
 11
1.5195524175
 21
3.6204729363
  0
LINE
  5
247
100
AcDbEntity
  8
SST_PHO
100
AcDbLine
 62
7
  6
CONTINUOUS
 10
1.5446524175
 20
3.4736729363
 11
1.5446524175
 21
3.5216729363
  0
LINE
  5
248
100
AcDbEntity
  8
SST_PHO
100
AcDbLine
 62
7
  6
CONTINUOUS
 10
1.5588524175
 20
3.5667729363
 11
1.5588524175
 21
3.6267729363
  0
LINE
  5
249
100
AcDbEntity
  8
SST_PHO
100
AcDbLine
 62
7
  6
CONTINUOUS
 10
1.5836524175
 20
3.5216729363
 11
1.5836524175
 21
3.4736729363
  0
LINE
  5
24A
100
AcDbEntity
  8
SST_PHO
100
AcDbLine
 62
7
  6
CONTINUOUS
 10
1.6096524175
 20
3.5276729363
 11
1.6096524175
 21
3.4676729363
  0
LINE
  5
24B
100
AcDbEntity
  8
SST_PHO
100
AcDbLine
 62
7
  6
CONTINUOUS
 10
1.6433524175
 20
3.6207729363
 11
1.6433524175
 21
3.6027729363
  0
LINE
  5
24C
100
AcDbEntity
  8
SST_PHO
100
AcDbLine
 62
7
  6
CONTINUOUS
 10
1.6433524175
 20
3.5907729363
 11
1.6433524175
 21
3.5727729363
  0
LINE
  5
24D
100
AcDbEntity
  8
SST_PHO
100
AcDbLine
 62
7
  6
CONTINUOUS
 10
1.6486524175
 20
3.4676729363
 11
1.6486524175
 21
3.5276729363
  0
LINE
  5
24E
100
AcDbEntity
  8
SST_PHO
100
AcDbLine
 62
7
  6
CONTINUOUS
 10
1.6743524175
 20
3.4674729363
 11
1.6743524175
 21
3.5274729363
  0
LINE
  5
24F
100
AcDbEntity
  8
SST_PHO
100
AcDbLine
 62
7
  6
CONTINUOUS
 10
1.6758524175
 20
3.5727729363
 11
1.6758524175
 21
3.6207729363
  0
LINE
  5
250
100
AcDbEntity
  8
SST_PHO
100
AcDbLine
 62
7
  6
CONTINUOUS
 10
1.7083524175
 20
3.6207729363
 11
1.7083524175
 21
3.5727729363
  0
LINE
  5
251
100
AcDbEntity
  8
SST_PHO
100
AcDbLine
 62
7
  6
CONTINUOUS
 10
1.7133524175
 20
3.5214729363
 11
1.7133524175
 21
3.5034729363
  0
LINE
  5
252
100
AcDbEntity
  8
SST_PHO
100
AcDbLine
 62
7
  6
CONTINUOUS
 10
2.5566524175
 20
1.5416729363
 11
2.5447524175
 21
1.5487729363
  0
LINE
  5
253
100
AcDbEntity
  8
SST_PHO
100
AcDbLine
 62
7
  6
CONTINUOUS
 10
2.5630524175
 20
1.5525729363
 11
2.5525524175
 21
1.5588729363
  0
LINE
  5
254
100
AcDbEntity
  8
SST_PHO
100
AcDbLine
 62
7
  6
CONTINUOUS
 10
2.5447524175
 20
1.5487729363
 11
2.5339524175
 21
1.5572729363
  0
LINE
  5
255
100
AcDbEntity
  8
SST_PHO
100
AcDbLine
 62
7
  6
CONTINUOUS
 10
2.5525524175
 20
1.5588729363
 11
2.5430524175
 21
1.5663729363
  0
LINE
  5
256
100
AcDbEntity
  8
SST_PHO
100
AcDbLine
 62
7
  6
CONTINUOUS
 10
2.1392524175
 20
2.1611729363
 11
2.1179524175
 21
2.1823729363
  0
LINE
  5
257
100
AcDbEntity
  8
SST_PHO
100
AcDbLine
 62
7
  6
CONTINUOUS
 10
2.5339524175
 20
1.5572729363
 11
2.5241524175
 21
1.5670729363
  0
LINE
  5
258
100
AcDbEntity
  8
SST_PHO
100
AcDbLine
 62
7
  6
CONTINUOUS
 10
2.5430524175
 20
1.5663729363
 11
2.5344524175
 21
1.5749729363
  0
LINE
  5
259
100
AcDbEntity
  8
SST_PHO
100
AcDbLine
 62
7
  6
CONTINUOUS
 10
2.6765524175
 20
1.7170729363
 11
2.6851524175
 21
1.7084729363
  0
LINE
  5
25A
100
AcDbEntity
  8
SST_PHO
100
AcDbLine
 62
7
  6
CONTINUOUS
 10
2.5344524175
 20
1.5749729363
 11
2.5269524175
 21
1.5844729363
  0
LINE
  5
25B
100
AcDbEntity
  8
SST_PHO
100
AcDbLine
 62
7
  6
CONTINUOUS
 10
2.5241524175
 20
1.5670729363
 11
2.5156524175
 21
1.5779729363
  0
LINE
  5
25C
100
AcDbEntity
  8
SST_PHO
100
AcDbLine
 62
7
  6
CONTINUOUS
 10
2.3967524175
 20
1.6011729363
 11
2.4342524175
 21
1.5423729363
  0
LINE
  5
25D
100
AcDbEntity
  8
SST_PHO
100
AcDbLine
 62
7
  6
CONTINUOUS
 10
2.5156524175
 20
1.5779729363
 11
2.5084524175
 21
1.5897729363
  0
LINE
  5
25E
100
AcDbEntity
  8
SST_PHO
100
AcDbLine
 62
7
  6
CONTINUOUS
 10
2.5269524175
 20
1.5844729363
 11
2.5206524175
 21
1.5949729363
  0
LINE
  5
25F
100
AcDbEntity
  8
SST_PHO
100
AcDbLine
 62
7
  6
CONTINUOUS
 10
1.6291524175
 20
3.4856729363
 11
1.6096524175
 21
3.5276729363
  0
LINE
  5
260
100
AcDbEntity
  8
SST_PHO
100
AcDbLine
 62
7
  6
CONTINUOUS
 10
2.5206524175
 20
1.5949729363
 11
2.5156524175
 21
1.6059729363
  0
LINE
  5
261
100
AcDbEntity
  8
SST_PHO
100
AcDbLine
 62
7
  6
CONTINUOUS
 10
2.5084524175
 20
1.5897729363
 11
2.5027524175
 21
1.6023729363
  0
LINE
  5
262
100
AcDbEntity
  8
SST_PHO
100
AcDbLine
 62
7
  6
CONTINUOUS
 10
1.7396524175
 20
3.4736729363
 11
1.7396524175
 21
3.5216729363
  0
LINE
  5
263
100
AcDbEntity
  8
SST_PHO
100
AcDbLine
 62
7
  6
CONTINUOUS
 10
1.7786524175
 20
3.5216729363
 11
1.7786524175
 21
3.4736729363
  0
LINE
  5
264
100
AcDbEntity
  8
SST_PHO
100
AcDbLine
 62
7
  6
CONTINUOUS
 10
1.8046524175
 20
3.4676729363
 11
1.8046524175
 21
3.5276729363
  0
LINE
  5
265
100
AcDbEntity
  8
SST_PHO
100
AcDbLine
 62
7
  6
CONTINUOUS
 10
1.8058524175
 20
3.5713729363
 11
1.8058524175
 21
3.6313729363
  0
LINE
  5
266
100
AcDbEntity
  8
SST_PHO
100
AcDbLine
 62
7
  6
CONTINUOUS
 10
1.8436524175
 20
3.4676729363
 11
1.8436524175
 21
3.5276729363
  0
LINE
  5
267
100
AcDbEntity
  8
SST_PHO
100
AcDbLine
 62
7
  6
CONTINUOUS
 10
1.8448524175
 20
3.6253729363
 11
1.8448524175
 21
3.6073729363
  0
LINE
  5
268
100
AcDbEntity
  8
SST_PHO
100
AcDbLine
 62
7
  6
CONTINUOUS
 10
1.8696524175
 20
3.4678729363
 11
1.8696524175
 21
3.5278729363
  0
LINE
  5
269
100
AcDbEntity
  8
SST_PHO
100
AcDbLine
 62
7
  6
CONTINUOUS
 10
1.8708524175
 20
3.5716729363
 11
1.8708524175
 21
3.6316729363
  0
LINE
  5
26A
100
AcDbEntity
  8
SST_PHO
100
AcDbLine
 62
7
  6
CONTINUOUS
 10
1.9346524175
 20
3.4676729363
 11
1.9346524175
 21
3.5276729363
  0
LINE
  5
26B
100
AcDbEntity
  8
SST_PHO
100
AcDbLine
 62
7
  6
CONTINUOUS
 10
1.9358524175
 20
3.6316729363
 11
1.9358524175
 21
3.5716729363
  0
LINE
  5
26C
100
AcDbEntity
  8
SST_PHO
100
AcDbLine
 62
7
  6
CONTINUOUS
 10
1.9736524175
 20
3.4676729363
 11
1.9736524175
 21
3.5276729363
  0
LINE
  5
26D
100
AcDbEntity
  8
SST_PHO
100
AcDbLine
 62
7
  6
CONTINUOUS
 10
2.0092524175
 20
1.7286729363
 11
2.0092524175
 21
3.0311729363
  0
LINE
  5
26E
100
AcDbEntity
  8
SST_PHO
100
AcDbLine
 62
7
  6
CONTINUOUS
 10
2.0191524175
 20
3.4677729363
 11
2.0191524175
 21
3.5277729363
  0
LINE
  5
26F
100
AcDbEntity
  8
SST_PHO
100
AcDbLine
 62
7
  6
CONTINUOUS
 10
2.0342524175
 20
2.8911729363
 11
2.0342524175
 21
3.3936729363
  0
LINE
  5
270
100
AcDbEntity
  8
SST_PHO
100
AcDbLine
 62
7
  6
CONTINUOUS
 10
2.0842524175
 20
2.2323729363
 11
2.0842524175
 21
2.1536729363
  0
LINE
  5
271
100
AcDbEntity
  8
SST_PHO
100
AcDbLine
 62
7
  6
CONTINUOUS
 10
2.0853524175
 20
3.5955729363
 11
2.0853524175
 21
3.5715729363
  0
LINE
  5
272
100
AcDbEntity
  8
SST_PHO
100
AcDbLine
 62
7
  6
CONTINUOUS
 10
2.5857524175
 20
1.5439729363
 11
2.5740524175
 21
1.5475729363
  0
LINE
  5
273
100
AcDbEntity
  8
SST_PHO
100
AcDbLine
 62
7
  6
CONTINUOUS
 10
1.3734524175
 20
1.8336729363
 11
1.3084524175
 21
1.8561729363
  0
LINE
  5
274
100
AcDbEntity
  8
SST_PHO
100
AcDbLine
 62
7
  6
CONTINUOUS
 10
1.2721524175
 20
1.8033729363
 11
1.2071524175
 21
1.8273729363
  0
LINE
  5
275
100
AcDbEntity
  8
SST_PHO
100
AcDbLine
 62
7
  6
CONTINUOUS
 10
2.6503524175
 20
1.7499729363
 11
2.6629524175
 21
1.7442729363
  0
LINE
  5
276
100
AcDbEntity
  8
SST_PHO
100
AcDbLine
 62
7
  6
CONTINUOUS
 10
2.5740524175
 20
1.5475729363
 11
2.5630524175
 21
1.5525729363
  0
LINE
  5
277
100
AcDbEntity
  8
SST_PHO
100
AcDbLine
 62
7
  6
CONTINUOUS
 10
2.6455524175
 20
1.7358729363
 11
2.6565524175
 21
1.7308729363
  0
LINE
  5
278
100
AcDbEntity
  8
SST_PHO
100
AcDbLine
 62
7
  6
CONTINUOUS
 10
1.2997524175
 20
2.4346729363
 11
1.2542524175
 21
2.4586729363
  0
LINE
  5
279
100
AcDbEntity
  8
SST_PHO
100
AcDbLine
 62
7
  6
CONTINUOUS
 10
2.6629524175
 20
1.7442729363
 11
2.6748524175
 21
1.7371729363
  0
LINE
  5
27A
100
AcDbEntity
  8
SST_PHO
100
AcDbLine
 62
7
  6
CONTINUOUS
 10
2.6565524175
 20
1.7308729363
 11
2.6670524175
 21
1.7245729363
  0
LINE
  5
27B
100
AcDbEntity
  8
SST_PHO
100
AcDbLine
 62
7
  6
CONTINUOUS
 10
3.1205524175
 20
1.4036729363
 11
3.0580524175
 21
1.4436729363
  0
LINE
  5
27C
100
AcDbEntity
  8
SST_PHO
100
AcDbLine
 62
7
  6
CONTINUOUS
 10
2.1442524175
 20
2.1536729363
 11
2.0817524175
 21
2.1936729363
  0
LINE
  5
27D
100
AcDbEntity
  8
SST_PHO
100
AcDbLine
 62
7
  6
CONTINUOUS
 10
1.2329524175
 20
2.8861729363
 11
1.2992524175
 21
2.8373729363
  0
LINE
  5
27E
100
AcDbEntity
  8
SST_PHO
100
AcDbLine
 62
7
  6
CONTINUOUS
 10
2.6748524175
 20
1.7371729363
 11
2.6856524175
 21
1.7286729363
  0
LINE
  5
27F
100
AcDbEntity
  8
SST_PHO
100
AcDbLine
 62
7
  6
CONTINUOUS
 10
2.6670524175
 20
1.7245729363
 11
2.6765524175
 21
1.7170729363
  0
LINE
  5
280
100
AcDbEntity
  8
SST_PHO
100
AcDbLine
 62
7
  6
CONTINUOUS
 10
3.1155524175
 20
1.4111729363
 11
3.0942524175
 21
1.4323729363
  0
LINE
  5
281
100
AcDbEntity
  8
SST_PHO
100
AcDbLine
 62
7
  6
CONTINUOUS
 10
2.6856524175
 20
1.7286729363
 11
2.6954524175
 21
1.7188729363
  0
LINE
  5
282
100
AcDbEntity
  8
SST_PHO
100
AcDbLine
 62
7
  6
CONTINUOUS
 10
2.6851524175
 20
1.7084729363
 11
2.6926524175
 21
1.6989729363
  0
LINE
  5
283
100
AcDbEntity
  8
SST_PHO
100
AcDbLine
 62
7
  6
CONTINUOUS
 10
2.6954524175
 20
1.7188729363
 11
2.7039524175
 21
1.7079729363
  0
LINE
  5
284
100
AcDbEntity
  8
SST_PHO
100
AcDbLine
 62
7
  6
CONTINUOUS
 10
1.8046524175
 20
3.5276729363
 11
1.8436524175
 21
3.4676729363
  0
LINE
  5
285
100
AcDbEntity
  8
SST_PHO
100
AcDbLine
 62
7
  6
CONTINUOUS
 10
2.7039524175
 20
1.7079729363
 11
2.7111524175
 21
1.6961729363
  0
LINE
  5
286
100
AcDbEntity
  8
SST_PHO
100
AcDbLine
 62
7
  6
CONTINUOUS
 10
2.6926524175
 20
1.6989729363
 11
2.6989524175
 21
1.6884729363
  0
LINE
  5
287
100
AcDbEntity
  8
SST_PHO
100
AcDbLine
 62
7
  6
CONTINUOUS
 10
2.6989524175
 20
1.6884729363
 11
2.7039524175
 21
1.6774729363
  0
LINE
  5
288
100
AcDbEntity
  8
SST_PHO
100
AcDbLine
 62
7
  6
CONTINUOUS
 10
2.7111524175
 20
1.6961729363
 11
2.7168524175
 21
1.6835729363
  0
LINE
  5
289
100
AcDbEntity
  8
SST_PHO
100
AcDbLine
 62
7
  6
CONTINUOUS
 10
1.8318524175
 20
3.6013729363
 11
1.8448524175
 21
3.5713729363
  0
LINE
  5
28A
100
AcDbEntity
  8
SST_PHO
100
AcDbLine
 62
7
  6
CONTINUOUS
 10
2.0398524175
 20
3.5714729363
 11
2.0203524175
 21
3.6314729363
  0
LINE
  5
28B
100
AcDbEntity
  8
SST_PHO
100
AcDbLine
 62
7
  6
CONTINUOUS
 10
2.5027524175
 20
1.6023729363
 11
2.4986524175
 21
1.6155729363
  0
LINE
  5
28C
100
AcDbEntity
  8
SST_PHO
100
AcDbLine
 62
7
  6
CONTINUOUS
 10
2.7168524175
 20
1.6835729363
 11
2.7209524175
 21
1.6703729363
  0
LINE
  5
28D
100
AcDbEntity
  8
SST_PHO
100
AcDbLine
 62
7
  6
CONTINUOUS
 10
2.5156524175
 20
1.6059729363
 11
2.5120524175
 21
1.6176729363
  0
LINE
  5
28E
100
AcDbEntity
  8
SST_PHO
100
AcDbLine
 62
7
  6
CONTINUOUS
 10
2.7039524175
 20
1.6774729363
 11
2.7075524175
 21
1.6657729363
  0
LINE
  5
28F
100
AcDbEntity
  8
SST_PHO
100
AcDbLine
 62
7
  6
CONTINUOUS
 10
2.5120524175
 20
1.6176729363
 11
2.5098524175
 21
1.6295729363
  0
LINE
  5
290
100
AcDbEntity
  8
SST_PHO
100
AcDbLine
 62
7
  6
CONTINUOUS
 10
2.4986524175
 20
1.6155729363
 11
2.4961524175
 21
1.6291729363
  0
LINE
  5
291
100
AcDbEntity
  8
SST_PHO
100
AcDbLine
 62
7
  6
CONTINUOUS
 10
2.4961524175
 20
1.6291729363
 11
2.4953524175
 21
1.6429729363
  0
LINE
  5
292
100
AcDbEntity
  8
SST_PHO
100
AcDbLine
 62
7
  6
CONTINUOUS
 10
2.5098524175
 20
1.6295729363
 11
2.5091524175
 21
1.6417729363
  0
LINE
  5
293
100
AcDbEntity
  8
SST_PHO
100
AcDbLine
 62
7
  6
CONTINUOUS
 10
2.1296524175
 20
3.5060729363
 11
2.1293524175
 21
3.5239729363
  0
LINE
  5
294
100
AcDbEntity
  8
SST_PHO
100
AcDbLine
 62
7
  6
CONTINUOUS
 10
2.1017524175
 20
2.1848729363
 11
2.1017524175
 21
2.1986729363
  0
LINE
  5
295
100
AcDbEntity
  8
SST_PHO
100
AcDbLine
 62
7
  6
CONTINUOUS
 10
2.1079524175
 20
2.1998729363
 11
2.1079524175
 21
2.1848729363
  0
LINE
  5
296
100
AcDbEntity
  8
SST_PHO
100
AcDbLine
 62
7
  6
CONTINUOUS
 10
2.1129524175
 20
2.1761729363
 11
2.1129524175
 21
2.2111729363
  0
LINE
  5
297
100
AcDbEntity
  8
SST_PHO
100
AcDbLine
 62
7
  6
CONTINUOUS
 10
2.1179524175
 20
2.2098729363
 11
2.1179524175
 21
2.1811729363
  0
LINE
  5
298
100
AcDbEntity
  8
SST_PHO
100
AcDbLine
 62
7
  6
CONTINUOUS
 10
2.1242524175
 20
2.1736729363
 11
2.1242524175
 21
2.2136729363
  0
LINE
  5
299
100
AcDbEntity
  8
SST_PHO
100
AcDbLine
 62
7
  6
CONTINUOUS
 10
2.1304524175
 20
2.2173729363
 11
2.1304524175
 21
2.1686729363
  0
LINE
  5
29A
100
AcDbEntity
  8
SST_PHO
100
AcDbLine
 62
7
  6
CONTINUOUS
 10
2.1367524175
 20
2.2211729363
 11
2.1367524175
 21
2.1686729363
  0
LINE
  5
29B
100
AcDbEntity
  8
SST_PHO
100
AcDbLine
 62
7
  6
CONTINUOUS
 10
2.1442524175
 20
2.2323729363
 11
2.1442524175
 21
2.1536729363
  0
LINE
  5
29C
100
AcDbEntity
  8
SST_PHO
100
AcDbLine
 62
7
  6
CONTINUOUS
 10
2.1958524175
 20
3.6301729363
 11
2.1958524175
 21
3.5701729363
  0
LINE
  5
29D
100
AcDbEntity
  8
SST_PHO
100
AcDbLine
 62
7
  6
CONTINUOUS
 10
2.2141524175
 20
3.4701729363
 11
2.2141524175
 21
3.5301729363
  0
LINE
  5
29E
100
AcDbEntity
  8
SST_PHO
100
AcDbLine
 62
7
  6
CONTINUOUS
 10
2.2348524175
 20
3.5701729363
 11
2.2348524175
 21
3.6301729363
  0
LINE
  5
29F
100
AcDbEntity
  8
SST_PHO
100
AcDbLine
 62
7
  6
CONTINUOUS
 10
2.2596524175
 20
3.5303729363
 11
2.2596524175
 21
3.4703729363
  0
LINE
  5
2A0
100
AcDbEntity
  8
SST_PHO
100
AcDbLine
 62
7
  6
CONTINUOUS
 10
2.2608524175
 20
3.5761729363
 11
2.2608524175
 21
3.6241729363
  0
LINE
  5
2A1
100
AcDbEntity
  8
SST_PHO
100
AcDbLine
 62
7
  6
CONTINUOUS
 10
2.2983524175
 20
3.4761729363
 11
2.2983524175
 21
3.5241729363
  0
LINE
  5
2A2
100
AcDbEntity
  8
SST_PHO
100
AcDbLine
 62
7
  6
CONTINUOUS
 10
2.2998524175
 20
3.6241729363
 11
2.2998524175
 21
3.5761729363
  0
LINE
  5
2A3
100
AcDbEntity
  8
SST_PHO
100
AcDbLine
 62
7
  6
CONTINUOUS
 10
2.3246524175
 20
3.4703729363
 11
2.3246524175
 21
3.5303729363
  0
LINE
  5
2A4
100
AcDbEntity
  8
SST_PHO
100
AcDbLine
 62
7
  6
CONTINUOUS
 10
2.3258524175
 20
3.6303729363
 11
2.3258524175
 21
3.5703729363
  0
LINE
  5
2A5
100
AcDbEntity
  8
SST_PHO
100
AcDbLine
 62
7
  6
CONTINUOUS
 10
2.3645524175
 20
3.5761729363
 11
2.3645524175
 21
3.6241729363
  0
LINE
  5
2A6
100
AcDbEntity
  8
SST_PHO
100
AcDbLine
 62
7
  6
CONTINUOUS
 10
2.3692524175
 20
1.7861729363
 11
2.3692524175
 21
1.9461729363
  0
LINE
  5
2A7
100
AcDbEntity
  8
SST_PHO
100
AcDbLine
 62
7
  6
CONTINUOUS
 10
2.3692524175
 20
1.9611729363
 11
2.3692524175
 21
2.1211729363
  0
LINE
  5
2A8
100
AcDbEntity
  8
SST_PHO
100
AcDbLine
 62
7
  6
CONTINUOUS
 10
2.3692524175
 20
2.2636729363
 11
2.3692524175
 21
2.4236729363
  0
LINE
  5
2A9
100
AcDbEntity
  8
SST_PHO
100
AcDbLine
 62
7
  6
CONTINUOUS
 10
2.3692524175
 20
2.4386729363
 11
2.3692524175
 21
2.5986729363
  0
LINE
  5
2AA
100
AcDbEntity
  8
SST_PHO
100
AcDbLine
 62
7
  6
CONTINUOUS
 10
2.3792524175
 20
2.6186729363
 11
2.3792524175
 21
2.7161729363
  0
LINE
  5
2AB
100
AcDbEntity
  8
SST_PHO
100
AcDbLine
 62
7
  6
CONTINUOUS
 10
2.3804524175
 20
1.4161729363
 11
2.3804524175
 21
1.5161729363
  0
LINE
  5
2AC
100
AcDbEntity
  8
SST_PHO
100
AcDbLine
 62
7
  6
CONTINUOUS
 10
2.3908524175
 20
3.5762729363
 11
2.3908524175
 21
3.6302729363
  0
LINE
  5
2AD
100
AcDbEntity
  8
SST_PHO
100
AcDbLine
 62
7
  6
CONTINUOUS
 10
2.3992524175
 20
2.1361729363
 11
2.3992524175
 21
2.2486729363
  0
LINE
  5
2AE
100
AcDbEntity
  8
SST_PHO
100
AcDbLine
 62
7
  6
CONTINUOUS
 10
2.4079524175
 20
2.2448729363
 11
2.4079524175
 21
2.1386729363
  0
LINE
  5
2AF
100
AcDbEntity
  8
SST_PHO
100
AcDbLine
 62
7
  6
CONTINUOUS
 10
2.4229524175
 20
2.1373729363
 11
2.4229524175
 21
2.2436729363
  0
LINE
  5
2B0
100
AcDbEntity
  8
SST_PHO
100
AcDbLine
 62
7
  6
CONTINUOUS
 10
2.4298524175
 20
3.6302729363
 11
2.4298524175
 21
3.5762729363
  0
LINE
  5
2B1
100
AcDbEntity
  8
SST_PHO
100
AcDbLine
 62
7
  6
CONTINUOUS
 10
2.4367524175
 20
1.6323729363
 11
2.4367524175
 21
1.5111729363
  0
LINE
  5
2B2
100
AcDbEntity
  8
SST_PHO
100
AcDbLine
 62
7
  6
CONTINUOUS
 10
2.4392524175
 20
2.2423729363
 11
2.4392524175
 21
2.1373729363
  0
LINE
  5
2B3
100
AcDbEntity
  8
SST_PHO
100
AcDbLine
 62
7
  6
CONTINUOUS
 10
2.4558524175
 20
3.6303729363
 11
2.4558524175
 21
3.5703729363
  0
LINE
  5
2B4
100
AcDbEntity
  8
SST_PHO
100
AcDbLine
 62
7
  6
CONTINUOUS
 10
2.1683524175
 20
3.4759729363
 11
2.1686524175
 21
3.4940729363
  0
LINE
  5
2B5
100
AcDbEntity
  8
SST_PHO
100
AcDbLine
 62
7
  6
CONTINUOUS
 10
2.0203524175
 20
3.6314729363
 11
2.0008524175
 21
3.5714729363
  0
LINE
  5
2B6
100
AcDbEntity
  8
SST_PHO
100
AcDbLine
 62
7
  6
CONTINUOUS
 10
1.6486524175
 20
3.5276729363
 11
1.6291524175
 21
3.4856729363
  0
LINE
  5
2B7
100
AcDbEntity
  8
SST_PHO
100
AcDbLine
 62
7
  6
CONTINUOUS
 10
4.1124524175
 20
1.0178729363
 11
1.1124524175
 21
1.0178729363
  0
LINE
  5
2B8
100
AcDbEntity
  8
SST_PHO
100
AcDbLine
 62
7
  6
CONTINUOUS
 10
2.5976524175
 20
1.5417729363
 11
2.5857524175
 21
1.5439729363
  0
LINE
  5
2B9
100
AcDbEntity
  8
SST_PHO
100
AcDbLine
 62
7
  6
CONTINUOUS
 10
2.6338524175
 20
1.7394729363
 11
2.6455524175
 21
1.7358729363
  0
LINE
  5
2BA
100
AcDbEntity
  8
SST_PHO
100
AcDbLine
 62
7
  6
CONTINUOUS
 10
2.6371524175
 20
1.7540729363
 11
2.6503524175
 21
1.7499729363
  0
LINE
  5
2BB
100
AcDbEntity
  8
SST_PHO
100
AcDbLine
 62
7
  6
CONTINUOUS
 10
1.4861524175
 20
3.4676729363
 11
1.4796524175
 21
3.4736729363
  0
LINE
  5
2BC
100
AcDbEntity
  8
SST_PHO
100
AcDbLine
 62
7
  6
CONTINUOUS
 10
1.5511524175
 20
3.4676729363
 11
1.5446524175
 21
3.4736729363
  0
LINE
  5
2BD
100
AcDbEntity
  8
SST_PHO
100
AcDbLine
 62
7
  6
CONTINUOUS
 10
1.5121524175
 20
3.5276729363
 11
1.5186524175
 21
3.5216729363
  0
LINE
  5
2BE
100
AcDbEntity
  8
SST_PHO
100
AcDbLine
 62
7
  6
CONTINUOUS
 10
1.5771524175
 20
3.5276729363
 11
1.5836524175
 21
3.5216729363
  0
LINE
  5
2BF
100
AcDbEntity
  8
SST_PHO
100
AcDbLine
 62
7
  6
CONTINUOUS
 10
1.6173524175
 20
3.5667729363
 11
1.6108524175
 21
3.5727729363
  0
LINE
  5
2C0
100
AcDbEntity
  8
SST_PHO
100
AcDbLine
 62
7
  6
CONTINUOUS
 10
1.7461524175
 20
3.4676729363
 11
1.7396524175
 21
3.4736729363
  0
LINE
  5
2C1
100
AcDbEntity
  8
SST_PHO
100
AcDbLine
 62
7
  6
CONTINUOUS
 10
1.7068524175
 20
3.5274729363
 11
1.7133524175
 21
3.5214729363
  0
LINE
  5
2C2
100
AcDbEntity
  8
SST_PHO
100
AcDbLine
 62
7
  6
CONTINUOUS
 10
1.6368524175
 20
3.5967729363
 11
1.6433524175
 21
3.5907729363
  0
LINE
  5
2C3
100
AcDbEntity
  8
SST_PHO
100
AcDbLine
 62
7
  6
CONTINUOUS
 10
1.6823524175
 20
3.5667729363
 11
1.6758524175
 21
3.5727729363
  0
LINE
  5
2C4
100
AcDbEntity
  8
SST_PHO
100
AcDbLine
 62
7
  6
CONTINUOUS
 10
1.6368524175
 20
3.6267729363
 11
1.6433524175
 21
3.6207729363
  0
LINE
  5
2C5
100
AcDbEntity
  8
SST_PHO
100
AcDbLine
 62
7
  6
CONTINUOUS
 10
1.7721524175
 20
3.5276729363
 11
1.7786524175
 21
3.5216729363
  0
LINE
  5
2C6
100
AcDbEntity
  8
SST_PHO
100
AcDbLine
 62
7
  6
CONTINUOUS
 10
1.7018524175
 20
3.6267729363
 11
1.7083524175
 21
3.6207729363
  0
LINE
  5
2C7
100
AcDbEntity
  8
SST_PHO
100
AcDbLine
 62
7
  6
CONTINUOUS
 10
1.5195524175
 20
3.6204729363
 11
1.5133524175
 21
3.6266729363
  0
LINE
  5
2C8
100
AcDbEntity
  8
SST_PHO
100
AcDbLine
 62
7
  6
CONTINUOUS
 10
1.9346524175
 20
3.5276729363
 11
1.9736524175
 21
3.4676729363
  0
LINE
  5
2C9
100
AcDbEntity
  8
SST_PHO
100
AcDbLine
 62
7
  6
CONTINUOUS
 10
2.0853524175
 20
3.5955729363
 11
2.0658524175
 21
3.6315729363
  0
LINE
  5
2CA
100
AcDbEntity
  8
SST_PHO
100
AcDbLine
 62
7
  6
CONTINUOUS
 10
2.2153524175
 20
3.5881729363
 11
2.1958524175
 21
3.6301729363
  0
LINE
  5
2CB
100
AcDbEntity
  8
SST_PHO
100
AcDbLine
 62
7
  6
CONTINUOUS
 10
2.7075524175
 20
1.6657729363
 11
2.7097524175
 21
1.6538729363
  0
LINE
  5
2CC
100
AcDbEntity
  8
SST_PHO
100
AcDbLine
 62
7
  6
CONTINUOUS
 10
2.7209524175
 20
1.6703729363
 11
2.7234524175
 21
1.6567729363
  0
LINE
  5
2CD
100
AcDbEntity
  8
SST_PHO
100
AcDbLine
 62
7
  6
CONTINUOUS
 10
2.7234524175
 20
1.6567729363
 11
2.7242524175
 21
1.6429729363
  0
LINE
  5
2CE
100
AcDbEntity
  8
SST_PHO
100
AcDbLine
 62
7
  6
CONTINUOUS
 10
2.7097524175
 20
1.6538729363
 11
2.7104524175
 21
1.6417729363
  0
LINE
  5
2CF
100
AcDbEntity
  8
SST_PHO
100
AcDbLine
 62
7
  6
CONTINUOUS
 10
2.5208524175
 20
3.5703729363
 11
2.5208524175
 21
3.6303729363
  0
LINE
  5
2D0
100
AcDbEntity
  8
SST_PHO
100
AcDbLine
 62
7
  6
CONTINUOUS
 10
2.6192524175
 20
2.2486729363
 11
2.6192524175
 21
2.1361729363
  0
LINE
  5
2D1
100
AcDbEntity
  8
SST_PHO
100
AcDbLine
 62
7
  6
CONTINUOUS
 10
2.6392524175
 20
2.7161729363
 11
2.6392524175
 21
2.6186729363
  0
LINE
  5
2D2
100
AcDbEntity
  8
SST_PHO
100
AcDbLine
 62
7
  6
CONTINUOUS
 10
2.6417524175
 20
1.5161729363
 11
2.6417524175
 21
1.4161729363
  0
LINE
  5
2D3
100
AcDbEntity
  8
SST_PHO
100
AcDbLine
 62
7
  6
CONTINUOUS
 10
2.7492524175
 20
2.5986729363
 11
2.7492524175
 21
2.4386729363
  0
LINE
  5
2D4
100
AcDbEntity
  8
SST_PHO
100
AcDbLine
 62
7
  6
CONTINUOUS
 10
2.7492524175
 20
2.4236729363
 11
2.7492524175
 21
2.2636729363
  0
LINE
  5
2D5
100
AcDbEntity
  8
SST_PHO
100
AcDbLine
 62
7
  6
CONTINUOUS
 10
2.7492524175
 20
2.1211729363
 11
2.7492524175
 21
1.9611729363
  0
LINE
  5
2D6
100
AcDbEntity
  8
SST_PHO
100
AcDbLine
 62
7
  6
CONTINUOUS
 10
2.7492524175
 20
1.9461729363
 11
2.7492524175
 21
1.7861729363
  0
LINE
  5
2D7
100
AcDbEntity
  8
SST_PHO
100
AcDbLine
 62
7
  6
CONTINUOUS
 10
2.7104524175
 20
1.6417729363
 11
2.7097524175
 21
1.6295729363
  0
LINE
  5
2D8
100
AcDbEntity
  8
SST_PHO
100
AcDbLine
 62
7
  6
CONTINUOUS
 10
2.5091524175
 20
1.6417729363
 11
2.5098524175
 21
1.6538729363
  0
LINE
  5
2D9
100
AcDbEntity
  8
SST_PHO
100
AcDbLine
 62
7
  6
CONTINUOUS
 10
2.4953524175
 20
1.6429729363
 11
2.4961524175
 21
1.6567729363
  0
LINE
  5
2DA
100
AcDbEntity
  8
SST_PHO
100
AcDbLine
 62
7
  6
CONTINUOUS
 10
2.2348524175
 20
3.6301729363
 11
2.2153524175
 21
3.5881729363
  0
LINE
  5
2DB
100
AcDbEntity
  8
SST_PHO
100
AcDbLine
 62
7
  6
CONTINUOUS
 10
2.1048524175
 20
3.6315729363
 11
2.0853524175
 21
3.5955729363
  0
LINE
  5
2DC
100
AcDbEntity
  8
SST_PHO
100
AcDbLine
 62
7
  6
CONTINUOUS
 10
2.6629524175
 20
1.5416729363
 11
2.6192524175
 21
1.5411729363
  0
LINE
  5
2DD
100
AcDbEntity
  8
SST_PHO
100
AcDbLine
 62
7
  6
CONTINUOUS
 10
3.5967524175
 20
1.3861729363
 11
3.3767524175
 21
1.3861729363
  0
LINE
  5
2DE
100
AcDbEntity
  8
SST_PHO
100
AcDbLine
 62
7
  6
CONTINUOUS
 10
2.6417524175
 20
1.4161729363
 11
2.3804524175
 21
1.4161729363
  0
LINE
  5
2DF
100
AcDbEntity
  8
SST_PHO
100
AcDbLine
 62
7
  6
CONTINUOUS
 10
3.0955524175
 20
1.4248729363
 11
3.1055524175
 21
1.4248729363
  0
LINE
  5
2E0
100
AcDbEntity
  8
SST_PHO
100
AcDbLine
 62
7
  6
CONTINUOUS
 10
3.3004524175
 20
1.4411729363
 11
3.3742524175
 21
1.4411729363
  0
LINE
  5
2E1
100
AcDbEntity
  8
SST_PHO
100
AcDbLine
 62
7
  6
CONTINUOUS
 10
3.6004524175
 20
1.4411729363
 11
3.6829524175
 21
1.4411729363
  0
LINE
  5
2E2
100
AcDbEntity
  8
SST_PHO
100
AcDbLine
 62
7
  6
CONTINUOUS
 10
3.1517524175
 20
1.4423729363
 11
3.0305524175
 21
1.4423729363
  0
LINE
  5
2E3
100
AcDbEntity
  8
SST_PHO
100
AcDbLine
 62
7
  6
CONTINUOUS
 10
2.3017524175
 20
1.4661729363
 11
2.7054524175
 21
1.4661729363
  0
LINE
  5
2E4
100
AcDbEntity
  8
SST_PHO
100
AcDbLine
 62
7
  6
CONTINUOUS
 10
3.3767524175
 20
1.4986729363
 11
3.5967524175
 21
1.4986729363
  0
LINE
  5
2E5
100
AcDbEntity
  8
SST_PHO
100
AcDbLine
 62
7
  6
CONTINUOUS
 10
3.3667524175
 20
1.5111729363
 11
3.7042524175
 21
1.5111729363
  0
LINE
  5
2E6
100
AcDbEntity
  8
SST_PHO
100
AcDbLine
 62
7
  6
CONTINUOUS
 10
2.3804524175
 20
1.5161729363
 11
2.6417524175
 21
1.5161729363
  0
LINE
  5
2E7
100
AcDbEntity
  8
SST_PHO
100
AcDbLine
 62
7
  6
CONTINUOUS
 10
2.3967524175
 20
1.5411729363
 11
2.4754524175
 21
1.5411729363
  0
LINE
  5
2E8
100
AcDbEntity
  8
SST_PHO
100
AcDbLine
 62
7
  6
CONTINUOUS
 10
2.4442524175
 20
1.5586729363
 11
2.4304524175
 21
1.5586729363
  0
LINE
  5
2E9
100
AcDbEntity
  8
SST_PHO
100
AcDbLine
 62
7
  6
CONTINUOUS
 10
2.4292524175
 20
1.5648729363
 11
2.4442524175
 21
1.5648729363
  0
LINE
  5
2EA
100
AcDbEntity
  8
SST_PHO
100
AcDbLine
 62
7
  6
CONTINUOUS
 10
2.4529524175
 20
1.5698729363
 11
2.4179524175
 21
1.5698729363
  0
LINE
  5
2EB
100
AcDbEntity
  8
SST_PHO
100
AcDbLine
 62
7
  6
CONTINUOUS
 10
2.4192524175
 20
1.5748729363
 11
2.4479524175
 21
1.5748729363
  0
LINE
  5
2EC
100
AcDbEntity
  8
SST_PHO
100
AcDbLine
 62
7
  6
CONTINUOUS
 10
2.4554524175
 20
1.5811729363
 11
2.4154524175
 21
1.5811729363
  0
LINE
  5
2ED
100
AcDbEntity
  8
SST_PHO
100
AcDbLine
 62
7
  6
CONTINUOUS
 10
2.4117524175
 20
1.5873729363
 11
2.4604524175
 21
1.5873729363
  0
LINE
  5
2EE
100
AcDbEntity
  8
SST_PHO
100
AcDbLine
 62
7
  6
CONTINUOUS
 10
3.2867524175
 20
1.5923729363
 11
3.3654524175
 21
1.5923729363
  0
LINE
  5
2EF
100
AcDbEntity
  8
SST_PHO
100
AcDbLine
 62
7
  6
CONTINUOUS
 10
2.4079524175
 20
1.5936729363
 11
2.4604524175
 21
1.5936729363
  0
LINE
  5
2F0
100
AcDbEntity
  8
SST_PHO
100
AcDbLine
 62
7
  6
CONTINUOUS
 10
3.7079524175
 20
1.5936729363
 11
3.7742524175
 21
1.5936729363
  0
LINE
  5
2F1
100
AcDbEntity
  8
SST_PHO
100
AcDbLine
 62
7
  6
CONTINUOUS
 10
2.3967524175
 20
1.6011729363
 11
2.4754524175
 21
1.6011729363
  0
LINE
  5
2F2
100
AcDbEntity
  8
SST_PHO
100
AcDbLine
 62
7
  6
CONTINUOUS
 10
2.6004524175
 20
1.5411729363
 11
2.5566524175
 21
1.5416729363
  0
LINE
  5
2F3
100
AcDbEntity
  8
SST_PHO
100
AcDbLine
 62
7
  6
CONTINUOUS
 10
2.6098524175
 20
1.5410729363
 11
2.5976524175
 21
1.5417729363
  0
LINE
  5
2F4
100
AcDbEntity
  8
SST_PHO
100
AcDbLine
 62
7
  6
CONTINUOUS
 10
2.6098524175
 20
1.7423729363
 11
2.6219524175
 21
1.7416729363
  0
LINE
  5
2F5
100
AcDbEntity
  8
SST_PHO
100
AcDbLine
 62
7
  6
CONTINUOUS
 10
2.6098524175
 20
1.7574729363
 11
2.6235524175
 21
1.7565729363
  0
LINE
  5
2F6
100
AcDbEntity
  8
SST_PHO
100
AcDbLine
 62
7
  6
CONTINUOUS
 10
2.6235524175
 20
1.7565729363
 11
2.6371524175
 21
1.7540729363
  0
LINE
  5
2F7
100
AcDbEntity
  8
SST_PHO
100
AcDbLine
 62
7
  6
CONTINUOUS
 10
2.6219524175
 20
1.7416729363
 11
2.6338524175
 21
1.7394729363
  0
LINE
  5
2F8
100
AcDbEntity
  8
SST_PHO
100
AcDbLine
 62
7
  6
CONTINUOUS
 10
3.8324524175
 20
1.9510729363
 11
3.8974524175
 21
1.9285729363
  0
LINE
  5
2F9
100
AcDbEntity
  8
SST_PHO
100
AcDbLine
 62
7
  6
CONTINUOUS
 10
3.9224524175
 20
1.9787729363
 11
3.9874524175
 21
1.9547729363
  0
LINE
  5
2FA
100
AcDbEntity
  8
SST_PHO
100
AcDbLine
 62
7
  6
CONTINUOUS
 10
3.9219524175
 20
1.8827729363
 11
3.9674524175
 21
1.8507729363
  0
LINE
  5
2FB
100
AcDbEntity
  8
SST_PHO
100
AcDbLine
 62
7
  6
CONTINUOUS
 10
3.8304524175
 20
2.0336729363
 11
3.8954524175
 21
1.9848729363
  0
LINE
  5
2FC
100
AcDbEntity
  8
SST_PHO
100
AcDbLine
 62
7
  6
CONTINUOUS
 10
3.8516524175
 20
1.8682729363
 11
3.8971524175
 21
1.8307729363
  0
LINE
  5
2FD
100
AcDbEntity
  8
SST_PHO
100
AcDbLine
 62
7
  6
CONTINUOUS
 10
3.9416524175
 20
1.8103729363
 11
3.9871524175
 21
1.7703729363
  0
LINE
  5
2FE
100
AcDbEntity
  8
SST_PHO
100
AcDbLine
 62
7
  6
CONTINUOUS
 10
1.8383524175
 20
3.6313729363
 11
1.8448524175
 21
3.6253729363
  0
LINE
  5
2FF
100
AcDbEntity
  8
SST_PHO
100
AcDbLine
 62
7
  6
CONTINUOUS
 10
2.1293524175
 20
3.4759729363
 11
2.1358524175
 21
3.4699729363
  0
LINE
  5
300
100
AcDbEntity
  8
SST_PHO
100
AcDbLine
 62
7
  6
CONTINUOUS
 10
2.1361524175
 20
3.5000729363
 11
2.1296524175
 21
3.5060729363
  0
LINE
  5
301
100
AcDbEntity
  8
SST_PHO
100
AcDbLine
 62
7
  6
CONTINUOUS
 10
2.1686524175
 20
3.4940729363
 11
2.1621524175
 21
3.5000729363
  0
LINE
  5
302
100
AcDbEntity
  8
SST_PHO
100
AcDbLine
 62
7
  6
CONTINUOUS
 10
2.2673524175
 20
3.5701729363
 11
2.2608524175
 21
3.5761729363
  0
LINE
  5
303
100
AcDbEntity
  8
SST_PHO
100
AcDbLine
 62
7
  6
CONTINUOUS
 10
2.1621524175
 20
3.5300729363
 11
2.1683524175
 21
3.5239729363
  0
LINE
  5
304
100
AcDbEntity
  8
SST_PHO
100
AcDbLine
 62
7
  6
CONTINUOUS
 10
2.2983524175
 20
3.5241729363
 11
2.2921524175
 21
3.5303729363
  0
LINE
  5
305
100
AcDbEntity
  8
SST_PHO
100
AcDbLine
 62
7
  6
CONTINUOUS
 10
2.3645524175
 20
3.6241729363
 11
2.3583524175
 21
3.6303729363
  0
LINE
  5
306
100
AcDbEntity
  8
SST_PHO
100
AcDbLine
 62
7
  6
CONTINUOUS
 10
3.8319524175
 20
1.7710729363
 11
3.8384524175
 21
1.7635729363
  0
LINE
  5
307
100
AcDbEntity
  8
SST_PHO
100
AcDbLine
 62
7
  6
CONTINUOUS
 10
3.8386524175
 20
1.8307729363
 11
3.8321524175
 21
1.8382729363
  0
LINE
  5
308
100
AcDbEntity
  8
SST_PHO
100
AcDbLine
 62
7
  6
CONTINUOUS
 10
3.9286524175
 20
1.7703729363
 11
3.9221524175
 21
1.7783729363
  0
LINE
  5
309
100
AcDbEntity
  8
SST_PHO
100
AcDbLine
 62
7
  6
CONTINUOUS
 10
3.0605524175
 20
1.4823729363
 11
3.0605524175
 21
1.4036729363
  0
LINE
  5
30A
100
AcDbEntity
  8
SST_PHO
100
AcDbLine
 62
7
  6
CONTINUOUS
 10
3.0780524175
 20
1.4348729363
 11
3.0780524175
 21
1.4486729363
  0
LINE
  5
30B
100
AcDbEntity
  8
SST_PHO
100
AcDbLine
 62
7
  6
CONTINUOUS
 10
3.0842524175
 20
1.4498729363
 11
3.0842524175
 21
1.4348729363
  0
LINE
  5
30C
100
AcDbEntity
  8
SST_PHO
100
AcDbLine
 62
7
  6
CONTINUOUS
 10
3.0892524175
 20
1.4261729363
 11
3.0892524175
 21
1.4611729363
  0
LINE
  5
30D
100
AcDbEntity
  8
SST_PHO
100
AcDbLine
 62
7
  6
CONTINUOUS
 10
3.0942524175
 20
1.4598729363
 11
3.0942524175
 21
1.4311729363
  0
LINE
  5
30E
100
AcDbEntity
  8
SST_PHO
100
AcDbLine
 62
7
  6
CONTINUOUS
 10
3.1005524175
 20
1.4236729363
 11
3.1005524175
 21
1.4636729363
  0
LINE
  5
30F
100
AcDbEntity
  8
SST_PHO
100
AcDbLine
 62
7
  6
CONTINUOUS
 10
3.1067524175
 20
1.4673729363
 11
3.1067524175
 21
1.4186729363
  0
LINE
  5
310
100
AcDbEntity
  8
SST_PHO
100
AcDbLine
 62
7
  6
CONTINUOUS
 10
3.1130524175
 20
1.4711729363
 11
3.1130524175
 21
1.4186729363
  0
LINE
  5
311
100
AcDbEntity
  8
SST_PHO
100
AcDbLine
 62
7
  6
CONTINUOUS
 10
3.1205524175
 20
1.4823729363
 11
3.1205524175
 21
1.4036729363
  0
LINE
  5
312
100
AcDbEntity
  8
SST_PHO
100
AcDbLine
 62
7
  6
CONTINUOUS
 10
3.1842524175
 20
3.3936729363
 11
3.1842524175
 21
2.8911729363
  0
LINE
  5
313
100
AcDbEntity
  8
SST_PHO
100
AcDbLine
 62
7
  6
CONTINUOUS
 10
3.2092524175
 20
1.7286729363
 11
3.2092524175
 21
3.0286729363
  0
LINE
  5
314
100
AcDbEntity
  8
SST_PHO
100
AcDbLine
 62
7
  6
CONTINUOUS
 10
2.7242524175
 20
1.6429729363
 11
2.7234524175
 21
1.6291729363
  0
LINE
  5
315
100
AcDbEntity
  8
SST_PHO
100
AcDbLine
 62
7
  6
CONTINUOUS
 10
2.4961524175
 20
1.6567729363
 11
2.4986524175
 21
1.6703729363
  0
LINE
  5
316
100
AcDbEntity
  8
SST_PHO
100
AcDbLine
 62
7
  6
CONTINUOUS
 10
2.7234524175
 20
1.6291729363
 11
2.7209524175
 21
1.6155729363
  0
LINE
  5
317
100
AcDbEntity
  8
SST_PHO
100
AcDbLine
 62
7
  6
CONTINUOUS
 10
2.5098524175
 20
1.6538729363
 11
2.5120524175
 21
1.6657729363
  0
LINE
  5
318
100
AcDbEntity
  8
SST_PHO
100
AcDbLine
 62
7
  6
CONTINUOUS
 10
2.7097524175
 20
1.6295729363
 11
2.7075524175
 21
1.6176729363
  0
LINE
  5
319
100
AcDbEntity
  8
SST_PHO
100
AcDbLine
 62
7
  6
CONTINUOUS
 10
1.2335524175
 20
2.7993729363
 11
1.2400524175
 21
2.8078729363
  0
LINE
  5
31A
100
AcDbEntity
  8
SST_PHO
100
AcDbLine
 62
7
  6
CONTINUOUS
 10
1.2985524175
 20
2.7653729363
 11
1.2920524175
 21
2.7568729363
  0
LINE
  5
31B
100
AcDbEntity
  8
SST_PHO
100
AcDbLine
 62
7
  6
CONTINUOUS
 10
1.2347524175
 20
2.6346729363
 11
1.2412524175
 21
2.6426729363
  0
LINE
  5
31C
100
AcDbEntity
  8
SST_PHO
100
AcDbLine
 62
7
  6
CONTINUOUS
 10
2.5960524175
 20
1.7565729363
 11
2.6098524175
 21
1.7574729363
  0
LINE
  5
31D
100
AcDbEntity
  8
SST_PHO
100
AcDbLine
 62
7
  6
CONTINUOUS
 10
2.6219524175
 20
1.5417729363
 11
2.6098524175
 21
1.5410729363
  0
LINE
  5
31E
100
AcDbEntity
  8
SST_PHO
100
AcDbLine
 62
7
  6
CONTINUOUS
 10
2.5976524175
 20
1.7416729363
 11
2.6098524175
 21
1.7423729363
  0
LINE
  5
31F
100
AcDbEntity
  8
SST_PHO
100
AcDbLine
 62
7
  6
CONTINUOUS
 10
3.7042524175
 20
1.6711729363
 11
3.3667524175
 21
1.6711729363
  0
LINE
  5
320
100
AcDbEntity
  8
SST_PHO
100
AcDbLine
 62
7
  6
CONTINUOUS
 10
3.8117524175
 20
1.7236729363
 11
4.1067524175
 21
1.7236729363
  0
LINE
  5
321
100
AcDbEntity
  8
SST_PHO
100
AcDbLine
 62
7
  6
CONTINUOUS
 10
3.8117524175
 20
1.7286729363
 11
3.2092524175
 21
1.7286729363
  0
LINE
  5
322
100
AcDbEntity
  8
SST_PHO
100
AcDbLine
 62
7
  6
CONTINUOUS
 10
1.4092524175
 20
1.7286729363
 11
2.0092524175
 21
1.7286729363
  0
LINE
  5
323
100
AcDbEntity
  8
SST_PHO
100
AcDbLine
 62
7
  6
CONTINUOUS
 10
1.4067524175
 20
1.7311729363
 11
1.1142524175
 21
1.7311729363
  0
LINE
  5
324
100
AcDbEntity
  8
SST_PHO
100
AcDbLine
 62
7
  6
CONTINUOUS
 10
3.8969524175
 20
1.7710729363
 11
3.8319524175
 21
1.7710729363
  0
LINE
  5
325
100
AcDbEntity
  8
SST_PHO
100
AcDbLine
 62
7
  6
CONTINUOUS
 10
2.7492524175
 20
1.7861729363
 11
2.3692524175
 21
1.7861729363
  0
LINE
  5
326
100
AcDbEntity
  8
SST_PHO
100
AcDbLine
 62
7
  6
CONTINUOUS
 10
3.9286524175
 20
1.8103729363
 11
3.9416524175
 21
1.8103729363
  0
LINE
  5
327
100
AcDbEntity
  8
SST_PHO
100
AcDbLine
 62
7
  6
CONTINUOUS
 10
2.3104524175
 20
1.8661729363
 11
2.3692524175
 21
1.8661729363
  0
LINE
  5
328
100
AcDbEntity
  8
SST_PHO
100
AcDbLine
 62
7
  6
CONTINUOUS
 10
2.7517524175
 20
1.8661729363
 11
2.8079524175
 21
1.8661729363
  0
LINE
  5
329
100
AcDbEntity
  8
SST_PHO
100
AcDbLine
 62
7
  6
CONTINUOUS
 10
3.8386524175
 20
1.8682729363
 11
3.8516524175
 21
1.8682729363
  0
LINE
  5
32A
100
AcDbEntity
  8
SST_PHO
100
AcDbLine
 62
7
  6
CONTINUOUS
 10
3.9869524175
 20
1.8827729363
 11
3.9219524175
 21
1.8827729363
  0
LINE
  5
32B
100
AcDbEntity
  8
SST_PHO
100
AcDbLine
 62
7
  6
CONTINUOUS
 10
4.0142524175
 20
1.8936729363
 11
4.1042524175
 21
1.8936729363
  0
LINE
  5
32C
100
AcDbEntity
  8
SST_PHO
100
AcDbLine
 62
7
  6
CONTINUOUS
 10
1.2076524175
 20
1.8993729363
 11
1.2726524175
 21
1.8993729363
  0
LINE
  5
32D
100
AcDbEntity
  8
SST_PHO
100
AcDbLine
 62
7
  6
CONTINUOUS
 10
1.3672524175
 20
1.9164729363
 11
1.3542524175
 21
1.9164729363
  0
LINE
  5
32E
100
AcDbEntity
  8
SST_PHO
100
AcDbLine
 62
7
  6
CONTINUOUS
 10
2.3692524175
 20
1.9461729363
 11
2.7492524175
 21
1.9461729363
  0
LINE
  5
32F
100
AcDbEntity
  8
SST_PHO
100
AcDbLine
 62
7
  6
CONTINUOUS
 10
2.7492524175
 20
1.9611729363
 11
2.3692524175
 21
1.9611729363
  0
LINE
  5
330
100
AcDbEntity
  8
SST_PHO
100
AcDbLine
 62
7
  6
CONTINUOUS
 10
1.2659524175
 20
1.9717729363
 11
1.2529524175
 21
1.9717729363
  0
LINE
  5
331
100
AcDbEntity
  8
SST_PHO
100
AcDbLine
 62
7
  6
CONTINUOUS
 10
3.9217524175
 20
2.2248729363
 11
3.9842524175
 21
2.1761729363
  0
LINE
  5
332
100
AcDbEntity
  8
SST_PHO
100
AcDbLine
 62
7
  6
CONTINUOUS
 10
2.2933524175
 20
3.6301729363
 11
2.2998524175
 21
3.6241729363
  0
LINE
  5
333
100
AcDbEntity
  8
SST_PHO
100
AcDbLine
 62
7
  6
CONTINUOUS
 10
2.3973524175
 20
3.5702729363
 11
2.3908524175
 21
3.5762729363
  0
LINE
  5
334
100
AcDbEntity
  8
SST_PHO
100
AcDbLine
 62
7
  6
CONTINUOUS
 10
3.9263524175
 20
2.2555729363
 11
3.9198524175
 21
2.2640729363
  0
LINE
  5
335
100
AcDbEntity
  8
SST_PHO
100
AcDbLine
 62
7
  6
CONTINUOUS
 10
3.9783524175
 20
2.3065729363
 11
3.9848524175
 21
2.2980729363
  0
LINE
  5
336
100
AcDbEntity
  8
SST_PHO
100
AcDbLine
 62
7
  6
CONTINUOUS
 10
3.9273524175
 20
2.4195729363
 11
3.9213524175
 21
2.4275729363
  0
LINE
  5
337
100
AcDbEntity
  8
SST_PHO
100
AcDbLine
 62
7
  6
CONTINUOUS
 10
3.9273524175
 20
2.4995729363
 11
3.9213524175
 21
2.5075729363
  0
LINE
  5
338
100
AcDbEntity
  8
SST_PHO
100
AcDbLine
 62
7
  6
CONTINUOUS
 10
3.9753524175
 20
2.4675729363
 11
3.9813524175
 21
2.4595729363
  0
LINE
  5
339
100
AcDbEntity
  8
SST_PHO
100
AcDbLine
 62
7
  6
CONTINUOUS
 10
3.3667524175
 20
1.6711729363
 11
3.3667524175
 21
1.5111729363
  0
LINE
  5
33A
100
AcDbEntity
  8
SST_PHO
100
AcDbLine
 62
7
  6
CONTINUOUS
 10
3.3767524175
 20
1.3861729363
 11
3.3767524175
 21
1.4986729363
  0
LINE
  5
33B
100
AcDbEntity
  8
SST_PHO
100
AcDbLine
 62
7
  6
CONTINUOUS
 10
3.3854524175
 20
1.4948729363
 11
3.3854524175
 21
1.3886729363
  0
LINE
  5
33C
100
AcDbEntity
  8
SST_PHO
100
AcDbLine
 62
7
  6
CONTINUOUS
 10
3.4004524175
 20
1.3873729363
 11
3.4004524175
 21
1.4936729363
  0
LINE
  5
33D
100
AcDbEntity
  8
SST_PHO
100
AcDbLine
 62
7
  6
CONTINUOUS
 10
3.4167524175
 20
1.4923729363
 11
3.4167524175
 21
1.3873729363
  0
LINE
  5
33E
100
AcDbEntity
  8
SST_PHO
100
AcDbLine
 62
7
  6
CONTINUOUS
 10
3.4278575356
 20
3.4817130938
 11
3.4278575356
 21
3.5610930151
  0
LINE
  5
33F
100
AcDbEntity
  8
SST_PHO
100
AcDbLine
 62
7
  6
CONTINUOUS
 10
3.4285524175
 20
3.4836729363
 11
3.4285524175
 21
3.5592729363
  0
LINE
  5
340
100
AcDbEntity
  8
SST_PHO
100
AcDbLine
 62
7
  6
CONTINUOUS
 10
3.4348524175
 20
3.4892729363
 11
3.4348524175
 21
3.5207729363
  0
LINE
  5
341
100
AcDbEntity
  8
SST_PHO
100
AcDbLine
 62
7
  6
CONTINUOUS
 10
3.4348524175
 20
3.5228729363
 11
3.4348524175
 21
3.5543729363
  0
LINE
  5
342
100
AcDbEntity
  8
SST_PHO
100
AcDbLine
 62
7
  6
CONTINUOUS
 10
3.4411524175
 20
3.4927729363
 11
3.4411524175
 21
3.5179729363
  0
LINE
  5
343
100
AcDbEntity
  8
SST_PHO
100
AcDbLine
 62
7
  6
CONTINUOUS
 10
3.4411524175
 20
3.5277729363
 11
3.4411524175
 21
3.5501729363
  0
LINE
  5
344
100
AcDbEntity
  8
SST_PHO
100
AcDbLine
 62
7
  6
CONTINUOUS
 10
3.49211226
 20
3.5101327788
 11
3.49211226
 21
3.5032028576
  0
LINE
  5
345
100
AcDbEntity
  8
SST_PHO
100
AcDbLine
 62
7
  6
CONTINUOUS
 10
3.4945953308
 20
3.509495771
 11
3.4945953308
 21
3.502219393
  0
LINE
  5
346
100
AcDbEntity
  8
SST_PHO
100
AcDbLine
 62
7
  6
CONTINUOUS
 10
3.5055524175
 20
3.5172729363
 11
3.5055524175
 21
3.5249729363
  0
LINE
  5
347
100
AcDbEntity
  8
SST_PHO
100
AcDbLine
 62
7
  6
CONTINUOUS
 10
3.5118524175
 20
3.5094890781
 11
3.5118524175
 21
3.5316650623
  0
LINE
  5
348
100
AcDbEntity
  8
SST_PHO
100
AcDbLine
 62
7
  6
CONTINUOUS
 10
3.5146524175
 20
3.5115327788
 11
3.5146524175
 21
3.5316930151
  0
LINE
  5
349
100
AcDbEntity
  8
SST_PHO
100
AcDbLine
 62
7
  6
CONTINUOUS
 10
3.5195524175
 20
3.5123729363
 11
3.5195524175
 21
3.5291729363
  0
LINE
  5
34A
100
AcDbEntity
  8
SST_PHO
100
AcDbLine
 62
7
  6
CONTINUOUS
 10
3.5671524175
 20
3.5291729363
 11
3.5671524175
 21
3.5137729363
  0
LINE
  5
34B
100
AcDbEntity
  8
SST_PHO
100
AcDbLine
 62
7
  6
CONTINUOUS
 10
3.5717724962
 20
3.5316930151
 11
3.5717724962
 21
3.5132130938
  0
LINE
  5
34C
100
AcDbEntity
  8
SST_PHO
100
AcDbLine
 62
7
  6
CONTINUOUS
 10
3.5746843072
 20
3.5316650623
 11
3.5746843072
 21
3.5113371095
  0
LINE
  5
34D
100
AcDbEntity
  8
SST_PHO
100
AcDbLine
 62
7
  6
CONTINUOUS
 10
3.5797524175
 20
3.5319729363
 11
3.5797524175
 21
3.5116729363
  0
LINE
  5
34E
100
AcDbEntity
  8
SST_PHO
100
AcDbLine
 62
7
  6
CONTINUOUS
 10
3.5923524175
 20
3.5046729363
 11
3.5923524175
 21
3.5032729363
  0
LINE
  5
34F
100
AcDbEntity
  8
SST_PHO
100
AcDbLine
 62
7
  6
CONTINUOUS
 10
3.5951524175
 20
3.5424729363
 11
3.5951524175
 21
3.5361729363
  0
LINE
  5
350
100
AcDbEntity
  8
SST_PHO
100
AcDbLine
 62
7
  6
CONTINUOUS
 10
3.5967524175
 20
1.4986729363
 11
3.5967524175
 21
1.3861729363
  0
LINE
  5
351
100
AcDbEntity
  8
SST_PHO
100
AcDbLine
 62
7
  6
CONTINUOUS
 10
3.6014524175
 20
3.5438729363
 11
3.6014524175
 21
3.5361729363
  0
LINE
  5
352
100
AcDbEntity
  8
SST_PHO
100
AcDbLine
 62
7
  6
CONTINUOUS
 10
3.6077524175
 20
3.5382729363
 11
3.6077524175
 21
3.5424729363
  0
LINE
  5
353
100
AcDbEntity
  8
SST_PHO
100
AcDbLine
 62
7
  6
CONTINUOUS
 10
3.4919492678
 20
3.5392634875
 11
3.4912878505
 21
3.5326485269
  0
LINE
  5
354
100
AcDbEntity
  8
SST_PHO
100
AcDbLine
 62
7
  6
CONTINUOUS
 10
3.4895925749
 20
3.5384827788
 11
3.48896226
 21
3.5321827788
  0
LINE
  5
355
100
AcDbEntity
  8
SST_PHO
100
AcDbLine
 62
7
  6
CONTINUOUS
 10
3.5055524175
 20
3.5249729363
 11
3.5062524175
 21
3.5312729363
  0
LINE
  5
356
100
AcDbEntity
  8
SST_PHO
100
AcDbLine
 62
7
  6
CONTINUOUS
 10
3.49211226
 20
3.5032028576
 11
3.4914823387
 21
3.4981630938
  0
LINE
  5
357
100
AcDbEntity
  8
SST_PHO
100
AcDbLine
 62
7
  6
CONTINUOUS
 10
3.4945953308
 20
3.502219393
 11
3.4939339135
 21
3.496927267
  0
LINE
  5
358
100
AcDbEntity
  8
SST_PHO
100
AcDbLine
 62
7
  6
CONTINUOUS
 10
2.5120524175
 20
1.6657729363
 11
2.5156524175
 21
1.6774729363
  0
LINE
  5
359
100
AcDbEntity
  8
SST_PHO
100
AcDbLine
 62
7
  6
CONTINUOUS
 10
2.7075524175
 20
1.6176729363
 11
2.7039524175
 21
1.6059729363
  0
LINE
  5
35A
100
AcDbEntity
  8
SST_PHO
100
AcDbLine
 62
7
  6
CONTINUOUS
 10
2.4986524175
 20
1.6703729363
 11
2.5027524175
 21
1.6835729363
  0
LINE
  5
35B
100
AcDbEntity
  8
SST_PHO
100
AcDbLine
 62
7
  6
CONTINUOUS
 10
2.7209524175
 20
1.6155729363
 11
2.7168524175
 21
1.6023729363
  0
LINE
  5
35C
100
AcDbEntity
  8
SST_PHO
100
AcDbLine
 62
7
  6
CONTINUOUS
 10
1.2335524175
 20
2.1481729363
 11
1.2400524175
 21
2.1566729363
  0
LINE
  5
35D
100
AcDbEntity
  8
SST_PHO
100
AcDbLine
 62
7
  6
CONTINUOUS
 10
1.2985524175
 20
2.1141729363
 11
1.2920524175
 21
2.1056729363
  0
LINE
  5
35E
100
AcDbEntity
  8
SST_PHO
100
AcDbLine
 62
7
  6
CONTINUOUS
 10
1.2347524175
 20
2.5546729363
 11
1.2412524175
 21
2.5626729363
  0
LINE
  5
35F
100
AcDbEntity
  8
SST_PHO
100
AcDbLine
 62
7
  6
CONTINUOUS
 10
1.2997524175
 20
2.6026729363
 11
1.2932524175
 21
2.5946729363
  0
LINE
  5
360
100
AcDbEntity
  8
SST_PHO
100
AcDbLine
 62
7
  6
CONTINUOUS
 10
1.2997524175
 20
2.5226729363
 11
1.2932524175
 21
2.5146729363
  0
LINE
  5
361
100
AcDbEntity
  8
SST_PHO
100
AcDbLine
 62
7
  6
CONTINUOUS
 10
1.5133524175
 20
3.5666729363
 11
1.5195524175
 21
3.5724729363
  0
LINE
  5
362
100
AcDbEntity
  8
SST_PHO
100
AcDbLine
 62
7
  6
CONTINUOUS
 10
1.5588524175
 20
3.6267729363
 11
1.5523524175
 21
3.6207729363
  0
LINE
  5
363
100
AcDbEntity
  8
SST_PHO
100
AcDbLine
 62
7
  6
CONTINUOUS
 10
1.4796524175
 20
3.5216729363
 11
1.4861524175
 21
3.5276729363
  0
LINE
  5
364
100
AcDbEntity
  8
SST_PHO
100
AcDbLine
 62
7
  6
CONTINUOUS
 10
1.6108524175
 20
3.6207729363
 11
1.6173524175
 21
3.6267729363
  0
LINE
  5
365
100
AcDbEntity
  8
SST_PHO
100
AcDbLine
 62
7
  6
CONTINUOUS
 10
1.5446524175
 20
3.5216729363
 11
1.5511524175
 21
3.5276729363
  0
LINE
  5
366
100
AcDbEntity
  8
SST_PHO
100
AcDbLine
 62
7
  6
CONTINUOUS
 10
1.6433524175
 20
3.6027729363
 11
1.6368524175
 21
3.5967729363
  0
LINE
  5
367
100
AcDbEntity
  8
SST_PHO
100
AcDbLine
 62
7
  6
CONTINUOUS
 10
1.6758524175
 20
3.6207729363
 11
1.6823524175
 21
3.6267729363
  0
LINE
  5
368
100
AcDbEntity
  8
SST_PHO
100
AcDbLine
 62
7
  6
CONTINUOUS
 10
1.5186524175
 20
3.4736729363
 11
1.5121524175
 21
3.4676729363
  0
LINE
  5
369
100
AcDbEntity
  8
SST_PHO
100
AcDbLine
 62
7
  6
CONTINUOUS
 10
1.6433524175
 20
3.5727729363
 11
1.6368524175
 21
3.5667729363
  0
LINE
  5
36A
100
AcDbEntity
  8
SST_PHO
100
AcDbLine
 62
7
  6
CONTINUOUS
 10
1.5836524175
 20
3.4736729363
 11
1.5771524175
 21
3.4676729363
  0
LINE
  5
36B
100
AcDbEntity
  8
SST_PHO
100
AcDbLine
 62
7
  6
CONTINUOUS
 10
1.7083524175
 20
3.5727729363
 11
1.7018524175
 21
3.5667729363
  0
LINE
  5
36C
100
AcDbEntity
  8
SST_PHO
100
AcDbLine
 62
7
  6
CONTINUOUS
 10
1.7133524175
 20
3.5034729363
 11
1.7068524175
 21
3.4974729363
  0
LINE
  5
36D
100
AcDbEntity
  8
SST_PHO
100
AcDbLine
 62
7
  6
CONTINUOUS
 10
1.7396524175
 20
3.5216729363
 11
1.7461524175
 21
3.5276729363
  0
LINE
  5
36E
100
AcDbEntity
  8
SST_PHO
100
AcDbLine
 62
7
  6
CONTINUOUS
 10
1.8448524175
 20
3.6073729363
 11
1.8383524175
 21
3.6013729363
  0
LINE
  5
36F
100
AcDbEntity
  8
SST_PHO
100
AcDbLine
 62
7
  6
CONTINUOUS
 10
1.7786524175
 20
3.4736729363
 11
1.7721524175
 21
3.4676729363
  0
LINE
  5
370
100
AcDbEntity
  8
SST_PHO
100
AcDbLine
 62
7
  6
CONTINUOUS
 10
2.6338524175
 20
1.5439729363
 11
2.6219524175
 21
1.5417729363
  0
LINE
  5
371
100
AcDbEntity
  8
SST_PHO
100
AcDbLine
 62
7
  6
CONTINUOUS
 10
2.5857524175
 20
1.7394729363
 11
2.5976524175
 21
1.7416729363
  0
LINE
  5
372
100
AcDbEntity
  8
SST_PHO
100
AcDbLine
 62
7
  6
CONTINUOUS
 10
2.5824524175
 20
1.7540729363
 11
2.5960524175
 21
1.7565729363
  0
LINE
  5
373
100
AcDbEntity
  8
SST_PHO
100
AcDbLine
 62
7
  6
CONTINUOUS
 10
1.3089524175
 20
2.0136729363
 11
1.3739524175
 21
2.0136729363
  0
LINE
  5
374
100
AcDbEntity
  8
SST_PHO
100
AcDbLine
 62
7
  6
CONTINUOUS
 10
2.3104524175
 20
2.0411729363
 11
2.3692524175
 21
2.0411729363
  0
LINE
  5
375
100
AcDbEntity
  8
SST_PHO
100
AcDbLine
 62
7
  6
CONTINUOUS
 10
2.7517524175
 20
2.0411729363
 11
2.8079524175
 21
2.0411729363
  0
LINE
  5
376
100
AcDbEntity
  8
SST_PHO
100
AcDbLine
 62
7
  6
CONTINUOUS
 10
4.1067524175
 20
2.0436729363
 11
3.8117524175
 21
2.0436729363
  0
LINE
  5
377
100
AcDbEntity
  8
SST_PHO
100
AcDbLine
 62
7
  6
CONTINUOUS
 10
1.4079524175
 20
2.0636729363
 11
1.1142524175
 21
2.0636729363
  0
LINE
  5
378
100
AcDbEntity
  8
SST_PHO
100
AcDbLine
 62
7
  6
CONTINUOUS
 10
3.9825524175
 20
2.0927729363
 11
3.9225524175
 21
2.0927729363
  0
LINE
  5
379
100
AcDbEntity
  8
SST_PHO
100
AcDbLine
 62
7
  6
CONTINUOUS
 10
2.3692524175
 20
2.1211729363
 11
2.7492524175
 21
2.1211729363
  0
LINE
  5
37A
100
AcDbEntity
  8
SST_PHO
100
AcDbLine
 62
7
  6
CONTINUOUS
 10
2.6192524175
 20
2.1361729363
 11
2.3992524175
 21
2.1361729363
  0
LINE
  5
37B
100
AcDbEntity
  8
SST_PHO
100
AcDbLine
 62
7
  6
CONTINUOUS
 10
3.9825524175
 20
2.1467729363
 11
3.9225524175
 21
2.1467729363
  0
LINE
  5
37C
100
AcDbEntity
  8
SST_PHO
100
AcDbLine
 62
7
  6
CONTINUOUS
 10
1.2400524175
 20
2.1566729363
 11
1.2920524175
 21
2.1566729363
  0
LINE
  5
37D
100
AcDbEntity
  8
SST_PHO
100
AcDbLine
 62
7
  6
CONTINUOUS
 10
2.1192524175
 20
2.1748729363
 11
2.1292524175
 21
2.1748729363
  0
LINE
  5
37E
100
AcDbEntity
  8
SST_PHO
100
AcDbLine
 62
7
  6
CONTINUOUS
 10
2.1754524175
 20
2.1923729363
 11
2.0542524175
 21
2.1923729363
  0
LINE
  5
37F
100
AcDbEntity
  8
SST_PHO
100
AcDbLine
 62
7
  6
CONTINUOUS
 10
2.3092524175
 20
2.1936729363
 11
2.4054524175
 21
2.1936729363
  0
LINE
  5
380
100
AcDbEntity
  8
SST_PHO
100
AcDbLine
 62
7
  6
CONTINUOUS
 10
2.6217524175
 20
2.1936729363
 11
2.7079524175
 21
2.1936729363
  0
LINE
  5
381
100
AcDbEntity
  8
SST_PHO
100
AcDbLine
 62
7
  6
CONTINUOUS
 10
2.3992524175
 20
2.2486729363
 11
2.6192524175
 21
2.2486729363
  0
LINE
  5
382
100
AcDbEntity
  8
SST_PHO
100
AcDbLine
 62
7
  6
CONTINUOUS
 10
3.9783524175
 20
2.2555729363
 11
3.9263524175
 21
2.2555729363
  0
LINE
  5
383
100
AcDbEntity
  8
SST_PHO
100
AcDbLine
 62
7
  6
CONTINUOUS
 10
2.7492524175
 20
2.2636729363
 11
2.3692524175
 21
2.2636729363
  0
LINE
  5
384
100
AcDbEntity
  8
SST_PHO
100
AcDbLine
 62
7
  6
CONTINUOUS
 10
1.2335524175
 20
2.2668729363
 11
1.2985524175
 21
2.2668729363
  0
LINE
  5
385
100
AcDbEntity
  8
SST_PHO
100
AcDbLine
 62
7
  6
CONTINUOUS
 10
1.2335524175
 20
2.3178729363
 11
1.2985524175
 21
2.3178729363
  0
LINE
  5
386
100
AcDbEntity
  8
SST_PHO
100
AcDbLine
 62
7
  6
CONTINUOUS
 10
2.3104524175
 20
2.3436729363
 11
2.3692524175
 21
2.3436729363
  0
LINE
  5
387
100
AcDbEntity
  8
SST_PHO
100
AcDbLine
 62
7
  6
CONTINUOUS
 10
2.7517524175
 20
2.3436729363
 11
2.8079524175
 21
2.3436729363
  0
LINE
  5
388
100
AcDbEntity
  8
SST_PHO
100
AcDbLine
 62
7
  6
CONTINUOUS
 10
1.4067524175
 20
2.3661729363
 11
1.1104524175
 21
2.3661729363
  0
LINE
  5
389
100
AcDbEntity
  8
SST_PHO
100
AcDbLine
 62
7
  6
CONTINUOUS
 10
3.8117524175
 20
2.3698729363
 11
4.1104524175
 21
2.3698729363
  0
LINE
  5
38A
100
AcDbEntity
  8
SST_PHO
100
AcDbLine
 62
7
  6
CONTINUOUS
 10
3.9213524175
 20
2.6275729363
 11
3.9633524175
 21
2.6035729363
  0
LINE
  5
38B
100
AcDbEntity
  8
SST_PHO
100
AcDbLine
 62
7
  6
CONTINUOUS
 10
3.9204524175
 20
2.8848729363
 11
3.9779524175
 21
2.8398729363
  0
LINE
  5
38C
100
AcDbEntity
  8
SST_PHO
100
AcDbLine
 62
7
  6
CONTINUOUS
 10
3.4851823387
 20
3.5221028576
 11
3.4902224962
 21
3.5170630938
  0
LINE
  5
38D
100
AcDbEntity
  8
SST_PHO
100
AcDbLine
 62
7
  6
CONTINUOUS
 10
3.5202524175
 20
3.4885729363
 11
3.5125524175
 21
3.4962729363
  0
LINE
  5
38E
100
AcDbEntity
  8
SST_PHO
100
AcDbLine
 62
7
  6
CONTINUOUS
 10
3.4873189529
 20
3.5220642749
 11
3.4926110789
 21
3.5167725426
  0
LINE
  5
38F
100
AcDbEntity
  8
SST_PHO
100
AcDbLine
 62
7
  6
CONTINUOUS
 10
3.5247882442
 20
3.4891611253
 11
3.5173965119
 21
3.4965528576
  0
LINE
  5
390
100
AcDbEntity
  8
SST_PHO
100
AcDbLine
 62
7
  6
CONTINUOUS
 10
3.52641226
 20
3.4930528576
 11
3.5196925749
 21
3.4997729363
  0
LINE
  5
391
100
AcDbEntity
  8
SST_PHO
100
AcDbLine
 62
7
  6
CONTINUOUS
 10
3.5293524175
 20
3.4969729363
 11
3.5237524175
 21
3.5025729363
  0
LINE
  5
392
100
AcDbEntity
  8
SST_PHO
100
AcDbLine
 62
7
  6
CONTINUOUS
 10
3.6014524175
 20
3.5361729363
 11
3.6084524175
 21
3.5284729363
  0
LINE
  5
393
100
AcDbEntity
  8
SST_PHO
100
AcDbLine
 62
7
  6
CONTINUOUS
 10
3.6518524175
 20
3.5151729363
 11
3.6469524175
 21
3.5214729363
  0
LINE
  5
394
100
AcDbEntity
  8
SST_PHO
100
AcDbLine
 62
7
  6
CONTINUOUS
 10
3.9753524175
 20
2.5475729363
 11
3.9813524175
 21
2.5395729363
  0
LINE
  5
395
100
AcDbEntity
  8
SST_PHO
100
AcDbLine
 62
7
  6
CONTINUOUS
 10
3.5601524175
 20
3.5431729363
 11
3.5643524175
 21
3.5375729363
  0
LINE
  5
396
100
AcDbEntity
  8
SST_PHO
100
AcDbLine
 62
7
  6
CONTINUOUS
 10
3.5633724962
 20
3.5484930151
 11
3.56841226
 21
3.5417729363
  0
LINE
  5
397
100
AcDbEntity
  8
SST_PHO
100
AcDbLine
 62
7
  6
CONTINUOUS
 10
3.5654445434
 20
3.5501449836
 11
3.5709882442
 21
3.5427528576
  0
LINE
  5
398
100
AcDbEntity
  8
SST_PHO
100
AcDbLine
 62
7
  6
CONTINUOUS
 10
3.9273524175
 20
2.9155729363
 11
3.9213524175
 21
2.9240729363
  0
LINE
  5
399
100
AcDbEntity
  8
SST_PHO
100
AcDbLine
 62
7
  6
CONTINUOUS
 10
3.9753524175
 20
2.9665729363
 11
3.9813524175
 21
2.9580729363
  0
LINE
  5
39A
100
AcDbEntity
  8
SST_PHO
100
AcDbLine
 62
7
  6
CONTINUOUS
 10
3.7225524175
 20
3.5438729363
 11
3.7239524175
 21
3.5417729363
  0
LINE
  5
39B
100
AcDbEntity
  8
SST_PHO
100
AcDbLine
 62
7
  6
CONTINUOUS
 10
3.5727524175
 20
3.5480729363
 11
3.5762524175
 21
3.5424729363
  0
LINE
  5
39C
100
AcDbEntity
  8
SST_PHO
100
AcDbLine
 62
7
  6
CONTINUOUS
 10
3.6105524175
 20
3.4955729363
 11
3.6049524175
 21
3.5046729363
  0
LINE
  5
39D
100
AcDbEntity
  8
SST_PHO
100
AcDbLine
 62
7
  6
CONTINUOUS
 10
3.5125524175
 20
3.4962729363
 11
3.5083524175
 21
3.5032729363
  0
LINE
  5
39E
100
AcDbEntity
  8
SST_PHO
100
AcDbLine
 62
7
  6
CONTINUOUS
 10
3.4851823387
 20
3.5517130938
 11
3.4877024175
 21
3.5473028576
  0
LINE
  5
39F
100
AcDbEntity
  8
SST_PHO
100
AcDbLine
 62
7
  6
CONTINUOUS
 10
3.4873189529
 20
3.5531548261
 11
3.4899650159
 21
3.5485245111
  0
LINE
  5
3A0
100
AcDbEntity
  8
SST_PHO
100
AcDbLine
 62
7
  6
CONTINUOUS
 10
3.6735524175
 20
3.5046729363
 11
3.6791524175
 21
3.4948729363
  0
LINE
  5
3A1
100
AcDbEntity
  8
SST_PHO
100
AcDbLine
 62
7
  6
CONTINUOUS
 10
3.6371524175
 20
3.5438729363
 11
3.6385524175
 21
3.5410729363
  0
LINE
  5
3A2
100
AcDbEntity
  8
SST_PHO
100
AcDbLine
 62
7
  6
CONTINUOUS
 10
3.6833524175
 20
3.4969729363
 11
3.6791524175
 21
3.5053729363
  0
LINE
  5
3A3
100
AcDbEntity
  8
SST_PHO
100
AcDbLine
 62
7
  6
CONTINUOUS
 10
3.7288524175
 20
3.5431729363
 11
3.7281524175
 21
3.5445729363
  0
LINE
  5
3A4
100
AcDbEntity
  8
SST_PHO
100
AcDbLine
 62
7
  6
CONTINUOUS
 10
3.5951524175
 20
3.5361729363
 11
3.5979524175
 21
3.5298729363
  0
LINE
  5
3A5
100
AcDbEntity
  8
SST_PHO
100
AcDbLine
 62
7
  6
CONTINUOUS
 10
3.5923524175
 20
3.5032729363
 11
3.5972524175
 21
3.4920729363
  0
LINE
  5
3A6
100
AcDbEntity
  8
SST_PHO
100
AcDbLine
 62
7
  6
CONTINUOUS
 10
3.5173965119
 20
3.4965528576
 11
3.5118524175
 21
3.5094890781
  0
LINE
  5
3A7
100
AcDbEntity
  8
SST_PHO
100
AcDbLine
 62
7
  6
CONTINUOUS
 10
3.5196925749
 20
3.4997729363
 11
3.5146524175
 21
3.5115327788
  0
LINE
  5
3A8
100
AcDbEntity
  8
SST_PHO
100
AcDbLine
 62
7
  6
CONTINUOUS
 10
3.5237524175
 20
3.5025729363
 11
3.5195524175
 21
3.5123729363
  0
LINE
  5
3A9
100
AcDbEntity
  8
SST_PHO
100
AcDbLine
 62
7
  6
CONTINUOUS
 10
3.6532524175
 20
3.5116729363
 11
3.6518524175
 21
3.5151729363
  0
LINE
  5
3AA
100
AcDbEntity
  8
SST_PHO
100
AcDbLine
 62
7
  6
CONTINUOUS
 10
3.6511524175
 20
3.5410729363
 11
3.6476524175
 21
3.5501729363
  0
LINE
  5
3AB
100
AcDbEntity
  8
SST_PHO
100
AcDbLine
 62
7
  6
CONTINUOUS
 10
3.5762524175
 20
3.5424729363
 11
3.5783524175
 21
3.5368729363
  0
LINE
  5
3AC
100
AcDbEntity
  8
SST_PHO
100
AcDbLine
 62
7
  6
CONTINUOUS
 10
3.6020941497
 20
3.4954052198
 11
3.6007524175
 21
3.4990729363
  0
LINE
  5
3AD
100
AcDbEntity
  8
SST_PHO
100
AcDbLine
 62
7
  6
CONTINUOUS
 10
3.4902224962
 20
3.5170630938
 11
3.4914823387
 21
3.5132827788
  0
LINE
  5
3AE
100
AcDbEntity
  8
SST_PHO
100
AcDbLine
 62
7
  6
CONTINUOUS
 10
3.4926110789
 20
3.5167725426
 11
3.4939339135
 21
3.5128032513
  0
LINE
  5
3AF
100
AcDbEntity
  8
SST_PHO
100
AcDbLine
 62
7
  6
CONTINUOUS
 10
3.4877024175
 20
3.5473028576
 11
3.48896226
 21
3.5435229363
  0
LINE
  5
3B0
100
AcDbEntity
  8
SST_PHO
100
AcDbLine
 62
7
  6
CONTINUOUS
 10
3.4899650159
 20
3.5485245111
 11
3.4912878505
 21
3.5445556135
  0
LINE
  5
3B1
100
AcDbEntity
  8
SST_PHO
100
AcDbLine
 62
7
  6
CONTINUOUS
 10
3.5643524175
 20
3.5375729363
 11
3.5671524175
 21
3.5291729363
  0
LINE
  5
3B2
100
AcDbEntity
  8
SST_PHO
100
AcDbLine
 62
7
  6
CONTINUOUS
 10
3.56841226
 20
3.5417729363
 11
3.5717724962
 21
3.5316930151
  0
LINE
  5
3B3
100
AcDbEntity
  8
SST_PHO
100
AcDbLine
 62
7
  6
CONTINUOUS
 10
3.5709882442
 20
3.5427528576
 11
3.5746843072
 21
3.5316650623
  0
LINE
  5
3B4
100
AcDbEntity
  8
SST_PHO
100
AcDbLine
 62
7
  6
CONTINUOUS
 10
3.5783524175
 20
3.5368729363
 11
3.5797524175
 21
3.5319729363
  0
LINE
  5
3B5
100
AcDbEntity
  8
SST_PHO
100
AcDbLine
 62
7
  6
CONTINUOUS
 10
3.5083524175
 20
3.5032729363
 11
3.5062524175
 21
3.5116729363
  0
LINE
  5
3B6
100
AcDbEntity
  8
SST_PHO
100
AcDbLine
 62
7
  6
CONTINUOUS
 10
3.6714524175
 20
3.5137729363
 11
3.6735524175
 21
3.5046729363
  0
LINE
  5
3B7
100
AcDbEntity
  8
SST_PHO
100
AcDbLine
 62
7
  6
CONTINUOUS
 10
3.4914823387
 20
3.5132827788
 11
3.49211226
 21
3.5101327788
  0
LINE
  5
3B8
100
AcDbEntity
  8
SST_PHO
100
AcDbLine
 62
7
  6
CONTINUOUS
 10
3.4939339135
 20
3.5128032513
 11
3.4945953308
 21
3.509495771
  0
LINE
  5
3B9
100
AcDbEntity
  8
SST_PHO
100
AcDbLine
 62
7
  6
CONTINUOUS
 10
3.6791524175
 20
3.5053729363
 11
3.6777524175
 21
3.5123729363
  0
LINE
  5
3BA
100
AcDbEntity
  8
SST_PHO
100
AcDbLine
 62
7
  6
CONTINUOUS
 10
3.48896226
 20
3.5435229363
 11
3.4895925749
 21
3.5384827788
  0
LINE
  5
3BB
100
AcDbEntity
  8
SST_PHO
100
AcDbLine
 62
7
  6
CONTINUOUS
 10
3.4912878505
 20
3.5445556135
 11
3.4919492678
 21
3.5392634875
  0
LINE
  5
3BC
100
AcDbEntity
  8
SST_PHO
100
AcDbLine
 62
7
  6
CONTINUOUS
 10
3.5062524175
 20
3.5116729363
 11
3.5055524175
 21
3.5172729363
  0
LINE
  5
3BD
100
AcDbEntity
  8
SST_PHO
100
AcDbLine
 62
7
  6
CONTINUOUS
 10
3.6539524175
 20
3.5053729363
 11
3.6532524175
 21
3.5116729363
  0
LINE
  5
3BE
100
AcDbEntity
  8
SST_PHO
100
AcDbLine
 62
7
  6
CONTINUOUS
 10
3.6777524175
 20
3.5123729363
 11
3.6770524175
 21
3.5242729363
  0
LINE
  5
3BF
100
AcDbEntity
  8
SST_PHO
100
AcDbLine
 62
7
  6
CONTINUOUS
 10
3.6406524175
 20
3.5088729363
 11
3.6406524175
 21
3.5004729363
  0
LINE
  5
3C0
100
AcDbEntity
  8
SST_PHO
100
AcDbLine
 62
7
  6
CONTINUOUS
 10
3.6469524175
 20
3.5123729363
 11
3.6469524175
 21
3.4983729363
  0
LINE
  5
3C1
100
AcDbEntity
  8
SST_PHO
100
AcDbLine
 62
7
  6
CONTINUOUS
 10
3.6714524175
 20
3.5249729363
 11
3.6714524175
 21
3.5137729363
  0
LINE
  5
3C2
100
AcDbEntity
  8
SST_PHO
100
AcDbLine
 62
7
  6
CONTINUOUS
 10
3.6770524175
 20
3.5242729363
 11
3.6770524175
 21
3.5270729363
  0
LINE
  5
3C3
100
AcDbEntity
  8
SST_PHO
100
AcDbLine
 62
7
  6
CONTINUOUS
 10
3.7042524175
 20
1.5111729363
 11
3.7042524175
 21
1.6711729363
  0
LINE
  5
3C4
100
AcDbEntity
  8
SST_PHO
100
AcDbLine
 62
7
  6
CONTINUOUS
 10
3.7554524175
 20
3.4853729363
 11
3.7554524175
 21
3.5578729363
  0
LINE
  5
3C5
100
AcDbEntity
  8
SST_PHO
100
AcDbLine
 62
7
  6
CONTINUOUS
 10
3.7624524175
 20
3.5578729363
 11
3.7624524175
 21
3.5248729363
  0
LINE
  5
3C6
100
AcDbEntity
  8
SST_PHO
100
AcDbLine
 62
7
  6
CONTINUOUS
 10
3.7624524175
 20
3.5168729363
 11
3.7624524175
 21
3.4853729363
  0
LINE
  5
3C7
100
AcDbEntity
  8
SST_PHO
100
AcDbLine
 62
7
  6
CONTINUOUS
 10
3.8051524175
 20
3.4848729363
 11
3.8051524175
 21
3.5168729363
  0
LINE
  5
3C8
100
AcDbEntity
  8
SST_PHO
100
AcDbLine
 62
7
  6
CONTINUOUS
 10
3.8051524175
 20
3.5248729363
 11
3.8051524175
 21
3.5578729363
  0
LINE
  5
3C9
100
AcDbEntity
  8
SST_PHO
100
AcDbLine
 62
7
  6
CONTINUOUS
 10
3.8117524175
 20
3.0286729363
 11
3.8117524175
 21
1.7236729363
  0
LINE
  5
3CA
100
AcDbEntity
  8
SST_PHO
100
AcDbLine
 62
7
  6
CONTINUOUS
 10
3.8124524175
 20
3.5578729363
 11
3.8124524175
 21
3.4848729363
  0
LINE
  5
3CB
100
AcDbEntity
  8
SST_PHO
100
AcDbLine
 62
7
  6
CONTINUOUS
 10
3.8321524175
 20
1.8382729363
 11
3.8321524175
 21
1.8607729363
  0
LINE
  5
3CC
100
AcDbEntity
  8
SST_PHO
100
AcDbLine
 62
7
  6
CONTINUOUS
 10
3.8969524175
 20
1.7560729363
 11
3.8969524175
 21
1.7860729363
  0
LINE
  5
3CD
100
AcDbEntity
  8
SST_PHO
100
AcDbLine
 62
7
  6
CONTINUOUS
 10
3.8971524175
 20
1.8307729363
 11
3.8971524175
 21
1.8682729363
  0
LINE
  5
3CE
100
AcDbEntity
  8
SST_PHO
100
AcDbLine
 62
7
  6
CONTINUOUS
 10
3.9198524175
 20
2.2640729363
 11
3.9198524175
 21
2.2980729363
  0
LINE
  5
3CF
100
AcDbEntity
  8
SST_PHO
100
AcDbLine
 62
7
  6
CONTINUOUS
 10
3.9213524175
 20
2.4275729363
 11
3.9213524175
 21
2.4595729363
  0
LINE
  5
3D0
100
AcDbEntity
  8
SST_PHO
100
AcDbLine
 62
7
  6
CONTINUOUS
 10
3.9213524175
 20
2.5075729363
 11
3.9213524175
 21
2.5395729363
  0
LINE
  5
3D1
100
AcDbEntity
  8
SST_PHO
100
AcDbLine
 62
7
  6
CONTINUOUS
 10
3.9213524175
 20
2.9240729363
 11
3.9213524175
 21
2.9580729363
  0
LINE
  5
3D2
100
AcDbEntity
  8
SST_PHO
100
AcDbLine
 62
7
  6
CONTINUOUS
 10
3.9221524175
 20
1.7783729363
 11
3.9221524175
 21
1.8023729363
  0
LINE
  5
3D3
100
AcDbEntity
  8
SST_PHO
100
AcDbLine
 62
7
  6
CONTINUOUS
 10
3.9674524175
 20
1.8507729363
 11
3.9674524175
 21
1.8907729363
  0
LINE
  5
3D4
100
AcDbEntity
  8
SST_PHO
100
AcDbLine
 62
7
  6
CONTINUOUS
 10
3.9813524175
 20
2.9580729363
 11
3.9813524175
 21
2.9240729363
  0
LINE
  5
3D5
100
AcDbEntity
  8
SST_PHO
100
AcDbLine
 62
7
  6
CONTINUOUS
 10
3.9813524175
 20
2.5395729363
 11
3.9813524175
 21
2.5075729363
  0
LINE
  5
3D6
100
AcDbEntity
  8
SST_PHO
100
AcDbLine
 62
7
  6
CONTINUOUS
 10
3.9813524175
 20
2.4595729363
 11
3.9813524175
 21
2.4275729363
  0
LINE
  5
3D7
100
AcDbEntity
  8
SST_PHO
100
AcDbLine
 62
7
  6
CONTINUOUS
 10
3.9848524175
 20
2.2980729363
 11
3.9848524175
 21
2.2640729363
  0
LINE
  5
3D8
100
AcDbEntity
  8
SST_PHO
100
AcDbLine
 62
7
  6
CONTINUOUS
 10
3.9871524175
 20
1.7703729363
 11
3.9871524175
 21
1.8103729363
  0
LINE
  5
3D9
100
AcDbEntity
  8
SST_PHO
100
AcDbLine
 62
7
  6
CONTINUOUS
 10
3.6532524175
 20
3.4976729363
 11
3.6539524175
 21
3.5053729363
  0
LINE
  5
3DA
100
AcDbEntity
  8
SST_PHO
100
AcDbLine
 62
7
  6
CONTINUOUS
 10
3.6735524175
 20
3.5375729363
 11
3.6714524175
 21
3.5249729363
  0
LINE
  5
3DB
100
AcDbEntity
  8
SST_PHO
100
AcDbLine
 62
7
  6
CONTINUOUS
 10
3.5118524175
 20
3.5316650623
 11
3.5137004489
 21
3.5409048261
  0
LINE
  5
3DC
100
AcDbEntity
  8
SST_PHO
100
AcDbLine
 62
7
  6
CONTINUOUS
 10
3.5146524175
 20
3.5316930151
 11
3.5163323387
 21
3.5400930151
  0
LINE
  5
3DD
100
AcDbEntity
  8
SST_PHO
100
AcDbLine
 62
7
  6
CONTINUOUS
 10
3.5195524175
 20
3.5291729363
 11
3.5209524175
 21
3.5361729363
  0
LINE
  5
3DE
100
AcDbEntity
  8
SST_PHO
100
AcDbLine
 62
7
  6
CONTINUOUS
 10
3.6770524175
 20
3.5270729363
 11
3.6784524175
 21
3.5333729363
  0
LINE
  5
3DF
100
AcDbEntity
  8
SST_PHO
100
AcDbLine
 62
7
  6
CONTINUOUS
 10
3.5062524175
 20
3.5312729363
 11
3.5076524175
 21
3.5368729363
  0
LINE
  5
3E0
100
AcDbEntity
  8
SST_PHO
100
AcDbLine
 62
7
  6
CONTINUOUS
 10
3.5671524175
 20
3.5137729363
 11
3.5657524175
 21
3.5081729363
  0
LINE
  5
3E1
100
AcDbEntity
  8
SST_PHO
100
AcDbLine
 62
7
  6
CONTINUOUS
 10
3.5717724962
 20
3.5132130938
 11
3.5700925749
 21
3.5064930151
  0
LINE
  5
3E2
100
AcDbEntity
  8
SST_PHO
100
AcDbLine
 62
7
  6
CONTINUOUS
 10
3.5746843072
 20
3.5113371095
 11
3.5728362757
 21
3.5039449836
  0
LINE
  5
3E3
100
AcDbEntity
  8
SST_PHO
100
AcDbLine
 62
7
  6
CONTINUOUS
 10
3.5965524175
 20
3.5480729363
 11
3.5951524175
 21
3.5424729363
  0
LINE
  5
3E4
100
AcDbEntity
  8
SST_PHO
100
AcDbLine
 62
7
  6
CONTINUOUS
 10
3.5797524175
 20
3.5116729363
 11
3.5776524175
 21
3.5039729363
  0
LINE
  5
3E5
100
AcDbEntity
  8
SST_PHO
100
AcDbLine
 62
7
  6
CONTINUOUS
 10
3.5076524175
 20
3.5368729363
 11
3.5097524175
 21
3.5424729363
  0
LINE
  5
3E6
100
AcDbEntity
  8
SST_PHO
100
AcDbLine
 62
7
  6
CONTINUOUS
 10
2.5027524175
 20
1.6835729363
 11
2.5084524175
 21
1.6961729363
  0
LINE
  5
3E7
100
AcDbEntity
  8
SST_PHO
100
AcDbLine
 62
7
  6
CONTINUOUS
 10
2.5156524175
 20
1.6774729363
 11
2.5206524175
 21
1.6884729363
  0
LINE
  5
3E8
100
AcDbEntity
  8
SST_PHO
100
AcDbLine
 62
7
  6
CONTINUOUS
 10
1.2724524175
 20
1.9797729363
 11
1.2659524175
 21
1.9717729363
  0
LINE
  5
3E9
100
AcDbEntity
  8
SST_PHO
100
AcDbLine
 62
7
  6
CONTINUOUS
 10
1.3737524175
 20
1.9239729363
 11
1.3672524175
 21
1.9164729363
  0
LINE
  5
3EA
100
AcDbEntity
  8
SST_PHO
100
AcDbLine
 62
7
  6
CONTINUOUS
 10
2.3583524175
 20
3.5703729363
 11
2.3645524175
 21
3.5761729363
  0
LINE
  5
3EB
100
AcDbEntity
  8
SST_PHO
100
AcDbLine
 62
7
  6
CONTINUOUS
 10
2.2921524175
 20
3.4703729363
 11
2.2983524175
 21
3.4761729363
  0
LINE
  5
3EC
100
AcDbEntity
  8
SST_PHO
100
AcDbLine
 62
7
  6
CONTINUOUS
 10
2.1293524175
 20
3.5239729363
 11
2.1358524175
 21
3.5299729363
  0
LINE
  5
3ED
100
AcDbEntity
  8
SST_PHO
100
AcDbLine
 62
7
  6
CONTINUOUS
 10
2.2608524175
 20
3.6241729363
 11
2.2673524175
 21
3.6301729363
  0
LINE
  5
3EE
100
AcDbEntity
  8
SST_PHO
100
AcDbLine
 62
7
  6
CONTINUOUS
 10
2.1618524175
 20
3.4699729363
 11
2.1683524175
 21
3.4759729363
  0
LINE
  5
3EF
100
AcDbEntity
  8
SST_PHO
100
AcDbLine
 62
7
  6
CONTINUOUS
 10
2.2998524175
 20
3.5761729363
 11
2.2933524175
 21
3.5701729363
  0
LINE
  5
3F0
100
AcDbEntity
  8
SST_PHO
100
AcDbLine
 62
7
  6
CONTINUOUS
 10
2.4298524175
 20
3.5762729363
 11
2.4233524175
 21
3.5702729363
  0
LINE
  5
3F1
100
AcDbEntity
  8
SST_PHO
100
AcDbLine
 62
7
  6
CONTINUOUS
 10
1.2997524175
 20
2.9653729363
 11
1.2347524175
 21
2.9143729363
  0
LINE
  5
3F2
100
AcDbEntity
  8
SST_PHO
100
AcDbLine
 62
7
  6
CONTINUOUS
 10
3.9753524175
 20
2.4195729363
 11
3.9273524175
 21
2.4195729363
  0
LINE
  5
3F3
100
AcDbEntity
  8
SST_PHO
100
AcDbLine
 62
7
  6
CONTINUOUS
 10
2.3692524175
 20
2.4236729363
 11
2.7492524175
 21
2.4236729363
  0
LINE
  5
3F4
100
AcDbEntity
  8
SST_PHO
100
AcDbLine
 62
7
  6
CONTINUOUS
 10
1.2347524175
 20
2.4346729363
 11
1.2997524175
 21
2.4346729363
  0
LINE
  5
3F5
100
AcDbEntity
  8
SST_PHO
100
AcDbLine
 62
7
  6
CONTINUOUS
 10
2.7492524175
 20
2.4386729363
 11
2.3692524175
 21
2.4386729363
  0
LINE
  5
3F6
100
AcDbEntity
  8
SST_PHO
100
AcDbLine
 62
7
  6
CONTINUOUS
 10
1.2997524175
 20
2.4826729363
 11
1.2347524175
 21
2.4826729363
  0
LINE
  5
3F7
100
AcDbEntity
  8
SST_PHO
100
AcDbLine
 62
7
  6
CONTINUOUS
 10
3.9753524175
 20
2.4995729363
 11
3.9273524175
 21
2.4995729363
  0
LINE
  5
3F8
100
AcDbEntity
  8
SST_PHO
100
AcDbLine
 62
7
  6
CONTINUOUS
 10
1.2932524175
 20
2.5146729363
 11
1.2412524175
 21
2.5146729363
  0
LINE
  5
3F9
100
AcDbEntity
  8
SST_PHO
100
AcDbLine
 62
7
  6
CONTINUOUS
 10
2.3104524175
 20
2.5186729363
 11
2.3692524175
 21
2.5186729363
  0
LINE
  5
3FA
100
AcDbEntity
  8
SST_PHO
100
AcDbLine
 62
7
  6
CONTINUOUS
 10
2.7517524175
 20
2.5186729363
 11
2.8079524175
 21
2.5186729363
  0
LINE
  5
3FB
100
AcDbEntity
  8
SST_PHO
100
AcDbLine
 62
7
  6
CONTINUOUS
 10
3.9273524175
 20
2.5475729363
 11
3.9753524175
 21
2.5475729363
  0
LINE
  5
3FC
100
AcDbEntity
  8
SST_PHO
100
AcDbLine
 62
7
  6
CONTINUOUS
 10
1.2412524175
 20
2.5626729363
 11
1.2932524175
 21
2.5626729363
  0
LINE
  5
3FD
100
AcDbEntity
  8
SST_PHO
100
AcDbLine
 62
7
  6
CONTINUOUS
 10
3.9213524175
 20
2.5795729363
 11
3.9813524175
 21
2.5795729363
  0
LINE
  5
3FE
100
AcDbEntity
  8
SST_PHO
100
AcDbLine
 62
7
  6
CONTINUOUS
 10
2.3692524175
 20
2.5986729363
 11
2.7492524175
 21
2.5986729363
  0
LINE
  5
3FF
100
AcDbEntity
  8
SST_PHO
100
AcDbLine
 62
7
  6
CONTINUOUS
 10
2.6392524175
 20
2.6186729363
 11
2.3792524175
 21
2.6186729363
  0
LINE
  5
400
100
AcDbEntity
  8
SST_PHO
100
AcDbLine
 62
7
  6
CONTINUOUS
 10
3.9813524175
 20
2.6275729363
 11
3.9213524175
 21
2.6275729363
  0
LINE
  5
401
100
AcDbEntity
  8
SST_PHO
100
AcDbLine
 62
7
  6
CONTINUOUS
 10
1.2412524175
 20
2.6426729363
 11
1.2932524175
 21
2.6426729363
  0
LINE
  5
402
100
AcDbEntity
  8
SST_PHO
100
AcDbLine
 62
7
  6
CONTINUOUS
 10
2.7192524175
 20
2.6661729363
 11
2.6417524175
 21
2.6661729363
  0
LINE
  5
403
100
AcDbEntity
  8
SST_PHO
100
AcDbLine
 62
7
  6
CONTINUOUS
 10
2.2992524175
 20
2.6661729363
 11
2.3754524175
 21
2.6661729363
  0
LINE
  5
404
100
AcDbEntity
  8
SST_PHO
100
AcDbLine
 62
7
  6
CONTINUOUS
 10
1.1129524175
 20
2.6911729363
 11
1.4042524175
 21
2.6911729363
  0
LINE
  5
405
100
AcDbEntity
  8
SST_PHO
100
AcDbLine
 62
7
  6
CONTINUOUS
 10
4.1104524175
 20
2.6936729363
 11
3.8117524175
 21
2.6936729363
  0
LINE
  5
406
100
AcDbEntity
  8
SST_PHO
100
AcDbLine
 62
7
  6
CONTINUOUS
 10
2.3792524175
 20
2.7161729363
 11
2.6392524175
 21
2.7161729363
  0
LINE
  5
407
100
AcDbEntity
  8
SST_PHO
100
AcDbLine
 62
7
  6
CONTINUOUS
 10
3.9800524175
 20
2.7555729363
 11
3.9200524175
 21
2.7555729363
  0
LINE
  5
408
100
AcDbEntity
  8
SST_PHO
100
AcDbLine
 62
7
  6
CONTINUOUS
 10
1.2920524175
 20
2.7568729363
 11
1.2400524175
 21
2.7568729363
  0
LINE
  5
409
100
AcDbEntity
  8
SST_PHO
100
AcDbLine
 62
7
  6
CONTINUOUS
 10
3.5340284017
 20
3.4845410466
 11
3.5247882442
 21
3.4891611253
  0
LINE
  5
40A
100
AcDbEntity
  8
SST_PHO
100
AcDbLine
 62
7
  6
CONTINUOUS
 10
3.53481226
 20
3.4888528576
 11
3.52641226
 21
3.4930528576
  0
LINE
  5
40B
100
AcDbEntity
  8
SST_PHO
100
AcDbLine
 62
7
  6
CONTINUOUS
 10
3.5363524175
 20
3.4934729363
 11
3.5293524175
 21
3.4969729363
  0
LINE
  5
40C
100
AcDbEntity
  8
SST_PHO
100
AcDbLine
 62
7
  6
CONTINUOUS
 10
3.4814024175
 20
3.5239930151
 11
3.4851823387
 21
3.5221028576
  0
LINE
  5
40D
100
AcDbEntity
  8
SST_PHO
100
AcDbLine
 62
7
  6
CONTINUOUS
 10
3.4833500552
 20
3.5240489206
 11
3.4873189529
 21
3.5220642749
  0
LINE
  5
40E
100
AcDbEntity
  8
SST_PHO
100
AcDbLine
 62
7
  6
CONTINUOUS
 10
3.4751024175
 20
3.5586430151
 11
3.4801425749
 21
3.5561229363
  0
LINE
  5
40F
100
AcDbEntity
  8
SST_PHO
100
AcDbLine
 62
7
  6
CONTINUOUS
 10
3.4767350946
 20
3.5604315977
 11
3.4820268269
 21
3.5577855347
  0
LINE
  5
410
100
AcDbEntity
  8
SST_PHO
100
AcDbLine
 62
7
  6
CONTINUOUS
 10
3.5272524175
 20
3.4843729363
 11
3.5202524175
 21
3.4885729363
  0
LINE
  5
411
100
AcDbEntity
  8
SST_PHO
100
AcDbLine
 62
7
  6
CONTINUOUS
 10
3.6469524175
 20
3.5214729363
 11
3.6413524175
 21
3.5249729363
  0
LINE
  5
412
100
AcDbEntity
  8
SST_PHO
100
AcDbLine
 62
7
  6
CONTINUOUS
 10
3.5601524175
 20
3.5578729363
 11
3.5678524175
 21
3.5529729363
  0
LINE
  5
413
100
AcDbEntity
  8
SST_PHO
100
AcDbLine
 62
7
  6
CONTINUOUS
 10
3.6889524175
 20
3.4927729363
 11
3.6847524175
 21
3.4955729363
  0
LINE
  5
414
100
AcDbEntity
  8
SST_PHO
100
AcDbLine
 62
7
  6
CONTINUOUS
 10
3.6329524175
 20
3.5144729363
 11
3.6406524175
 21
3.5088729363
  0
LINE
  5
415
100
AcDbEntity
  8
SST_PHO
100
AcDbLine
 62
7
  6
CONTINUOUS
 10
3.5545524175
 20
3.5473729363
 11
3.5601524175
 21
3.5431729363
  0
LINE
  5
416
100
AcDbEntity
  8
SST_PHO
100
AcDbLine
 62
7
  6
CONTINUOUS
 10
3.5566524175
 20
3.5535327788
 11
3.5633724962
 21
3.5484930151
  0
LINE
  5
417
100
AcDbEntity
  8
SST_PHO
100
AcDbLine
 62
7
  6
CONTINUOUS
 10
3.5580524175
 20
3.5556890781
 11
3.5654445434
 21
3.5501449836
  0
LINE
  5
418
100
AcDbEntity
  8
SST_PHO
100
AcDbLine
 62
7
  6
CONTINUOUS
 10
3.6385524175
 20
3.5186729363
 11
3.6469524175
 21
3.5123729363
  0
LINE
  5
419
100
AcDbEntity
  8
SST_PHO
100
AcDbLine
 62
7
  6
CONTINUOUS
 10
3.6791524175
 20
3.4948729363
 11
3.6882524175
 21
3.4878729363
  0
LINE
  5
41A
100
AcDbEntity
  8
SST_PHO
100
AcDbLine
 62
7
  6
CONTINUOUS
 10
3.4801425749
 20
3.5561229363
 11
3.4851823387
 21
3.5517130938
  0
LINE
  5
41B
100
AcDbEntity
  8
SST_PHO
100
AcDbLine
 62
7
  6
CONTINUOUS
 10
3.4820268269
 20
3.5577855347
 11
3.4873189529
 21
3.5531548261
  0
LINE
  5
41C
100
AcDbEntity
  8
SST_PHO
100
AcDbLine
 62
7
  6
CONTINUOUS
 10
3.5972524175
 20
3.4920729363
 11
3.6049524175
 21
3.4850729363
  0
LINE
  5
41D
100
AcDbEntity
  8
SST_PHO
100
AcDbLine
 62
7
  6
CONTINUOUS
 10
3.606920134
 20
3.4907170308
 11
3.6020941497
 21
3.4954052198
  0
LINE
  5
41E
100
AcDbEntity
  8
SST_PHO
100
AcDbLine
 62
7
  6
CONTINUOUS
 10
3.5678524175
 20
3.5529729363
 11
3.5727524175
 21
3.5480729363
  0
LINE
  5
41F
100
AcDbEntity
  8
SST_PHO
100
AcDbLine
 62
7
  6
CONTINUOUS
 10
3.5979524175
 20
3.5298729363
 11
3.6049524175
 21
3.5228729363
  0
LINE
  5
420
100
AcDbEntity
  8
SST_PHO
100
AcDbLine
 62
7
  6
CONTINUOUS
 10
3.6112524175
 20
3.5347729363
 11
3.6077524175
 21
3.5382729363
  0
LINE
  5
421
100
AcDbEntity
  8
SST_PHO
100
AcDbLine
 62
7
  6
CONTINUOUS
 10
3.6847524175
 20
3.4955729363
 11
3.6833524175
 21
3.4969729363
  0
LINE
  5
422
100
AcDbEntity
  8
SST_PHO
100
AcDbLine
 62
7
  6
CONTINUOUS
 10
3.6322524175
 20
3.5487729363
 11
3.6371524175
 21
3.5438729363
  0
LINE
  5
423
100
AcDbEntity
  8
SST_PHO
100
AcDbLine
 62
7
  6
CONTINUOUS
 10
3.6427524175
 20
3.5466729363
 11
3.6357524175
 21
3.5536729363
  0
LINE
  5
424
100
AcDbEntity
  8
SST_PHO
100
AcDbLine
 62
7
  6
CONTINUOUS
 10
3.6476524175
 20
3.5501729363
 11
3.6399524175
 21
3.5578729363
  0
LINE
  5
425
100
AcDbEntity
  8
SST_PHO
100
AcDbLine
 62
7
  6
CONTINUOUS
 10
3.7162524175
 20
3.5508729363
 11
3.7225524175
 21
3.5438729363
  0
LINE
  5
426
100
AcDbEntity
  8
SST_PHO
100
AcDbLine
 62
7
  6
CONTINUOUS
 10
3.7281524175
 20
3.5445729363
 11
3.7225524175
 21
3.5515729363
  0
LINE
  5
427
100
AcDbEntity
  8
SST_PHO
100
AcDbLine
 62
7
  6
CONTINUOUS
 10
3.7225524175
 20
3.5515729363
 11
3.7211524175
 21
3.5536729363
  0
LINE
  5
428
100
AcDbEntity
  8
SST_PHO
100
AcDbLine
 62
7
  6
CONTINUOUS
 10
4.0604524175
 20
1.9398729363
 11
4.0604524175
 21
1.8461729363
  0
LINE
  5
429
100
AcDbEntity
  8
SST_PHO
100
AcDbLine
 62
7
  6
CONTINUOUS
 10
4.1124524175
 20
3.7678729363
 11
4.1124524175
 21
1.0178729363
  0
LINE
  5
42A
100
AcDbEntity
  8
SST_PHO
100
AcDbLine
 62
7
  6
CONTINUOUS
 10
3.6784524175
 20
3.5333729363
 11
3.6805524175
 21
3.5389729363
  0
LINE
  5
42B
100
AcDbEntity
  8
SST_PHO
100
AcDbLine
 62
7
  6
CONTINUOUS
 10
2.7168524175
 20
1.6023729363
 11
2.7111524175
 21
1.5897729363
  0
LINE
  5
42C
100
AcDbEntity
  8
SST_PHO
100
AcDbLine
 62
7
  6
CONTINUOUS
 10
2.7039524175
 20
1.6059729363
 11
2.6989524175
 21
1.5949729363
  0
LINE
  5
42D
100
AcDbEntity
  8
SST_PHO
100
AcDbLine
 62
7
  6
CONTINUOUS
 10
3.4912878505
 20
3.5326485269
 11
3.4899650159
 21
3.5300024639
  0
LINE
  5
42E
100
AcDbEntity
  8
SST_PHO
100
AcDbLine
 62
7
  6
CONTINUOUS
 10
3.4914823387
 20
3.4981630938
 11
3.4902224962
 21
3.4956430151
  0
LINE
  5
42F
100
AcDbEntity
  8
SST_PHO
100
AcDbLine
 62
7
  6
CONTINUOUS
 10
3.5728362757
 20
3.5039449836
 11
3.5691406064
 21
3.4965528576
  0
LINE
  5
430
100
AcDbEntity
  8
SST_PHO
100
AcDbLine
 62
7
  6
CONTINUOUS
 10
3.48896226
 20
3.5321827788
 11
3.4877024175
 21
3.5296630938
  0
LINE
  5
431
100
AcDbEntity
  8
SST_PHO
100
AcDbLine
 62
7
  6
CONTINUOUS
 10
3.4939339135
 20
3.496927267
 11
3.4926110789
 21
3.4942815977
  0
LINE
  5
432
100
AcDbEntity
  8
SST_PHO
100
AcDbLine
 62
7
  6
CONTINUOUS
 10
3.5657524175
 20
3.5081729363
 11
3.5629524175
 21
3.5025729363
  0
LINE
  5
433
100
AcDbEntity
  8
SST_PHO
100
AcDbLine
 62
7
  6
CONTINUOUS
 10
3.5700925749
 20
3.5064930151
 11
3.5667323387
 21
3.4997729363
  0
LINE
  5
434
100
AcDbEntity
  8
SST_PHO
100
AcDbLine
 62
7
  6
CONTINUOUS
 10
3.6497524175
 20
3.4906729363
 11
3.6532524175
 21
3.4976729363
  0
LINE
  5
435
100
AcDbEntity
  8
SST_PHO
100
AcDbLine
 62
7
  6
CONTINUOUS
 10
3.6777524175
 20
3.5459729363
 11
3.6735524175
 21
3.5375729363
  0
LINE
  5
436
100
AcDbEntity
  8
SST_PHO
100
AcDbLine
 62
7
  6
CONTINUOUS
 10
3.6805524175
 20
3.5389729363
 11
3.6826524175
 21
3.5431729363
  0
LINE
  5
437
100
AcDbEntity
  8
SST_PHO
100
AcDbLine
 62
7
  6
CONTINUOUS
 10
3.7274524175
 20
3.4962729363
 11
3.7302524175
 21
3.5018729363
  0
LINE
  5
438
100
AcDbEntity
  8
SST_PHO
100
AcDbLine
 62
7
  6
CONTINUOUS
 10
3.7239524175
 20
3.5046729363
 11
3.7183524175
 21
3.4941729363
  0
LINE
  5
439
100
AcDbEntity
  8
SST_PHO
100
AcDbLine
 62
7
  6
CONTINUOUS
 10
3.5776524175
 20
3.5039729363
 11
3.5727524175
 21
3.4948729363
  0
LINE
  5
43A
100
AcDbEntity
  8
SST_PHO
100
AcDbLine
 62
7
  6
CONTINUOUS
 10
3.5993524175
 20
3.5529729363
 11
3.5965524175
 21
3.5480729363
  0
LINE
  5
43B
100
AcDbEntity
  8
SST_PHO
100
AcDbLine
 62
7
  6
CONTINUOUS
 10
3.6042524175
 20
3.5487729363
 11
3.6014524175
 21
3.5438729363
  0
LINE
  5
43C
100
AcDbEntity
  8
SST_PHO
100
AcDbLine
 62
7
  6
CONTINUOUS
 10
2.5206524175
 20
1.6884729363
 11
2.5269524175
 21
1.6989729363
  0
LINE
  5
43D
100
AcDbEntity
  8
SST_PHO
100
AcDbLine
 62
7
  6
CONTINUOUS
 10
2.5084524175
 20
1.6961729363
 11
2.5156524175
 21
1.7079729363
  0
LINE
  5
43E
100
AcDbEntity
  8
SST_PHO
100
AcDbLine
 62
7
  6
CONTINUOUS
 10
3.5137004489
 20
3.5409048261
 11
3.5183205277
 21
3.5482969521
  0
LINE
  5
43F
100
AcDbEntity
  8
SST_PHO
100
AcDbLine
 62
7
  6
CONTINUOUS
 10
3.5163323387
 20
3.5400930151
 11
3.5205323387
 21
3.5468130938
  0
LINE
  5
440
100
AcDbEntity
  8
SST_PHO
100
AcDbLine
 62
7
  6
CONTINUOUS
 10
3.5209524175
 20
3.5361729363
 11
3.5244524175
 21
3.5417729363
  0
LINE
  5
441
100
AcDbEntity
  8
SST_PHO
100
AcDbLine
 62
7
  6
CONTINUOUS
 10
2.4754524175
 20
1.6011729363
 11
2.4354524175
 21
1.5386729363
  0
LINE
  5
442
100
AcDbEntity
  8
SST_PHO
100
AcDbLine
 62
7
  6
CONTINUOUS
 10
3.4902224962
 20
3.4956430151
 11
3.4877024175
 21
3.4918630938
  0
LINE
  5
443
100
AcDbEntity
  8
SST_PHO
100
AcDbLine
 62
7
  6
CONTINUOUS
 10
3.4926110789
 20
3.4942815977
 11
3.4899650159
 21
3.4903123064
  0
LINE
  5
444
100
AcDbEntity
  8
SST_PHO
100
AcDbLine
 62
7
  6
CONTINUOUS
 10
3.6077524175
 20
3.5424729363
 11
3.6112524175
 21
3.5473729363
  0
LINE
  5
445
100
AcDbEntity
  8
SST_PHO
100
AcDbLine
 62
7
  6
CONTINUOUS
 10
3.5097524175
 20
3.5424729363
 11
3.5139524175
 21
3.5480729363
  0
LINE
  5
446
100
AcDbEntity
  8
SST_PHO
100
AcDbLine
 62
7
  6
CONTINUOUS
 10
3.4877024175
 20
3.5296630938
 11
3.4851823387
 21
3.5265130938
  0
LINE
  5
447
100
AcDbEntity
  8
SST_PHO
100
AcDbLine
 62
7
  6
CONTINUOUS
 10
3.4899650159
 20
3.5300024639
 11
3.4873189529
 21
3.5266949836
  0
LINE
  5
448
100
AcDbEntity
  8
SST_PHO
100
AcDbLine
 62
7
  6
CONTINUOUS
 10
3.9800524175
 20
2.8065729363
 11
3.9200524175
 21
2.8065729363
  0
LINE
  5
449
100
AcDbEntity
  8
SST_PHO
100
AcDbLine
 62
7
  6
CONTINUOUS
 10
1.2400524175
 20
2.8078729363
 11
1.2920524175
 21
2.8078729363
  0
LINE
  5
44A
100
AcDbEntity
  8
SST_PHO
100
AcDbLine
 62
7
  6
CONTINUOUS
 10
3.1842524175
 20
2.8911729363
 11
2.0342524175
 21
2.8911729363
  0
LINE
  5
44B
100
AcDbEntity
  8
SST_PHO
100
AcDbLine
 62
7
  6
CONTINUOUS
 10
1.2347524175
 20
2.9143729363
 11
1.2997524175
 21
2.9143729363
  0
LINE
  5
44C
100
AcDbEntity
  8
SST_PHO
100
AcDbLine
 62
7
  6
CONTINUOUS
 10
3.9753524175
 20
2.9155729363
 11
3.9273524175
 21
2.9155729363
  0
LINE
  5
44D
100
AcDbEntity
  8
SST_PHO
100
AcDbLine
 62
7
  6
CONTINUOUS
 10
1.2347524175
 20
2.9653729363
 11
1.2997524175
 21
2.9653729363
  0
LINE
  5
44E
100
AcDbEntity
  8
SST_PHO
100
AcDbLine
 62
7
  6
CONTINUOUS
 10
3.9273524175
 20
2.9665729363
 11
3.9753524175
 21
2.9665729363
  0
LINE
  5
44F
100
AcDbEntity
  8
SST_PHO
100
AcDbLine
 62
7
  6
CONTINUOUS
 10
1.4067524175
 20
3.0248729363
 11
1.1129524175
 21
3.0248729363
  0
LINE
  5
450
100
AcDbEntity
  8
SST_PHO
100
AcDbLine
 62
7
  6
CONTINUOUS
 10
3.8117524175
 20
3.0248729363
 11
4.1079524175
 21
3.0248729363
  0
LINE
  5
451
100
AcDbEntity
  8
SST_PHO
100
AcDbLine
 62
7
  6
CONTINUOUS
 10
3.2092524175
 20
3.0286729363
 11
3.8117524175
 21
3.0286729363
  0
LINE
  5
452
100
AcDbEntity
  8
SST_PHO
100
AcDbLine
 62
7
  6
CONTINUOUS
 10
2.0092524175
 20
3.0311729363
 11
1.4092524175
 21
3.0311729363
  0
LINE
  5
453
100
AcDbEntity
  8
SST_PHO
100
AcDbLine
 62
7
  6
CONTINUOUS
 10
3.6154524175
 20
3.5186729363
 11
3.6329524175
 21
3.5144729363
  0
LINE
  5
454
100
AcDbEntity
  8
SST_PHO
100
AcDbLine
 62
7
  6
CONTINUOUS
 10
3.6049524175
 20
3.4850729363
 11
3.6168524175
 21
3.4815729363
  0
LINE
  5
455
100
AcDbEntity
  8
SST_PHO
100
AcDbLine
 62
7
  6
CONTINUOUS
 10
3.6399524175
 20
3.5578729363
 11
3.6280524175
 21
3.5613729363
  0
LINE
  5
456
100
AcDbEntity
  8
SST_PHO
100
AcDbLine
 62
7
  6
CONTINUOUS
 10
3.6882524175
 20
3.4878729363
 11
3.6973524175
 21
3.4850729363
  0
LINE
  5
457
100
AcDbEntity
  8
SST_PHO
100
AcDbLine
 62
7
  6
CONTINUOUS
 10
3.6084524175
 20
3.5284729363
 11
3.6385524175
 21
3.5186729363
  0
LINE
  5
458
100
AcDbEntity
  8
SST_PHO
100
AcDbLine
 62
7
  6
CONTINUOUS
 10
3.6413524175
 20
3.5249729363
 11
3.6112524175
 21
3.5347729363
  0
LINE
  5
459
100
AcDbEntity
  8
SST_PHO
100
AcDbLine
 62
7
  6
CONTINUOUS
 10
3.6175524175
 20
3.4871729363
 11
3.606920134
 21
3.4907170308
  0
LINE
  5
45A
100
AcDbEntity
  8
SST_PHO
100
AcDbLine
 62
7
  6
CONTINUOUS
 10
3.6357524175
 20
3.5536729363
 11
3.6273524175
 21
3.5564729363
  0
LINE
  5
45B
100
AcDbEntity
  8
SST_PHO
100
AcDbLine
 62
7
  6
CONTINUOUS
 10
3.7092524175
 20
3.5536729363
 11
3.7134524175
 21
3.5522729363
  0
LINE
  5
45C
100
AcDbEntity
  8
SST_PHO
100
AcDbLine
 62
7
  6
CONTINUOUS
 10
3.7211524175
 20
3.5536729363
 11
3.7085524175
 21
3.5578729363
  0
LINE
  5
45D
100
AcDbEntity
  8
SST_PHO
100
AcDbLine
 62
7
  6
CONTINUOUS
 10
3.5524524175
 20
3.5606729363
 11
3.5601524175
 21
3.5578729363
  0
LINE
  5
45E
100
AcDbEntity
  8
SST_PHO
100
AcDbLine
 62
7
  6
CONTINUOUS
 10
3.5328524175
 20
3.4822729363
 11
3.5272524175
 21
3.4843729363
  0
LINE
  5
45F
100
AcDbEntity
  8
SST_PHO
100
AcDbLine
 62
7
  6
CONTINUOUS
 10
3.5489524175
 20
3.5494729363
 11
3.5545524175
 21
3.5473729363
  0
LINE
  5
460
100
AcDbEntity
  8
SST_PHO
100
AcDbLine
 62
7
  6
CONTINUOUS
 10
3.5499323387
 20
3.5560528576
 11
3.5566524175
 21
3.5535327788
  0
LINE
  5
461
100
AcDbEntity
  8
SST_PHO
100
AcDbLine
 62
7
  6
CONTINUOUS
 10
3.5506602915
 20
3.5584611253
 11
3.5580524175
 21
3.5556890781
  0
LINE
  5
462
100
AcDbEntity
  8
SST_PHO
100
AcDbLine
 62
7
  6
CONTINUOUS
 10
3.6266524175
 20
3.5508729363
 11
3.6322524175
 21
3.5487729363
  0
LINE
  5
463
100
AcDbEntity
  8
SST_PHO
100
AcDbLine
 62
7
  6
CONTINUOUS
 10
3.6049524175
 20
3.5228729363
 11
3.6154524175
 21
3.5186729363
  0
LINE
  5
464
100
AcDbEntity
  8
SST_PHO
100
AcDbLine
 62
7
  6
CONTINUOUS
 10
3.6189524175
 20
3.4920729363
 11
3.6105524175
 21
3.4955729363
  0
LINE
  5
465
100
AcDbEntity
  8
SST_PHO
100
AcDbLine
 62
7
  6
CONTINUOUS
 10
3.7302524175
 20
3.5018729363
 11
3.7239524175
 21
3.5046729363
  0
LINE
  5
466
100
AcDbEntity
  8
SST_PHO
100
AcDbLine
 62
7
  6
CONTINUOUS
 10
3.6966524175
 20
3.4892729363
 11
3.6889524175
 21
3.4927729363
  0
LINE
  5
467
100
AcDbEntity
  8
SST_PHO
100
AcDbLine
 62
7
  6
CONTINUOUS
 10
3.7134524175
 20
3.5522729363
 11
3.7162524175
 21
3.5508729363
  0
LINE
  5
468
100
AcDbEntity
  8
SST_PHO
100
AcDbLine
 62
7
  6
CONTINUOUS
 10
2.6989524175
 20
1.5949729363
 11
2.6926524175
 21
1.5844729363
  0
LINE
  5
469
100
AcDbEntity
  8
SST_PHO
100
AcDbLine
 62
7
  6
CONTINUOUS
 10
2.7111524175
 20
1.5897729363
 11
2.7039524175
 21
1.5779729363
  0
LINE
  5
46A
100
AcDbEntity
  8
SST_PHO
100
AcDbLine
 62
7
  6
CONTINUOUS
 10
2.5156524175
 20
1.7079729363
 11
2.5241524175
 21
1.7188729363
  0
LINE
  5
46B
100
AcDbEntity
  8
SST_PHO
100
AcDbLine
 62
7
  6
CONTINUOUS
 10
2.5269524175
 20
1.6989729363
 11
2.5344524175
 21
1.7084729363
  0
LINE
  5
46C
100
AcDbEntity
  8
SST_PHO
100
AcDbLine
 62
7
  6
CONTINUOUS
 10
3.6469524175
 20
3.4983729363
 11
3.6413524175
 21
3.4913729363
  0
LINE
  5
46D
100
AcDbEntity
  8
SST_PHO
100
AcDbLine
 62
7
  6
CONTINUOUS
 10
3.6406524175
 20
3.5004729363
 11
3.6364524175
 21
3.4955729363
  0
LINE
  5
46E
100
AcDbEntity
  8
SST_PHO
100
AcDbLine
 62
7
  6
CONTINUOUS
 10
3.6826524175
 20
3.5431729363
 11
3.6882524175
 21
3.5494729363
  0
LINE
  5
46F
100
AcDbEntity
  8
SST_PHO
100
AcDbLine
 62
7
  6
CONTINUOUS
 10
3.7218524175
 20
3.4899729363
 11
3.7274524175
 21
3.4962729363
  0
LINE
  5
470
100
AcDbEntity
  8
SST_PHO
100
AcDbLine
 62
7
  6
CONTINUOUS
 10
3.5139524175
 20
3.5480729363
 11
3.5188524175
 21
3.5529729363
  0
LINE
  5
471
100
AcDbEntity
  8
SST_PHO
100
AcDbLine
 62
7
  6
CONTINUOUS
 10
3.4877024175
 20
3.4918630938
 11
3.4839224962
 21
3.4880827788
  0
LINE
  5
472
100
AcDbEntity
  8
SST_PHO
100
AcDbLine
 62
7
  6
CONTINUOUS
 10
3.5629524175
 20
3.5025729363
 11
3.5587524175
 21
3.4983729363
  0
LINE
  5
473
100
AcDbEntity
  8
SST_PHO
100
AcDbLine
 62
7
  6
CONTINUOUS
 10
3.5667323387
 20
3.4997729363
 11
3.5616925749
 21
3.4947327788
  0
LINE
  5
474
100
AcDbEntity
  8
SST_PHO
100
AcDbLine
 62
7
  6
CONTINUOUS
 10
3.5691406064
 20
3.4965528576
 11
3.5635965119
 21
3.4910087631
  0
LINE
  5
475
100
AcDbEntity
  8
SST_PHO
100
AcDbLine
 62
7
  6
CONTINUOUS
 10
3.5727524175
 20
3.4948729363
 11
3.5664524175
 21
3.4885729363
  0
LINE
  5
476
100
AcDbEntity
  8
SST_PHO
100
AcDbLine
 62
7
  6
CONTINUOUS
 10
3.6847524175
 20
3.5529729363
 11
3.6777524175
 21
3.5459729363
  0
LINE
  5
477
100
AcDbEntity
  8
SST_PHO
100
AcDbLine
 62
7
  6
CONTINUOUS
 10
3.4899650159
 20
3.4903123064
 11
3.4859957245
 21
3.4863434088
  0
LINE
  5
478
100
AcDbEntity
  8
SST_PHO
100
AcDbLine
 62
7
  6
CONTINUOUS
 10
3.5183205277
 20
3.5482969521
 11
3.5247882442
 21
3.5538410466
  0
LINE
  5
479
100
AcDbEntity
  8
SST_PHO
100
AcDbLine
 62
7
  6
CONTINUOUS
 10
3.5205323387
 20
3.5468130938
 11
3.52641226
 21
3.5518528576
  0
LINE
  5
47A
100
AcDbEntity
  8
SST_PHO
100
AcDbLine
 62
7
  6
CONTINUOUS
 10
3.5244524175
 20
3.5417729363
 11
3.5293524175
 21
3.5459729363
  0
LINE
  5
47B
100
AcDbEntity
  8
SST_PHO
100
AcDbLine
 62
7
  6
CONTINUOUS
 10
1.2985524175
 20
2.3178729363
 11
1.2335524175
 21
2.2668729363
  0
LINE
  5
47C
100
AcDbEntity
  8
SST_PHO
100
AcDbLine
 62
7
  6
CONTINUOUS
 10
2.0342524175
 20
3.3936729363
 11
3.1842524175
 21
3.3936729363
  0
LINE
  5
47D
100
AcDbEntity
  8
SST_PHO
100
AcDbLine
 62
7
  6
CONTINUOUS
 10
1.7721524175
 20
3.4676729363
 11
1.7461524175
 21
3.4676729363
  0
LINE
  5
47E
100
AcDbEntity
  8
SST_PHO
100
AcDbLine
 62
7
  6
CONTINUOUS
 10
1.5771524175
 20
3.4676729363
 11
1.5511524175
 21
3.4676729363
  0
LINE
  5
47F
100
AcDbEntity
  8
SST_PHO
100
AcDbLine
 62
7
  6
CONTINUOUS
 10
1.5121524175
 20
3.4676729363
 11
1.4861524175
 21
3.4676729363
  0
LINE
  5
480
100
AcDbEntity
  8
SST_PHO
100
AcDbLine
 62
7
  6
CONTINUOUS
 10
1.8696524175
 20
3.4678729363
 11
1.9086524175
 21
3.4678729363
  0
LINE
  5
481
100
AcDbEntity
  8
SST_PHO
100
AcDbLine
 62
7
  6
CONTINUOUS
 10
2.1358524175
 20
3.4699729363
 11
2.1618524175
 21
3.4699729363
  0
LINE
  5
482
100
AcDbEntity
  8
SST_PHO
100
AcDbLine
 62
7
  6
CONTINUOUS
 10
2.1946524175
 20
3.4701729363
 11
2.2336524175
 21
3.4701729363
  0
LINE
  5
483
100
AcDbEntity
  8
SST_PHO
100
AcDbLine
 62
7
  6
CONTINUOUS
 10
2.2596524175
 20
3.4703729363
 11
2.2921524175
 21
3.4703729363
  0
LINE
  5
484
100
AcDbEntity
  8
SST_PHO
100
AcDbLine
 62
7
  6
CONTINUOUS
 10
2.3246524175
 20
3.4703729363
 11
2.3636524175
 21
3.4703729363
  0
LINE
  5
485
100
AcDbEntity
  8
SST_PHO
100
AcDbLine
 62
7
  6
CONTINUOUS
 10
3.5461524175
 20
3.4815729363
 11
3.5377524175
 21
3.4815729363
  0
LINE
  5
486
100
AcDbEntity
  8
SST_PHO
100
AcDbLine
 62
7
  6
CONTINUOUS
 10
3.6168524175
 20
3.4815729363
 11
3.6301524175
 21
3.4815729363
  0
LINE
  5
487
100
AcDbEntity
  8
SST_PHO
100
AcDbLine
 62
7
  6
CONTINUOUS
 10
3.4754118663
 20
3.4817130938
 11
3.4278575356
 21
3.4817130938
  0
LINE
  5
488
100
AcDbEntity
  8
SST_PHO
100
AcDbLine
 62
7
  6
CONTINUOUS
 10
3.4738425749
 20
3.4836729363
 11
3.4285524175
 21
3.4836729363
  0
LINE
  5
489
100
AcDbEntity
  8
SST_PHO
100
AcDbLine
 62
7
  6
CONTINUOUS
 10
3.5506602915
 20
3.4845410466
 11
3.5340284017
 21
3.4845410466
  0
LINE
  5
48A
100
AcDbEntity
  8
SST_PHO
100
AcDbLine
 62
7
  6
CONTINUOUS
 10
3.8124524175
 20
3.4848729363
 11
3.8051524175
 21
3.4848729363
  0
LINE
  5
48B
100
AcDbEntity
  8
SST_PHO
100
AcDbLine
 62
7
  6
CONTINUOUS
 10
3.6973524175
 20
3.4850729363
 11
3.7085524175
 21
3.4850729363
  0
LINE
  5
48C
100
AcDbEntity
  8
SST_PHO
100
AcDbLine
 62
7
  6
CONTINUOUS
 10
3.7624524175
 20
3.4853729363
 11
3.7554524175
 21
3.4853729363
  0
LINE
  5
48D
100
AcDbEntity
  8
SST_PHO
100
AcDbLine
 62
7
  6
CONTINUOUS
 10
3.6294524175
 20
3.4871729363
 11
3.6175524175
 21
3.4871729363
  0
LINE
  5
48E
100
AcDbEntity
  8
SST_PHO
100
AcDbLine
 62
7
  6
CONTINUOUS
 10
3.5499323387
 20
3.4888528576
 11
3.53481226
 21
3.4888528576
  0
LINE
  5
48F
100
AcDbEntity
  8
SST_PHO
100
AcDbLine
 62
7
  6
CONTINUOUS
 10
3.7085524175
 20
3.4892729363
 11
3.6966524175
 21
3.4892729363
  0
LINE
  5
490
100
AcDbEntity
  8
SST_PHO
100
AcDbLine
 62
7
  6
CONTINUOUS
 10
3.4747524175
 20
3.4892729363
 11
3.4348524175
 21
3.4892729363
  0
LINE
  5
491
100
AcDbEntity
  8
SST_PHO
100
AcDbLine
 62
7
  6
CONTINUOUS
 10
3.6280524175
 20
3.4920729363
 11
3.6189524175
 21
3.4920729363
  0
LINE
  5
492
100
AcDbEntity
  8
SST_PHO
100
AcDbLine
 62
7
  6
CONTINUOUS
 10
3.4677524175
 20
3.4927729363
 11
3.4411524175
 21
3.4927729363
  0
LINE
  5
493
100
AcDbEntity
  8
SST_PHO
100
AcDbLine
 62
7
  6
CONTINUOUS
 10
3.5489524175
 20
3.4934729363
 11
3.5363524175
 21
3.4934729363
  0
LINE
  5
494
100
AcDbEntity
  8
SST_PHO
100
AcDbLine
 62
7
  6
CONTINUOUS
 10
1.7068524175
 20
3.4974729363
 11
1.6743524175
 21
3.4974729363
  0
LINE
  5
495
100
AcDbEntity
  8
SST_PHO
100
AcDbLine
 62
7
  6
CONTINUOUS
 10
1.8891524175
 20
3.4978729363
 11
1.8696524175
 21
3.4978729363
  0
LINE
  5
496
100
AcDbEntity
  8
SST_PHO
100
AcDbLine
 62
7
  6
CONTINUOUS
 10
2.1621524175
 20
3.5000729363
 11
2.1361524175
 21
3.5000729363
  0
LINE
  5
497
100
AcDbEntity
  8
SST_PHO
100
AcDbLine
 62
7
  6
CONTINUOUS
 10
2.3441524175
 20
3.5003729363
 11
2.3246524175
 21
3.5003729363
  0
LINE
  5
498
100
AcDbEntity
  8
SST_PHO
100
AcDbLine
 62
7
  6
CONTINUOUS
 10
3.6049524175
 20
3.5046729363
 11
3.5923524175
 21
3.5046729363
  0
LINE
  5
499
100
AcDbEntity
  8
SST_PHO
100
AcDbLine
 62
7
  6
CONTINUOUS
 10
3.8051524175
 20
3.5168729363
 11
3.7624524175
 21
3.5168729363
  0
LINE
  5
49A
100
AcDbEntity
  8
SST_PHO
100
AcDbLine
 62
7
  6
CONTINUOUS
 10
3.4411524175
 20
3.5179729363
 11
3.4677524175
 21
3.5179729363
  0
LINE
  5
49B
100
AcDbEntity
  8
SST_PHO
100
AcDbLine
 62
7
  6
CONTINUOUS
 10
3.4348524175
 20
3.5207729363
 11
3.4747524175
 21
3.5207729363
  0
LINE
  5
49C
100
AcDbEntity
  8
SST_PHO
100
AcDbLine
 62
7
  6
CONTINUOUS
 10
3.4747524175
 20
3.5228729363
 11
3.4348524175
 21
3.5228729363
  0
LINE
  5
49D
100
AcDbEntity
  8
SST_PHO
100
AcDbLine
 62
7
  6
CONTINUOUS
 10
3.7624524175
 20
3.5248729363
 11
3.8051524175
 21
3.5248729363
  0
LINE
  5
49E
100
AcDbEntity
  8
SST_PHO
100
AcDbLine
 62
7
  6
CONTINUOUS
 10
1.6743524175
 20
3.5274729363
 11
1.7068524175
 21
3.5274729363
  0
LINE
  5
49F
100
AcDbEntity
  8
SST_PHO
100
AcDbLine
 62
7
  6
CONTINUOUS
 10
1.4861524175
 20
3.5276729363
 11
1.5121524175
 21
3.5276729363
  0
LINE
  5
4A0
100
AcDbEntity
  8
SST_PHO
100
AcDbLine
 62
7
  6
CONTINUOUS
 10
1.5511524175
 20
3.5276729363
 11
1.5771524175
 21
3.5276729363
  0
LINE
  5
4A1
100
AcDbEntity
  8
SST_PHO
100
AcDbLine
 62
7
  6
CONTINUOUS
 10
1.7461524175
 20
3.5276729363
 11
1.7721524175
 21
3.5276729363
  0
LINE
  5
4A2
100
AcDbEntity
  8
SST_PHO
100
AcDbLine
 62
7
  6
CONTINUOUS
 10
3.4677524175
 20
3.5277729363
 11
3.4411524175
 21
3.5277729363
  0
LINE
  5
4A3
100
AcDbEntity
  8
SST_PHO
100
AcDbLine
 62
7
  6
CONTINUOUS
 10
1.9996524175
 20
3.5277729363
 11
2.0386524175
 21
3.5277729363
  0
LINE
  5
4A4
100
AcDbEntity
  8
SST_PHO
100
AcDbLine
 62
7
  6
CONTINUOUS
 10
1.8696524175
 20
3.5278729363
 11
1.9086524175
 21
3.5278729363
  0
LINE
  5
4A5
100
AcDbEntity
  8
SST_PHO
100
AcDbLine
 62
7
  6
CONTINUOUS
 10
2.1946524175
 20
3.5301729363
 11
2.2336524175
 21
3.5301729363
  0
LINE
  5
4A6
100
AcDbEntity
  8
SST_PHO
100
AcDbLine
 62
7
  6
CONTINUOUS
 10
2.2921524175
 20
3.5303729363
 11
2.2596524175
 21
3.5303729363
  0
LINE
  5
4A7
100
AcDbEntity
  8
SST_PHO
100
AcDbLine
 62
7
  6
CONTINUOUS
 10
2.3246524175
 20
3.5303729363
 11
2.3636524175
 21
3.5303729363
  0
LINE
  5
4A8
100
AcDbEntity
  8
SST_PHO
100
AcDbLine
 62
7
  6
CONTINUOUS
 10
3.5433524175
 20
3.5613729363
 11
3.5524524175
 21
3.5606729363
  0
LINE
  5
4A9
100
AcDbEntity
  8
SST_PHO
100
AcDbLine
 62
7
  6
CONTINUOUS
 10
3.5377524175
 20
3.4815729363
 11
3.5328524175
 21
3.4822729363
  0
LINE
  5
4AA
100
AcDbEntity
  8
SST_PHO
100
AcDbLine
 62
7
  6
CONTINUOUS
 10
3.4713224962
 20
3.5592729363
 11
3.4751024175
 21
3.5586430151
  0
LINE
  5
4AB
100
AcDbEntity
  8
SST_PHO
100
AcDbLine
 62
7
  6
CONTINUOUS
 10
3.4727658033
 20
3.5610930151
 11
3.4767350946
 21
3.5604315977
  0
LINE
  5
4AC
100
AcDbEntity
  8
SST_PHO
100
AcDbLine
 62
7
  6
CONTINUOUS
 10
3.9213524175
 20
2.9580729363
 11
3.9273524175
 21
2.9665729363
  0
LINE
  5
4AD
100
AcDbEntity
  8
SST_PHO
100
AcDbLine
 62
7
  6
CONTINUOUS
 10
3.9813524175
 20
2.9240729363
 11
3.9753524175
 21
2.9155729363
  0
LINE
  5
4AE
100
AcDbEntity
  8
SST_PHO
100
AcDbLine
 62
7
  6
CONTINUOUS
 10
2.7039524175
 20
1.5779729363
 11
2.6954524175
 21
1.5670729363
  0
LINE
  5
4AF
100
AcDbEntity
  8
SST_PHO
100
AcDbLine
 62
7
  6
CONTINUOUS
 10
2.6926524175
 20
1.5844729363
 11
2.6851524175
 21
1.5749729363
  0
LINE
  5
4B0
100
AcDbEntity
  8
SST_PHO
100
AcDbLine
 62
7
  6
CONTINUOUS
 10
3.6091524175
 20
3.5529729363
 11
3.6042524175
 21
3.5487729363
  0
LINE
  5
4B1
100
AcDbEntity
  8
SST_PHO
100
AcDbLine
 62
7
  6
CONTINUOUS
 10
3.6070524175
 20
3.5592729363
 11
3.5993524175
 21
3.5529729363
  0
LINE
  5
4B2
100
AcDbEntity
  8
SST_PHO
100
AcDbLine
 62
7
  6
CONTINUOUS
 10
3.6420524175
 20
3.4850729363
 11
3.6497524175
 21
3.4906729363
  0
LINE
  5
4B3
100
AcDbEntity
  8
SST_PHO
100
AcDbLine
 62
7
  6
CONTINUOUS
 10
3.4851823387
 20
3.5265130938
 11
3.4814024175
 21
3.5239930151
  0
LINE
  5
4B4
100
AcDbEntity
  8
SST_PHO
100
AcDbLine
 62
7
  6
CONTINUOUS
 10
3.4873189529
 20
3.5266949836
 11
3.4833500552
 21
3.5240489206
  0
LINE
  5
4B5
100
AcDbEntity
  8
SST_PHO
100
AcDbLine
 62
7
  6
CONTINUOUS
 10
3.4859957245
 20
3.4863434088
 11
3.4820268269
 21
3.4836973458
  0
LINE
  5
4B6
100
AcDbEntity
  8
SST_PHO
100
AcDbLine
 62
7
  6
CONTINUOUS
 10
3.7183524175
 20
3.4941729363
 11
3.7141524175
 21
3.4913729363
  0
LINE
  5
4B7
100
AcDbEntity
  8
SST_PHO
100
AcDbLine
 62
7
  6
CONTINUOUS
 10
3.4839224962
 20
3.4880827788
 11
3.4801425749
 21
3.4855630938
  0
LINE
  5
4B8
100
AcDbEntity
  8
SST_PHO
100
AcDbLine
 62
7
  6
CONTINUOUS
 10
3.5188524175
 20
3.5529729363
 11
3.5265524175
 21
3.5578729363
  0
LINE
  5
4B9
100
AcDbEntity
  8
SST_PHO
100
AcDbLine
 62
7
  6
CONTINUOUS
 10
3.5587524175
 20
3.4983729363
 11
3.5531524175
 21
3.4948729363
  0
LINE
  5
4BA
100
AcDbEntity
  8
SST_PHO
100
AcDbLine
 62
7
  6
CONTINUOUS
 10
3.5616925749
 20
3.4947327788
 11
3.5549724962
 21
3.4905327788
  0
LINE
  5
4BB
100
AcDbEntity
  8
SST_PHO
100
AcDbLine
 62
7
  6
CONTINUOUS
 10
3.5635965119
 20
3.4910087631
 11
3.556204386
 21
3.4863890781
  0
LINE
  5
4BC
100
AcDbEntity
  8
SST_PHO
100
AcDbLine
 62
7
  6
CONTINUOUS
 10
3.5664524175
 20
3.4885729363
 11
3.5594524175
 21
3.4843729363
  0
LINE
  5
4BD
100
AcDbEntity
  8
SST_PHO
100
AcDbLine
 62
7
  6
CONTINUOUS
 10
1.2542524175
 20
2.4586729363
 11
1.2997524175
 21
2.4826729363
  0
LINE
  5
4BE
100
AcDbEntity
  8
SST_PHO
100
AcDbLine
 62
7
  6
CONTINUOUS
 10
3.5349524175
 20
3.5487729363
 11
3.5391524175
 21
3.5494729363
  0
LINE
  5
4BF
100
AcDbEntity
  8
SST_PHO
100
AcDbLine
 62
7
  6
CONTINUOUS
 10
3.5331323387
 20
3.5552130938
 11
3.5381724962
 21
3.5560528576
  0
LINE
  5
4C0
100
AcDbEntity
  8
SST_PHO
100
AcDbLine
 62
7
  6
CONTINUOUS
 10
3.5321803702
 20
3.5575371095
 11
3.5377244647
 21
3.5584611253
  0
LINE
  5
4C1
100
AcDbEntity
  8
SST_PHO
100
AcDbLine
 62
7
  6
CONTINUOUS
 10
3.5524524175
 20
3.4822729363
 11
3.5461524175
 21
3.4815729363
  0
LINE
  5
4C2
100
AcDbEntity
  8
SST_PHO
100
AcDbLine
 62
7
  6
CONTINUOUS
 10
3.5356524175
 20
3.5606729363
 11
3.5433524175
 21
3.5613729363
  0
LINE
  5
4C3
100
AcDbEntity
  8
SST_PHO
100
AcDbLine
 62
7
  6
CONTINUOUS
 10
2.1358524175
 20
3.5299729363
 11
2.1621524175
 21
3.5300729363
  0
LINE
  5
4C4
100
AcDbEntity
  8
SST_PHO
100
AcDbLine
 62
7
  6
CONTINUOUS
 10
3.6385524175
 20
3.5410729363
 11
3.6511524175
 21
3.5410729363
  0
LINE
  5
4C5
100
AcDbEntity
  8
SST_PHO
100
AcDbLine
 62
7
  6
CONTINUOUS
 10
3.5391524175
 20
3.5494729363
 11
3.5489524175
 21
3.5494729363
  0
LINE
  5
4C6
100
AcDbEntity
  8
SST_PHO
100
AcDbLine
 62
7
  6
CONTINUOUS
 10
3.4411524175
 20
3.5501729363
 11
3.4677524175
 21
3.5501729363
  0
LINE
  5
4C7
100
AcDbEntity
  8
SST_PHO
100
AcDbLine
 62
7
  6
CONTINUOUS
 10
3.6196524175
 20
3.5508729363
 11
3.6266524175
 21
3.5508729363
  0
LINE
  5
4C8
100
AcDbEntity
  8
SST_PHO
100
AcDbLine
 62
7
  6
CONTINUOUS
 10
3.6987524175
 20
3.5536729363
 11
3.7092524175
 21
3.5536729363
  0
LINE
  5
4C9
100
AcDbEntity
  8
SST_PHO
100
AcDbLine
 62
7
  6
CONTINUOUS
 10
3.4348524175
 20
3.5543729363
 11
3.4747524175
 21
3.5543729363
  0
LINE
  5
4CA
100
AcDbEntity
  8
SST_PHO
100
AcDbLine
 62
7
  6
CONTINUOUS
 10
3.5381724962
 20
3.5560528576
 11
3.5499323387
 21
3.5560528576
  0
LINE
  5
4CB
100
AcDbEntity
  8
SST_PHO
100
AcDbLine
 62
7
  6
CONTINUOUS
 10
3.6273524175
 20
3.5564729363
 11
3.6168524175
 21
3.5564729363
  0
LINE
  5
4CC
100
AcDbEntity
  8
SST_PHO
100
AcDbLine
 62
7
  6
CONTINUOUS
 10
3.7085524175
 20
3.5578729363
 11
3.6994524175
 21
3.5578729363
  0
LINE
  5
4CD
100
AcDbEntity
  8
SST_PHO
100
AcDbLine
 62
7
  6
CONTINUOUS
 10
3.7554524175
 20
3.5578729363
 11
3.7624524175
 21
3.5578729363
  0
LINE
  5
4CE
100
AcDbEntity
  8
SST_PHO
100
AcDbLine
 62
7
  6
CONTINUOUS
 10
3.8051524175
 20
3.5578729363
 11
3.8124524175
 21
3.5578729363
  0
LINE
  5
4CF
100
AcDbEntity
  8
SST_PHO
100
AcDbLine
 62
7
  6
CONTINUOUS
 10
3.5377244647
 20
3.5584611253
 11
3.5506602915
 21
3.5584611253
  0
LINE
  5
4D0
100
AcDbEntity
  8
SST_PHO
100
AcDbLine
 62
7
  6
CONTINUOUS
 10
3.4285524175
 20
3.5592729363
 11
3.4713224962
 21
3.5592729363
  0
LINE
  5
4D1
100
AcDbEntity
  8
SST_PHO
100
AcDbLine
 62
7
  6
CONTINUOUS
 10
3.4278575356
 20
3.5610930151
 11
3.4727658033
 21
3.5610930151
  0
LINE
  5
4D2
100
AcDbEntity
  8
SST_PHO
100
AcDbLine
 62
7
  6
CONTINUOUS
 10
3.6280524175
 20
3.5613729363
 11
3.6154524175
 21
3.5613729363
  0
LINE
  5
4D3
100
AcDbEntity
  8
SST_PHO
100
AcDbLine
 62
7
  6
CONTINUOUS
 10
1.4808524175
 20
3.5666729363
 11
1.5133524175
 21
3.5666729363
  0
LINE
  5
4D4
100
AcDbEntity
  8
SST_PHO
100
AcDbLine
 62
7
  6
CONTINUOUS
 10
1.7018524175
 20
3.5667729363
 11
1.6823524175
 21
3.5667729363
  0
LINE
  5
4D5
100
AcDbEntity
  8
SST_PHO
100
AcDbLine
 62
7
  6
CONTINUOUS
 10
1.6368524175
 20
3.5667729363
 11
1.6173524175
 21
3.5667729363
  0
LINE
  5
4D6
100
AcDbEntity
  8
SST_PHO
100
AcDbLine
 62
7
  6
CONTINUOUS
 10
1.5458524175
 20
3.5667729363
 11
1.5718524175
 21
3.5667729363
  0
LINE
  5
4D7
100
AcDbEntity
  8
SST_PHO
100
AcDbLine
 62
7
  6
CONTINUOUS
 10
2.2933524175
 20
3.5701729363
 11
2.2673524175
 21
3.5701729363
  0
LINE
  5
4D8
100
AcDbEntity
  8
SST_PHO
100
AcDbLine
 62
7
  6
CONTINUOUS
 10
2.4233524175
 20
3.5702729363
 11
2.3973524175
 21
3.5702729363
  0
LINE
  5
4D9
100
AcDbEntity
  8
SST_PHO
100
AcDbLine
 62
7
  6
CONTINUOUS
 10
2.3258524175
 20
3.5703729363
 11
2.3583524175
 21
3.5703729363
  0
LINE
  5
4DA
100
AcDbEntity
  8
SST_PHO
100
AcDbLine
 62
7
  6
CONTINUOUS
 10
2.4558524175
 20
3.5703729363
 11
2.4948524175
 21
3.5703729363
  0
LINE
  5
4DB
100
AcDbEntity
  8
SST_PHO
100
AcDbLine
 62
7
  6
CONTINUOUS
 10
2.5208524175
 20
3.5703729363
 11
2.5598524175
 21
3.5703729363
  0
LINE
  5
4DC
100
AcDbEntity
  8
SST_PHO
100
AcDbLine
 62
7
  6
CONTINUOUS
 10
1.8708524175
 20
3.5716729363
 11
1.9098524175
 21
3.5716729363
  0
LINE
  5
4DD
100
AcDbEntity
  8
SST_PHO
100
AcDbLine
 62
7
  6
CONTINUOUS
 10
1.9358524175
 20
3.5716729363
 11
1.9748524175
 21
3.5716729363
  0
LINE
  5
4DE
100
AcDbEntity
  8
SST_PHO
100
AcDbLine
 62
7
  6
CONTINUOUS
 10
2.0073524175
 20
3.5894729363
 11
2.0333524175
 21
3.5894729363
  0
LINE
  5
4DF
100
AcDbEntity
  8
SST_PHO
100
AcDbLine
 62
7
  6
CONTINUOUS
 10
1.6368524175
 20
3.5967729363
 11
1.6238524175
 21
3.5967729363
  0
LINE
  5
4E0
100
AcDbEntity
  8
SST_PHO
100
AcDbLine
 62
7
  6
CONTINUOUS
 10
2.5403524175
 20
3.6003729363
 11
2.5208524175
 21
3.6003729363
  0
LINE
  5
4E1
100
AcDbEntity
  8
SST_PHO
100
AcDbLine
 62
7
  6
CONTINUOUS
 10
1.8383524175
 20
3.6013729363
 11
1.8058524175
 21
3.6013729363
  0
LINE
  5
4E2
100
AcDbEntity
  8
SST_PHO
100
AcDbLine
 62
7
  6
CONTINUOUS
 10
1.8903524175
 20
3.6016729363
 11
1.8708524175
 21
3.6016729363
  0
LINE
  5
4E3
100
AcDbEntity
  8
SST_PHO
100
AcDbLine
 62
7
  6
CONTINUOUS
 10
1.5133524175
 20
3.6266729363
 11
1.4808524175
 21
3.6266729363
  0
LINE
  5
4E4
100
AcDbEntity
  8
SST_PHO
100
AcDbLine
 62
7
  6
CONTINUOUS
 10
1.6173524175
 20
3.6267729363
 11
1.6368524175
 21
3.6267729363
  0
LINE
  5
4E5
100
AcDbEntity
  8
SST_PHO
100
AcDbLine
 62
7
  6
CONTINUOUS
 10
1.6823524175
 20
3.6267729363
 11
1.7018524175
 21
3.6267729363
  0
LINE
  5
4E6
100
AcDbEntity
  8
SST_PHO
100
AcDbLine
 62
7
  6
CONTINUOUS
 10
2.2673524175
 20
3.6301729363
 11
2.2933524175
 21
3.6301729363
  0
LINE
  5
4E7
100
AcDbEntity
  8
SST_PHO
100
AcDbLine
 62
7
  6
CONTINUOUS
 10
2.3583524175
 20
3.6303729363
 11
2.3258524175
 21
3.6303729363
  0
LINE
  5
4E8
100
AcDbEntity
  8
SST_PHO
100
AcDbLine
 62
7
  6
CONTINUOUS
 10
2.5208524175
 20
3.6303729363
 11
2.5598524175
 21
3.6303729363
  0
LINE
  5
4E9
100
AcDbEntity
  8
SST_PHO
100
AcDbLine
 62
7
  6
CONTINUOUS
 10
1.8058524175
 20
3.6313729363
 11
1.8383524175
 21
3.6313729363
  0
LINE
  5
4EA
100
AcDbEntity
  8
SST_PHO
100
AcDbLine
 62
7
  6
CONTINUOUS
 10
1.8708524175
 20
3.6316729363
 11
1.9098524175
 21
3.6316729363
  0
LINE
  5
4EB
100
AcDbEntity
  8
SST_PHO
100
AcDbLine
 62
7
  6
CONTINUOUS
 10
1.1124524175
 20
3.7678729363
 11
4.1124524175
 21
3.7678729363
  0
LINE
  5
4EC
100
AcDbEntity
  8
SST_PHO
100
AcDbLine
 62
7
  6
CONTINUOUS
 10
3.9213524175
 20
2.5395729363
 11
3.9273524175
 21
2.5475729363
  0
LINE
  5
4ED
100
AcDbEntity
  8
SST_PHO
100
AcDbLine
 62
7
  6
CONTINUOUS
 10
3.9213524175
 20
2.4595729363
 11
3.9273524175
 21
2.4675729363
  0
LINE
  5
4EE
100
AcDbEntity
  8
SST_PHO
100
AcDbLine
 62
7
  6
CONTINUOUS
 10
3.9813524175
 20
2.5075729363
 11
3.9753524175
 21
2.4995729363
  0
LINE
  5
4EF
100
AcDbEntity
  8
SST_PHO
100
AcDbLine
 62
7
  6
CONTINUOUS
 10
3.9813524175
 20
2.4275729363
 11
3.9753524175
 21
2.4195729363
  0
LINE
  5
4F0
100
AcDbEntity
  8
SST_PHO
100
AcDbLine
 62
7
  6
CONTINUOUS
 10
3.9198524175
 20
2.2980729363
 11
3.9263524175
 21
2.3065729363
  0
LINE
  5
4F1
100
AcDbEntity
  8
SST_PHO
100
AcDbLine
 62
7
  6
CONTINUOUS
 10
3.9848524175
 20
2.2640729363
 11
3.9783524175
 21
2.2555729363
  0
LINE
  5
4F2
100
AcDbEntity
  8
SST_PHO
100
AcDbLine
 62
7
  6
CONTINUOUS
 10
2.5241524175
 20
1.7188729363
 11
2.5339524175
 21
1.7286729363
  0
LINE
  5
4F3
100
AcDbEntity
  8
SST_PHO
100
AcDbLine
 62
7
  6
CONTINUOUS
 10
2.5344524175
 20
1.7084729363
 11
2.5430524175
 21
1.7170729363
  0
LINE
  5
4F4
100
AcDbEntity
  8
SST_PHO
100
AcDbLine
 62
7
  6
CONTINUOUS
 10
2.6851524175
 20
1.5749729363
 11
2.6765524175
 21
1.5663729363
  0
LINE
  5
4F5
100
AcDbEntity
  8
SST_PHO
100
AcDbLine
 62
7
  6
CONTINUOUS
 10
2.6954524175
 20
1.5670729363
 11
2.6856524175
 21
1.5572729363
  0
LINE
  5
4F6
100
AcDbEntity
  8
SST_PHO
100
AcDbLine
 62
7
  6
CONTINUOUS
 10
2.1442524175
 20
2.2323729363
 11
2.0854524175
 21
2.1948729363
  0
LINE
  5
4F7
100
AcDbEntity
  8
SST_PHO
100
AcDbLine
 62
7
  6
CONTINUOUS
 10
3.7169524175
 20
3.4871729363
 11
3.7218524175
 21
3.4899729363
  0
LINE
  5
4F8
100
AcDbEntity
  8
SST_PHO
100
AcDbLine
 62
7
  6
CONTINUOUS
 10
3.5247882442
 20
3.5538410466
 11
3.5321803702
 21
3.5575371095
  0
LINE
  5
4F9
100
AcDbEntity
  8
SST_PHO
100
AcDbLine
 62
7
  6
CONTINUOUS
 10
3.52641226
 20
3.5518528576
 11
3.5331323387
 21
3.5552130938
  0
LINE
  5
4FA
100
AcDbEntity
  8
SST_PHO
100
AcDbLine
 62
7
  6
CONTINUOUS
 10
3.5293524175
 20
3.5459729363
 11
3.5349524175
 21
3.5487729363
  0
LINE
  5
4FB
100
AcDbEntity
  8
SST_PHO
100
AcDbLine
 62
7
  6
CONTINUOUS
 10
3.6903524175
 20
3.5557729363
 11
3.6847524175
 21
3.5529729363
  0
LINE
  5
4FC
100
AcDbEntity
  8
SST_PHO
100
AcDbLine
 62
7
  6
CONTINUOUS
 10
3.6168524175
 20
3.5564729363
 11
3.6091524175
 21
3.5529729363
  0
LINE
  5
4FD
100
AcDbEntity
  8
SST_PHO
100
AcDbLine
 62
7
  6
CONTINUOUS
 10
3.6112524175
 20
3.5473729363
 11
3.6196524175
 21
3.5508729363
  0
LINE
  5
4FE
100
AcDbEntity
  8
SST_PHO
100
AcDbLine
 62
7
  6
CONTINUOUS
 10
3.6364524175
 20
3.4955729363
 11
3.6280524175
 21
3.4920729363
  0
LINE
  5
4FF
100
AcDbEntity
  8
SST_PHO
100
AcDbLine
 62
7
  6
CONTINUOUS
 10
3.6882524175
 20
3.5494729363
 11
3.6987524175
 21
3.5536729363
  0
LINE
  5
500
100
AcDbEntity
  8
SST_PHO
100
AcDbLine
 62
7
  6
CONTINUOUS
 10
3.7085524175
 20
3.4850729363
 11
3.7169524175
 21
3.4871729363
  0
LINE
  5
501
100
AcDbEntity
  8
SST_PHO
100
AcDbLine
 62
7
  6
CONTINUOUS
 10
3.6154524175
 20
3.5613729363
 11
3.6070524175
 21
3.5592729363
  0
LINE
  5
502
100
AcDbEntity
  8
SST_PHO
100
AcDbLine
 62
7
  6
CONTINUOUS
 10
3.6994524175
 20
3.5578729363
 11
3.6903524175
 21
3.5557729363
  0
LINE
  5
503
100
AcDbEntity
  8
SST_PHO
100
AcDbLine
 62
7
  6
CONTINUOUS
 10
3.9221524175
 20
1.8023729363
 11
3.9286524175
 21
1.8103729363
  0
LINE
  5
504
100
AcDbEntity
  8
SST_PHO
100
AcDbLine
 62
7
  6
CONTINUOUS
 10
3.8321524175
 20
1.8607729363
 11
3.8386524175
 21
1.8682729363
  0
LINE
  5
505
100
AcDbEntity
  8
SST_PHO
100
AcDbLine
 62
7
  6
CONTINUOUS
 10
3.9200524175
 20
2.7555729363
 11
3.9800524175
 21
2.8065729363
  0
LINE
  5
506
100
AcDbEntity
  8
SST_PHO
100
AcDbLine
 62
7
  6
CONTINUOUS
 10
2.5430524175
 20
1.7170729363
 11
2.5525524175
 21
1.7245729363
  0
LINE
  5
507
100
AcDbEntity
  8
SST_PHO
100
AcDbLine
 62
7
  6
CONTINUOUS
 10
2.6765524175
 20
1.5663729363
 11
2.6670524175
 21
1.5588729363
  0
LINE
  5
508
100
AcDbEntity
  8
SST_PHO
100
AcDbLine
 62
7
  6
CONTINUOUS
 10
2.5339524175
 20
1.7286729363
 11
2.5447524175
 21
1.7371729363
  0
LINE
  5
509
100
AcDbEntity
  8
SST_PHO
100
AcDbLine
 62
7
  6
CONTINUOUS
 10
2.6856524175
 20
1.5572729363
 11
2.6748524175
 21
1.5487729363
  0
LINE
  5
50A
100
AcDbEntity
  8
SST_PHO
100
AcDbLine
 62
7
  6
CONTINUOUS
 10
3.7141524175
 20
3.4913729363
 11
3.7085524175
 21
3.4892729363
  0
LINE
  5
50B
100
AcDbEntity
  8
SST_PHO
100
AcDbLine
 62
7
  6
CONTINUOUS
 10
3.6413524175
 20
3.4913729363
 11
3.6294524175
 21
3.4871729363
  0
LINE
  5
50C
100
AcDbEntity
  8
SST_PHO
100
AcDbLine
 62
7
  6
CONTINUOUS
 10
3.5531524175
 20
3.4948729363
 11
3.5489524175
 21
3.4934729363
  0
LINE
  5
50D
100
AcDbEntity
  8
SST_PHO
100
AcDbLine
 62
7
  6
CONTINUOUS
 10
3.5549724962
 20
3.4905327788
 11
3.5499323387
 21
3.4888528576
  0
LINE
  5
50E
100
AcDbEntity
  8
SST_PHO
100
AcDbLine
 62
7
  6
CONTINUOUS
 10
3.556204386
 20
3.4863890781
 11
3.5506602915
 21
3.4845410466
  0
LINE
  5
50F
100
AcDbEntity
  8
SST_PHO
100
AcDbLine
 62
7
  6
CONTINUOUS
 10
3.5265524175
 20
3.5578729363
 11
3.5356524175
 21
3.5606729363
  0
LINE
  5
510
100
AcDbEntity
  8
SST_PHO
100
AcDbLine
 62
7
  6
CONTINUOUS
 10
3.4801425749
 20
3.4855630938
 11
3.4738425749
 21
3.4836729363
  0
LINE
  5
511
100
AcDbEntity
  8
SST_PHO
100
AcDbLine
 62
7
  6
CONTINUOUS
 10
3.4820268269
 20
3.4836973458
 11
3.4754118663
 21
3.4817130938
  0
LINE
  5
512
100
AcDbEntity
  8
SST_PHO
100
AcDbLine
 62
7
  6
CONTINUOUS
 10
3.5594524175
 20
3.4843729363
 11
3.5524524175
 21
3.4822729363
  0
LINE
  5
513
100
AcDbEntity
  8
SST_PHO
100
AcDbLine
 62
7
  6
CONTINUOUS
 10
3.6301524175
 20
3.4815729363
 11
3.6420524175
 21
3.4850729363
  0
LINE
  5
514
100
AcDbEntity
  8
SST_PHO
100
AcDbLine
 62
7
  6
CONTINUOUS
 10
3.7239524175
 20
3.5417729363
 11
3.7288524175
 21
3.5431729363
  0
LINE
  5
515
100
AcDbEntity
  8
SST_PHO
100
AcDbLine
 62
7
  6
CONTINUOUS
 10
3.9225524175
 20
2.0927729363
 11
3.9825524175
 21
2.1467729363
  0
LINE
  5
516
100
AcDbEntity
  8
SST_PHO
100
AcDbLine
 62
7
  6
CONTINUOUS
 10
2.5525524175
 20
1.7245729363
 11
2.5630524175
 21
1.7308729363
  0
LINE
  5
517
100
AcDbEntity
  8
SST_PHO
100
AcDbLine
 62
7
  6
CONTINUOUS
 10
2.5447524175
 20
1.7371729363
 11
2.5566524175
 21
1.7442729363
  0
LINE
  5
518
100
AcDbEntity
  8
SST_PHO
100
AcDbLine
 62
7
  6
CONTINUOUS
 10
3.9633524175
 20
2.6035729363
 11
3.9213524175
 21
2.5795729363
  0
LINE
  5
519
100
AcDbEntity
  8
SST_PHO
100
AcDbLine
 62
7
  6
CONTINUOUS
 10
1.2071524175
 20
1.8273729363
 11
1.2720524175
 21
1.8517729363
  0
LINE
  5
51A
100
AcDbEntity
  8
SST_PHO
100
AcDbLine
 62
7
  6
CONTINUOUS
 10
3.1205524175
 20
1.4823729363
 11
3.0617524175
 21
1.4448729363
  0
LINE
  5
51B
100
AcDbEntity
  8
SST_PHO
100
AcDbLine
 62
7
  6
CONTINUOUS
 10
2.6670524175
 20
1.5588729363
 11
2.6565524175
 21
1.5525729363
  0
LINE
  5
51C
100
AcDbEntity
  8
SST_PHO
100
AcDbLine
 62
7
  6
CONTINUOUS
 10
2.6748524175
 20
1.5487729363
 11
2.6629524175
 21
1.5416729363
  0
LINE
  5
51D
100
AcDbEntity
  8
SST_PHO
100
AcDbLine
 62
7
  6
CONTINUOUS
 10
2.5630524175
 20
1.7308729363
 11
2.5740524175
 21
1.7358729363
  0
LINE
  5
51E
100
AcDbEntity
  8
SST_PHO
100
AcDbLine
 62
7
  6
CONTINUOUS
 10
2.5566524175
 20
1.7442729363
 11
2.5692524175
 21
1.7499729363
  0
LINE
  5
51F
100
AcDbEntity
  8
SST_PHO
100
AcDbLine
 62
7
  6
CONTINUOUS
 10
1.3084524175
 20
1.8561729363
 11
1.3733524175
 21
1.8789729363
  0
LINE
  5
520
100
AcDbEntity
  8
SST_PHO
100
AcDbLine
 62
7
  6
CONTINUOUS
 10
2.6565524175
 20
1.5525729363
 11
2.6455524175
 21
1.5475729363
  0
LINE
  5
521
100
AcDbEntity
  8
SST_PHO
100
AcDbLine
 62
7
  6
CONTINUOUS
 10
2.5692524175
 20
1.7499729363
 11
2.5824524175
 21
1.7540729363
  0
LINE
  5
522
100
AcDbEntity
  8
SST_PHO
100
AcDbLine
 62
7
  6
CONTINUOUS
 10
2.5740524175
 20
1.7358729363
 11
2.5857524175
 21
1.7394729363
  0
LINE
  5
523
100
AcDbEntity
  8
SST_PHO
100
AcDbLine
 62
7
  6
CONTINUOUS
 10
3.9874524175
 20
1.9547729363
 11
3.9225524175
 21
1.9303729363
  0
LINE
  5
524
100
AcDbEntity
  8
SST_PHO
100
AcDbLine
 62
7
  6
CONTINUOUS
 10
3.8974524175
 20
1.9285729363
 11
3.8325524175
 21
1.9057729363
  0
LINE
  5
525
100
AcDbEntity
  8
SST_PHO
100
AcDbLine
 62
7
  6
CONTINUOUS
 10
2.6455524175
 20
1.5475729363
 11
2.6338524175
 21
1.5439729363
  0
CIRCLE
  5
526
100
AcDbEntity
  8
DFN0102_DRL
100
AcDbCircle
 62
7
  6
CONTINUOUS
 10
1.3624524175
 20
1.2678729363
 40
0.0625
  0
CIRCLE
  5
527
100
AcDbEntity
  8
DFP0102_DRL
100
AcDbCircle
 62
7
  6
CONTINUOUS
 10
1.8124524175
 20
1.8928729363
 40
0.036
  0
CIRCLE
  5
528
100
AcDbEntity
  8
DFP0102_DRL
100
AcDbCircle
 62
7
  6
CONTINUOUS
 10
1.8124524175
 20
2.2178729363
 40
0.036
  0
CIRCLE
  5
529
100
AcDbEntity
  8
DFP0102_DRL
100
AcDbCircle
 62
7
  6
CONTINUOUS
 10
2.2624524175
 20
2.1928729363
 40
0.026
  0
CIRCLE
  5
52A
100
AcDbEntity
  8
DFP0102_DRL
100
AcDbCircle
 62
7
  6
CONTINUOUS
 10
2.2624524175
 20
1.4678729363
 40
0.021
  0
CIRCLE
  5
52B
100
AcDbEntity
  8
DFP0102_DRL
100
AcDbCircle
 62
7
  6
CONTINUOUS
 10
2.2624524175
 20
1.8678729363
 40
0.021
  0
CIRCLE
  5
52C
100
AcDbEntity
  8
DFP0102_DRL
100
AcDbCircle
 62
7
  6
CONTINUOUS
 10
2.2624524175
 20
2.0428729363
 40
0.021
  0
CIRCLE
  5
52D
100
AcDbEntity
  8
DFP0102_DRL
100
AcDbCircle
 62
7
  6
CONTINUOUS
 10
2.2624524175
 20
2.3428729363
 40
0.021
  0
CIRCLE
  5
52E
100
AcDbEntity
  8
DFP0102_DRL
100
AcDbCircle
 62
7
  6
CONTINUOUS
 10
1.8124524175
 20
1.7428729363
 40
0.01
  0
CIRCLE
  5
52F
100
AcDbEntity
  8
DFP0102_DRL
100
AcDbCircle
 62
7
  6
CONTINUOUS
 10
2.1624524175
 20
1.8678729363
 40
0.01
  0
CIRCLE
  5
530
100
AcDbEntity
  8
DFP0102_DRL
100
AcDbCircle
 62
7
  6
CONTINUOUS
 10
2.1624524175
 20
2.0428729363
 40
0.01
  0
CIRCLE
  5
531
100
AcDbEntity
  8
DFP0102_DRL
100
AcDbCircle
 62
7
  6
CONTINUOUS
 10
1.8124524175
 20
2.0678729363
 40
0.01
  0
CIRCLE
  5
532
100
AcDbEntity
  8
DFP0102_DRL
100
AcDbCircle
 62
7
  6
CONTINUOUS
 10
2.1624524175
 20
2.3428729363
 40
0.01
  0
CIRCLE
  5
533
100
AcDbEntity
  8
DFP0102_DRL
100
AcDbCircle
 62
7
  6
CONTINUOUS
 10
1.8124524175
 20
2.3928729363
 40
0.01
  0
CIRCLE
  5
534
100
AcDbEntity
  8
DFN0102_DRL
100
AcDbCircle
 62
7
  6
CONTINUOUS
 10
1.3624524175
 20
3.5178729363
 40
0.0625
  0
CIRCLE
  5
535
100
AcDbEntity
  8
DFP0102_DRL
100
AcDbCircle
 62
7
  6
CONTINUOUS
 10
1.8124524175
 20
2.5428729363
 40
0.036
  0
CIRCLE
  5
536
100
AcDbEntity
  8
DFP0102_DRL
100
AcDbCircle
 62
7
  6
CONTINUOUS
 10
1.8124524175
 20
2.8678729363
 40
0.036
  0
CIRCLE
  5
537
100
AcDbEntity
  8
DFP0102_DRL
100
AcDbCircle
 62
7
  6
CONTINUOUS
 10
2.2624524175
 20
2.5178729363
 40
0.021
  0
CIRCLE
  5
538
100
AcDbEntity
  8
DFP0102_DRL
100
AcDbCircle
 62
7
  6
CONTINUOUS
 10
2.1186335198
 20
2.9928729363
 40
0.021
  0
CIRCLE
  5
539
100
AcDbEntity
  8
DFP0102_DRL
100
AcDbCircle
 62
7
  6
CONTINUOUS
 10
2.1186335198
 20
3.2928729363
 40
0.021
  0
CIRCLE
  5
53A
100
AcDbEntity
  8
DFP0102_DRL
100
AcDbCircle
 62
7
  6
CONTINUOUS
 10
2.2624524175
 20
2.6678729363
 40
0.019
  0
CIRCLE
  5
53B
100
AcDbEntity
  8
DFP0102_DRL
100
AcDbCircle
 62
7
  6
CONTINUOUS
 10
2.1624524175
 20
2.5178729363
 40
0.01
  0
CIRCLE
  5
53C
100
AcDbEntity
  8
DFP0102_DRL
100
AcDbCircle
 62
7
  6
CONTINUOUS
 10
1.8124524175
 20
2.7178729363
 40
0.01
  0
CIRCLE
  5
53D
100
AcDbEntity
  8
DFP0102_DRL
100
AcDbCircle
 62
7
  6
CONTINUOUS
 10
2.5624524175
 20
2.6678729363
 40
0.01
  0
CIRCLE
  5
53E
100
AcDbEntity
  8
DFN0102_DRL
100
AcDbCircle
 62
7
  6
CONTINUOUS
 10
3.8624524175
 20
1.2678729363
 40
0.0625
  0
CIRCLE
  5
53F
100
AcDbEntity
  8
DFP0102_DRL
100
AcDbCircle
 62
7
  6
CONTINUOUS
 10
3.4124524175
 20
2.2178729363
 40
0.036
  0
CIRCLE
  5
540
100
AcDbEntity
  8
DFP0102_DRL
100
AcDbCircle
 62
7
  6
CONTINUOUS
 10
3.4124524175
 20
1.8928729363
 40
0.036
  0
CIRCLE
  5
541
100
AcDbEntity
  8
DFP0102_DRL
100
AcDbCircle
 62
7
  6
CONTINUOUS
 10
2.7624524175
 20
2.1928729363
 40
0.026
  0
CIRCLE
  5
542
100
AcDbEntity
  8
DFP0102_DRL
100
AcDbCircle
 62
7
  6
CONTINUOUS
 10
3.2374524175
 20
1.4428729363
 40
0.026
  0
CIRCLE
  5
543
100
AcDbEntity
  8
DFP0102_DRL
100
AcDbCircle
 62
7
  6
CONTINUOUS
 10
3.7374524175
 20
1.4428729363
 40
0.026
  0
CIRCLE
  5
544
100
AcDbEntity
  8
DFP0102_DRL
100
AcDbCircle
 62
7
  6
CONTINUOUS
 10
2.8624524175
 20
2.3428729363
 40
0.021
  0
CIRCLE
  5
545
100
AcDbEntity
  8
DFP0102_DRL
100
AcDbCircle
 62
7
  6
CONTINUOUS
 10
2.8624524175
 20
2.0428729363
 40
0.021
  0
CIRCLE
  5
546
100
AcDbEntity
  8
DFP0102_DRL
100
AcDbCircle
 62
7
  6
CONTINUOUS
 10
2.8624524175
 20
1.8678729363
 40
0.021
  0
CIRCLE
  5
547
100
AcDbEntity
  8
DFP0102_DRL
100
AcDbCircle
 62
7
  6
CONTINUOUS
 10
2.6124524175
 20
1.6928729363
 40
0.021
  0
CIRCLE
  5
548
100
AcDbEntity
  8
DFP0102_DRL
100
AcDbCircle
 62
7
  6
CONTINUOUS
 10
2.6124524175
 20
1.5928729363
 40
0.021
  0
CIRCLE
  5
549
100
AcDbEntity
  8
DFP0102_DRL
100
AcDbCircle
 62
7
  6
CONTINUOUS
 10
2.7624524175
 20
1.4678729363
 40
0.021
  0
CIRCLE
  5
54A
100
AcDbEntity
  8
DFP0102_DRL
100
AcDbCircle
 62
7
  6
CONTINUOUS
 10
3.2374524175
 20
1.5928729363
 40
0.021
  0
CIRCLE
  5
54B
100
AcDbEntity
  8
DFP0102_DRL
100
AcDbCircle
 62
7
  6
CONTINUOUS
 10
3.8374524175
 20
1.5928729363
 40
0.021
  0
CIRCLE
  5
54C
100
AcDbEntity
  8
DFP0102_DRL
100
AcDbCircle
 62
7
  6
CONTINUOUS
 10
2.7374524175
 20
1.8678729363
 40
0.01
  0
CIRCLE
  5
54D
100
AcDbEntity
  8
DFP0102_DRL
100
AcDbCircle
 62
7
  6
CONTINUOUS
 10
3.4124524175
 20
2.0428729363
 40
0.01
  0
CIRCLE
  5
54E
100
AcDbEntity
  8
DFP0102_DRL
100
AcDbCircle
 62
7
  6
CONTINUOUS
 10
3.4124524175
 20
2.3678729363
 40
0.01
  0
CIRCLE
  5
54F
100
AcDbEntity
  8
DFP0102_DRL
100
AcDbCircle
 62
7
  6
CONTINUOUS
 10
3.4124524175
 20
2.8678729363
 40
0.036
  0
CIRCLE
  5
550
100
AcDbEntity
  8
DFP0102_DRL
100
AcDbCircle
 62
7
  6
CONTINUOUS
 10
3.4124524175
 20
2.5428729363
 40
0.036
  0
CIRCLE
  5
551
100
AcDbEntity
  8
DFP0102_DRL
100
AcDbCircle
 62
7
  6
CONTINUOUS
 10
2.7124524175
 20
2.9928729363
 40
0.026
  0
CIRCLE
  5
552
100
AcDbEntity
  8
DFP0102_DRL
100
AcDbCircle
 62
7
  6
CONTINUOUS
 10
2.7124524175
 20
3.2928729363
 40
0.026
  0
CIRCLE
  5
553
100
AcDbEntity
  8
DFP0102_DRL
100
AcDbCircle
 62
7
  6
CONTINUOUS
 10
2.9061532049
 20
3.2928729363
 40
0.026
  0
CIRCLE
  5
554
100
AcDbEntity
  8
DFP0102_DRL
100
AcDbCircle
 62
7
  6
CONTINUOUS
 10
3.1061532049
 20
3.2928729363
 40
0.026
  0
CIRCLE
  5
555
100
AcDbEntity
  8
DFP0102_DRL
100
AcDbCircle
 62
7
  6
CONTINUOUS
 10
3.1061532049
 20
2.9928729363
 40
0.026
  0
CIRCLE
  5
556
100
AcDbEntity
  8
DFP0102_DRL
100
AcDbCircle
 62
7
  6
CONTINUOUS
 10
2.9061532049
 20
2.9928729363
 40
0.026
  0
CIRCLE
  5
557
100
AcDbEntity
  8
DFP0102_DRL
100
AcDbCircle
 62
7
  6
CONTINUOUS
 10
2.8624524175
 20
2.5178729363
 40
0.021
  0
CIRCLE
  5
558
100
AcDbEntity
  8
DFP0102_DRL
100
AcDbCircle
 62
7
  6
CONTINUOUS
 10
2.7624524175
 20
2.6678729363
 40
0.019
  0
ARC
  5
559
100
AcDbEntity
  8
SST_PHO
100
AcDbCircle
 62
7
  6
CONTINUOUS
 10
3.4656776155
 20
3.5386230018
 40
0.0181773151
100
AcDbArc
 50
299.8994680742
 51
60.0002768691
  0
ARC
  5
55A
100
AcDbEntity
  8
SST_PHO
100
AcDbCircle
 62
7
  6
CONTINUOUS
 10
3.4703252516
 20
3.5050229363
 40
0.0163603881
100
AcDbArc
 50
285.7001367414
 51
74.2998632585
  0
ARC
  5
55B
100
AcDbEntity
  8
SST_PHO
100
AcDbCircle
 62
7
  6
CONTINUOUS
 10
3.4679284025
 20
3.5053729363
 40
0.0126012289
100
AcDbArc
 50
269.1997981376
 51
90.8002018624
  0
ARC
  5
55C
100
AcDbEntity
  8
SST_PHO
100
AcDbCircle
 62
7
  6
CONTINUOUS
 10
3.4662480864
 20
3.5389730772
 40
0.0113005801
100
AcDbArc
 50
277.5995634172
 51
82.2997339591
  0
CIRCLE
  5
55D
100
AcDbEntity
  8
DFP0102_DRL
100
AcDbCircle
 62
7
  6
CONTINUOUS
 10
2.7374524175
 20
2.5178729363
 40
0.01
  0
CIRCLE
  5
55E
100
AcDbEntity
  8
DFP0102_DRL
100
AcDbCircle
 62
7
  6
CONTINUOUS
 10
3.4124524175
 20
2.6928729363
 40
0.01
  0
CIRCLE
  5
55F
100
AcDbEntity
  8
DFP0102_DRL
100
AcDbCircle
 62
7
  6
CONTINUOUS
 10
3.4124524175
 20
3.0178729363
 40
0.01
  0
ENDSEC
  0
SECTION
  2
OBJECTS
  0
DICTIONARY
  5
C
100
AcDbDictionary
280
0
281
1
  3
ACAD_GROUP
350
D
  3
ACAD_MLINESTYLE
350
17
  3
ACAD_LAYOUT
350
1A
  3
ACAD_PLOTSETTINGS
350
19
  3
ACAD_PLOTSTYLENAME
350
E
  0
DICTIONARY
  5
D
102
{ACAD_REACTORS
330
C
102
}
100
AcDbDictionary
280
0
281
1
  0
ACDBDICTIONARYWDFLT
  5
E
102
{ACAD_REACTORS
330
C
102
}
100
AcDbDictionary
281
1
  3
Normal
350
F
100
AcDbDictionaryWithDefault
340
F
  0
DICTIONARY
  5
17
102
{ACAD_REACTORS
330
C
102
}
100
AcDbDictionary
280
0
281
1
  3
Standard
350
18
  0
DICTIONARY
  5
19
102
{ACAD_REACTORS
330
C
102
}
100
AcDbDictionary
281
1
  0
DICTIONARY
  5
1A
102
{ACAD_REACTORS
330
C
102
}
100
AcDbDictionary
281
1
  3
Model
350
560
  3
Layout1
350
561
  0
ACDBPLACEHOLDER
  5
F
102
{ACAD_REACTORS
330
E
102
}
  0
MLINESTYLE
  5
18
102
{ACAD_REACTORS
330
17
102
}
100
AcDbMlineStyle
  2
STANDARD
 70
0
  3

 62
256
 51
90.0
 52
90.0
 71
2
 49
0.5
 62
256
  6
BYLAYER
 49
-0.5
 62
256
  6
BYLAYER
  0
LAYOUT
  5
560
102
{ACAD_REACTORS
330
1A
102
}
100
AcDbPlotSettings
  1

  2
none_device
  4
ANSI_A_(11.00_x_8.50_Inches)
  6

 40
0.0
 41
0.0
 42
0.0
 43
0.0
 44
279.4
 45
215.9
 46
0.0
 47
0.0
 48
0.0
 49
0.0
140
0.0
141
0.0
142
1.0
143
1.0
 70
1024
 72
0
 73
0
 74
0
  7

 75
0
147
1.0
148
0.0
149
0.0
100
AcDbLayout
  1
Model
 70
0
 71
0
 10
0.0
 20
0.0
 11
11.0
 21
8.5
 12
0.0
 22
0.0
 32
0.0
 14
0.0
 24
0.0
 34
0.0
 15
0.0
 25
0.0
 35
0.0
146
0.0
 13
0.0
 23
0.0
 33
0.0
 16
1.0
 26
0.0
 36
0.0
 17
0.0
 27
1.0
 37
0.0
 76
0
330
202
345
0
346
0
  0
LAYOUT
  5
561
102
{ACAD_REACTORS
330
1A
102
}
100
AcDbPlotSettings
  1

  2
none_device
  4
ANSI_A_(11.00_x_8.50_Inches)
  6

 40
0.0
 41
0.0
 42
0.0
 43
0.0
 44
279.4
 45
215.9
 46
0.0
 47
0.0
 48
0.0
 49
0.0
140
0.0
141
0.0
142
1.0
143
1.0
 70
0
 72
0
 73
0
 74
0
  7

 75
0
147
1.0
148
0.0
149
0.0
100
AcDbLayout
  1
Layout1
 70
0
 71
1
 10
0.0
 20
0.0
 11
11.0
 21
8.5
 12
0.0
 22
0.0
 32
0.0
 14
0.0
 24
0.0
 34
0.0
 15
0.0
 25
0.0
 35
0.0
146
0.0
 13
0.0
 23
0.0
 33
0.0
 16
1.0
 26
0.0
 36
0.0
 17
0.0
 27
1.0
 37
0.0
 76
0
330
203
345
0
346
0
  0
ENDSEC
  0
EOF
